<?xml version="1.0" standalone="no"?>
<!DOCTYPE svg PUBLIC "-//W3C//DTD SVG 1.1//EN" "http://www.w3.org/Graphics/SVG/1.1/DTD/svg11.dtd" >
<svg xmlns="http://www.w3.org/2000/svg" xmlns:xlink="http://www.w3.org/1999/xlink" version="1.1">
<metadata>
Created by FontForge 20170731 at Tue Dec 21 17:54:34 2021
 By Aleksey,,,
Copyright 2019-2021 The Manrope Project Authors (https://github.com/sharanda/manrope)
</metadata>
<defs>
<font id="Manrope-ExtraBold" horiz-adv-x="1272" >
  <font-face 
    font-family="Manrope ExtraBold"
    font-weight="800"
    font-stretch="normal"
    units-per-em="2000"
    panose-1="0 0 0 0 0 0 0 0 0 0"
    ascent="1600"
    descent="-400"
    x-height="1080"
    cap-height="1440"
    bbox="-286 -630 2500 2449"
    underline-thickness="100"
    underline-position="-350"
    unicode-range="U+000D-FB02"
  />
<missing-glyph horiz-adv-x="1480" 
d="M200 114h1080v-114h-1080v114zM200 224h1080v-80h-1080v80zM200 334h1080v-74h-1080v74zM200 444h1080v-70h-1080v70zM200 556h1080v-66h-1080v66zM200 666h1080v-60h-1080v60zM200 776h1080v-56h-1080v56zM200 886h1080v-48h-1080v48zM200 996h1080v-44h-1080v44z
M200 1108h1080v-42h-1080v42zM200 1220h1080v-36h-1080v36zM200 1330h1080v-32h-1080v32zM200 1440h1080v-26h-1080v26z" />
    <glyph glyph-name="uniE001" unicode="&#x28;c&#x29;" horiz-adv-x="2028" 
d="M586 -25q-196 115 -311 311t-115 428t115 428t311 311t428 115t428 -115t311 -311t115 -428t-115 -428t-311 -311t-428 -115t-428 115zM494.5 413q80.5 -138 218.5 -218.5t301 -80.5t301 80.5t218.5 218.5t80.5 301t-80.5 301t-218.5 218.5t-301 80.5t-301 -80.5
t-218.5 -218.5t-80.5 -301t80.5 -301zM728 1006q57 69 132 102.5t182 33.5q60 0 106.5 -12t95.5 -42q59 -35 98.5 -89.5t55.5 -126.5l-204 -54q-16 57 -60 96q-44 38 -104 38q-85 0 -140 -68q-46 -59 -46 -170q0 -103 46 -168q49 -68 144 -68q70 0 104 34q20 20 31 39t21 47
l208 -42q-17 -60 -50.5 -111.5t-81.5 -88.5q-47 -36 -102 -53t-132 -17q-103 0 -175 31.5t-129 102.5q-52 65 -76 137.5t-24 156.5q0 171 100 292z" />
    <glyph glyph-name="uniE002" unicode="&#x20;&#x3c;&#x33;&#x20;" horiz-adv-x="2318" 
d="M1077 -13q-39 17 -69 49l-332 350q-59 63 -88 139t-29 156q0 110 52 209t145 159.5t210 60.5q101 0 192 -50q93 50 194 50q118 0 211 -60.5t144.5 -159.5t51.5 -209q0 -81 -29 -156.5t-88 -138.5l-330 -350q-30 -31 -70 -48.5t-84 -17.5q-42 0 -81 17zM1158 182l332 348
q30 31 44.5 69.5t14.5 79.5q0 56 -25.5 107t-70.5 82.5t-101 31.5q-97 0 -194 -106q-97 106 -192 106q-56 0 -101 -31.5t-70 -82.5t-25 -107q0 -42 15 -80.5t45 -68.5z" />
    <glyph glyph-name="uniE003" unicode="&#x28;&#x3e;&#x29;" horiz-adv-x="2300" 
d="M1438 720l-432 -360v720zM293 223q133 -227 360 -360t497 -133t497 133t360 360t133 497t-133 497t-360 360t-497 133t-497 -133t-360 -360t-133 -497t133 -497zM512.5 1090q98.5 169 267.5 267.5t370 98.5t370 -98.5t267.5 -267.5t98.5 -370t-98.5 -370t-267.5 -267.5
t-370 -98.5t-370 98.5t-267.5 267.5t-98.5 370t98.5 370z" />
    <glyph glyph-name="uniE007" unicode="ff" horiz-adv-x="1464" 
d="M60 1080h170q0 68 2.5 109.5t18.5 91.5t51 89q55 61 122.5 80.5t147.5 19.5h46h134v-220h-124q-62 0 -94 -31t-32 -79v-60h250v-210h-250v-870h-272v870h-170v210zM752 1080h170q0 68 2.5 109.5t18.5 91.5t51 89q55 61 122.5 80.5t147.5 19.5h46h134v-220h-124
q-62 0 -94 -31t-32 -79v-60h250v-210h-250v-870h-272v870h-170v210z" />
    <glyph glyph-name="uniE008" unicode="ffl" horiz-adv-x="2114" 
d="M1194 0h-272v870h-170v210h170q0 68 2.5 109.5t18.5 91.5t51 89q55 61 122.5 80.5t147.5 19.5h46h134v-220h-124q-62 0 -94 -31t-32 -79v-60h488v360h272v-1440h-272v870h-488v-870zM60 1080h170q0 68 2.5 109.5t18.5 91.5t51 89q55 61 122.5 80.5t147.5 19.5h46h134
v-220h-124q-62 0 -94 -31t-32 -79v-60h250v-210h-250v-870h-272v870h-170v210z" />
    <glyph glyph-name="uniE009" unicode="tt" horiz-adv-x="1656" 
d="M594 -19q-122 0 -212 36.5t-134 116.5q-27 50 -36 102t-9 123l1 99v412h-184v210h184v300h272v-300h312v-210h-312v-396v-57q0 -52 4 -84t18 -53q41 -65 162 -65q46 0 128 11v-226q-104 -19 -194 -19zM1362 -19q-122 0 -212 36.5t-134 116.5q-27 50 -36 102t-9 123l1 99
v412h-184v210h184v300h272v-300h312v-210h-312v-396v-57q0 -52 4 -84t18 -53q41 -65 162 -65q46 0 128 11v-226q-104 -19 -194 -19z" />
    <glyph glyph-name="fi" unicode="fi" horiz-adv-x="1394" 
d="M60 1080h170q0 68 2.5 109.5t18.5 91.5t51 89q55 61 122.5 80.5t147.5 19.5h46h134v-220h-124q-62 0 -94 -31t-32 -79v-60h250v-210h-250v-870h-272v870h-170v210zM962 1470h272v-240h-272v240zM962 1080h272v-1080h-272v1080z" />
    <glyph glyph-name="fl" unicode="fl" horiz-adv-x="1422" 
d="M502 0h-272v870h-170v210h170q0 68 2.5 109.5t18.5 91.5t51 89q55 61 122.5 80.5t147.5 19.5h46h134v-220h-124q-62 0 -94 -31t-32 -79v-60h488v360h272v-1440h-272v870h-488v-870z" />
    <glyph glyph-name="hyphen_hyphen.liga" unicode="&#x2d;&#x2d;" horiz-adv-x="1080" 
d="M120 736h840v-210h-840v210z" />
    <glyph glyph-name="hyphen_greater.liga" unicode="&#x2d;&#x3e;" horiz-adv-x="2030" 
d="M280 736h1110l-250 250l126 128l484 -484l-484 -484l-126 128l252 252h-1112v210z" />
    <glyph glyph-name="less_hyphen.liga" unicode="&#x3c;&#x2d;" horiz-adv-x="2030" 
d="M638 526l252 -252l-126 -128l-484 484l484 484l126 -128l-250 -250h1110v-210h-1112z" />
    <glyph glyph-name=".notdef" horiz-adv-x="1480" 
d="M200 114h1080v-114h-1080v114zM200 224h1080v-80h-1080v80zM200 334h1080v-74h-1080v74zM200 444h1080v-70h-1080v70zM200 556h1080v-66h-1080v66zM200 666h1080v-60h-1080v60zM200 776h1080v-56h-1080v56zM200 886h1080v-48h-1080v48zM200 996h1080v-44h-1080v44z
M200 1108h1080v-42h-1080v42zM200 1220h1080v-36h-1080v36zM200 1330h1080v-32h-1080v32zM200 1440h1080v-26h-1080v26z" />
    <glyph glyph-name=".null" horiz-adv-x="1200" 
 />
    <glyph glyph-name="uni000D" unicode="&#xd;" horiz-adv-x="1200" 
 />
    <glyph glyph-name="space" unicode=" " horiz-adv-x="400" 
 />
    <glyph glyph-name="exclam" unicode="!" horiz-adv-x="752" 
d="M240 240h272v-240h-272v240zM240 1440h272v-1080h-272v1080z" />
    <glyph glyph-name="quotedbl" unicode="&#x22;" horiz-adv-x="984" 
d="M120 1440h272v-360h-272v360zM512 1440h272v-360h-272v360z" />
    <glyph glyph-name="numbersign" unicode="#" horiz-adv-x="1870" 
d="M468 378h-348l68 256h348l54 206h-348l70 254h346l94 346h264l-94 -346h216l94 346h264l-94 -346h348l-68 -254h-348l-56 -206h348l-68 -256h-348l-100 -376h-264l100 376h-216l-100 -376h-264zM1014 634l56 206h-216l-54 -206h214z" />
    <glyph glyph-name="dollar" unicode="$" horiz-adv-x="1282" 
d="M516 -17q-118 23 -210.5 85t-150.5 157t-75 215l270 42q27 -119 113.5 -188.5t206.5 -69.5q74 0 134 24t94 66.5t34 93.5q0 52 -32.5 86.5t-101.5 57.5l-356 110q-152 47 -230 142t-78 234q0 112 46 200t132 144.5t204 75.5v180h272v-186q155 -34 258.5 -137.5
t145.5 -268.5l-280 -50q-22 99 -99 158.5t-183 59.5q-63 0 -114.5 -21.5t-81.5 -58.5t-30 -82q0 -53 44 -90t140 -64l254 -72q128 -37 207 -90.5t116 -128.5t37 -179q0 -115 -51 -208.5t-144.5 -155t-218.5 -83.5v-181h-272v183z" />
    <glyph glyph-name="percent" unicode="%" horiz-adv-x="1800" 
d="M1139.5 18q-82.5 48 -131 131t-48.5 181q0 96 49.5 179t132.5 132t178 49q98 0 180.5 -48t131 -131t48.5 -181t-48.5 -181t-131 -131t-180.5 -48t-180.5 48zM169.5 1289q49.5 83 132.5 132t178 49q98 0 180.5 -48t131 -131t48.5 -181t-48.5 -181t-131 -131t-180.5 -48
t-180.5 48t-131 131t-48.5 181q0 96 49.5 179zM1440 1440l180 -182l-1260 -1258l-180 180zM368 1046q18 -30 48 -48t64 -18t64 18t48 48t18 64t-18 64t-48 48t-64 18t-64 -18t-48 -48t-18 -64t18 -64zM1208 266q18 -30 48 -48t64 -18t64 18t48 48t18 64t-18 64t-48 48
t-64 18t-64 -18t-48 -48t-18 -64t18 -64z" />
    <glyph glyph-name="ampersand" unicode="&#x26;" horiz-adv-x="1348" 
d="M390.5 7.5q-106.5 37.5 -176.5 112.5q-57 63 -84 137.5t-30 164.5q0 88 25.5 166t76.5 138q27 32 74 68q-56 64 -82 124.5t-26 137.5q0 86 32.5 162.5t92.5 132.5t141 85q85 30 204 30q104 0 192.5 -32t149.5 -98q38 -39 64 -88t38 -100l-270 -54q-12 42 -42 72
q-46 46 -140 46q-57 0 -100 -20q-45 -21 -66.5 -55t-21.5 -85q0 -42 14.5 -67.5t45.5 -58.5q31 -34 96 -92l330 -306v82v164h236v-274q0 -127 -12 -180l176 -162l-174 -186l-132 126q-110 -95 -252 -118q-70 -10 -148 -10q-125 0 -231.5 37.5zM386 366.5q12 -31.5 34 -60.5
q31 -39 91.5 -58.5t122.5 -19.5q49 0 86 8q61 12 106 44l-352 324q-40 -17 -66 -50q-34 -46 -34 -116q0 -40 12 -71.5z" />
    <glyph glyph-name="quotesingle" unicode="'" horiz-adv-x="552" 
d="M120 1440h272v-360h-272v360z" />
    <glyph glyph-name="parenleft" unicode="(" horiz-adv-x="924" 
d="M448.5 -89.5q-81.5 167.5 -125 352t-43.5 366.5v31v31q0 182 43.5 366.5t125 352t193.5 298.5l202 -148q-174 -209 -245 -426.5t-73 -473.5q2 -256 73 -473.5t245 -426.5l-202 -148q-112 131 -193.5 298.5z" />
    <glyph glyph-name="parenright" unicode=")" horiz-adv-x="924" 
d="M325 186.5q71 217.5 73 473.5q-2 256 -73 473.5t-245 426.5l202 148q112 -131 193.5 -298.5t125 -352t43.5 -366.5v-31v-31q0 -182 -43.5 -366.5t-125 -352t-193.5 -298.5l-202 148q174 209 245 426.5z" />
    <glyph glyph-name="asterisk" unicode="*" horiz-adv-x="948" 
d="M132 850l148 168l-220 56l74 228l208 -90l-18 228h240l-18 -228l208 90l74 -228l-220 -56l148 -168l-194 -140l-118 190l-118 -190z" />
    <glyph glyph-name="plus" unicode="+" horiz-adv-x="1140" 
d="M466 616h-346v210h346v344h210v-344h344v-210h-344v-346h-210v346z" />
    <glyph glyph-name="comma" unicode="," horiz-adv-x="632" 
d="M151 -157q54 0 83 33.5t29 89.5q0 16 -3 34h-140v272h272v-272q0 -131 -54 -203t-160 -72q-25 0 -58 5l16 114z" />
    <glyph glyph-name="hyphen" unicode="-" horiz-adv-x="840" 
d="M120 736h600v-210h-600v210z" />
    <glyph glyph-name="period" unicode="." horiz-adv-x="640" 
d="M184 272h272v-272h-272v272z" />
    <glyph glyph-name="slash" unicode="/" horiz-adv-x="896" 
d="M776 1440l-384 -1440h-272l384 1440h272z" />
    <glyph glyph-name="zero" unicode="0" horiz-adv-x="1348" 
d="M394.5 36.5q-121.5 66.5 -188 188t-66.5 279.5v432q0 158 66.5 279.5t188 188t279.5 66.5t279.5 -66.5t188 -188t66.5 -279.5v-432q0 -158 -66.5 -279.5t-188 -188t-279.5 -66.5t-279.5 66.5zM452 354.5q34 -58.5 92.5 -92.5t129.5 -34t129.5 34t92.5 92.5t34 129.5v474
q0 71 -34 129.5t-92.5 92.5t-129.5 34t-129.5 -34t-92.5 -92.5t-34 -129.5v-474q0 -71 34 -129.5z" />
    <glyph glyph-name="one" unicode="1" horiz-adv-x="908" 
d="M390 1144l-270 -166v300l270 162h278v-1440h-278v1144z" />
    <glyph glyph-name="two" unicode="2" horiz-adv-x="1208" 
d="M100 238l604 536q124 110 124 212q0 66 -27 117.5t-76.5 81t-114.5 29.5q-67 0 -120.5 -31t-82.5 -83t-27 -112h-280q0 146 64.5 255t181.5 168t270 59q140 0 252 -61.5t176 -172.5t64 -254q0 -103 -28.5 -172.5t-78.5 -123t-157 -146.5l-322 -282h586v-256h-1008v236z
" />
    <glyph glyph-name="three" unicode="3" horiz-adv-x="1182" 
d="M353.5 17.5q-98.5 43.5 -171 123.5t-102.5 185l264 70q20 -77 80.5 -121.5t135.5 -44.5q61 0 113 30t82.5 81.5t30.5 112.5q0 62 -29 113.5t-80.5 82t-116.5 30.5q-58 0 -112 -32l-122 214l388 322h-578v256h900v-256l-292 -283q100 -29 172 -96t109 -158t37 -193
q0 -133 -68.5 -243t-183.5 -173.5t-250 -63.5q-108 0 -206.5 43.5z" />
    <glyph glyph-name="four" unicode="4" horiz-adv-x="1230" 
d="M726 224h-626v254l454 962h312l-454 -962h314v360h276v-360h128v-254h-128v-224h-276v224z" />
    <glyph glyph-name="five" unicode="5" horiz-adv-x="1178" 
d="M364 14.5q-96 44.5 -165 125.5t-99 186l262 70q13 -50 46 -87.5t78 -58t92 -20.5q61 0 113 30t82.5 81.5t30.5 112.5t-30.5 112.5t-82.5 81.5t-113 30q-117 0 -196 -74l-230 70l44 766h786v-254h-545l-20 -314q46 25 99 37.5t102 12.5q134 0 238.5 -60t163 -166.5
t58.5 -241.5q0 -133 -70 -244t-187.5 -175.5t-252.5 -64.5q-108 0 -204 44.5z" />
    <glyph glyph-name="six" unicode="6" horiz-adv-x="1244" 
d="M385.5 37q-114.5 67 -180 188t-65.5 275v418q0 168 65.5 292.5t186.5 191t282 66.5q227 0 374 -136l-194 -194q-36 36 -83.5 56t-96.5 20q-75 0 -133.5 -36t-90.5 -94.5t-32 -125.5v-123q57 43 125.5 66t140.5 23q134 0 238.5 -60.5t163 -167.5t58.5 -242
q0 -133 -68.5 -244t-184 -175.5t-249.5 -64.5q-142 0 -256.5 67zM448 343.5q30 -51.5 81.5 -82.5t112.5 -31t113 30t82.5 81.5t30.5 112.5t-30 113t-81.5 82.5t-112.5 30.5t-113 -30.5t-82.5 -82.5t-30.5 -113q0 -59 30 -110.5z" />
    <glyph glyph-name="seven" unicode="7" horiz-adv-x="1088" 
d="M696 1184h-616v256h908v-256l-482 -1184h-294z" />
    <glyph glyph-name="eight" unicode="8" horiz-adv-x="1246" 
d="M363.5 29.5q-114.5 59.5 -179 165t-64.5 237.5q0 99 38.5 188t111.5 154q-55 63 -83.5 132t-28.5 150q0 123 59 217t164.5 145.5t240.5 51.5t240.5 -51.5t164.5 -145.5t59 -217q0 -82 -27 -150t-83 -132q72 -62 111 -152t39 -190q0 -132 -65 -237.5t-180 -165t-259 -59.5
t-258.5 59.5zM466 279q58 -53 156 -53q99 0 157.5 53t58.5 153q0 99 -59 153.5t-157 54.5t-156 -54.5t-58 -153.5q0 -100 58 -153zM493.5 938q47.5 -40 128.5 -40t128.5 40t47.5 118q0 79 -47.5 119.5t-128.5 40.5t-128.5 -40.5t-47.5 -119.5q0 -78 47.5 -118z" />
    <glyph glyph-name="nine" unicode="9" horiz-adv-x="1244" 
d="M858.5 1401q114.5 -67 180 -188t65.5 -275v-418q0 -168 -65.5 -292.5t-186.5 -191t-282 -66.5q-227 0 -374 136l194 194q36 -36 83.5 -56t96.5 -20q75 0 133.5 36t90.5 94.5t32 125.5v123q-57 -43 -125.5 -66t-140.5 -23q-134 0 -238.5 60.5t-163 167.5t-58.5 242
q0 133 68.5 244t184 175.5t249.5 64.5q142 0 256.5 -67zM406 871q30 -52 81.5 -82.5t112.5 -30.5t113 30.5t82.5 82.5t30.5 113q0 59 -30 110.5t-81.5 82.5t-112.5 31t-113 -30t-82.5 -81.5t-30.5 -112.5t30 -113z" />
    <glyph glyph-name="colon" unicode=":" horiz-adv-x="714" 
d="M220 392h272v-272h-272v272zM222 960h272v-272h-272v272z" />
    <glyph glyph-name="semicolon" unicode=";" horiz-adv-x="712" 
d="M251 -157q54 0 83 33.5t29 89.5q0 16 -3 34h-140v272h272v-272q0 -131 -54 -203t-160 -72q-25 0 -58 5l16 114zM220 1080h272v-272h-272v272z" />
    <glyph glyph-name="less" unicode="&#x3c;" horiz-adv-x="1290" 
d="M280 630l484 484l168 -168l-328 -316l328 -316l-168 -168z" />
    <glyph glyph-name="equal" unicode="=" horiz-adv-x="1500" 
d="M240 1020h1020v-210h-1020v210zM240 630h1020v-210h-1020v210z" />
    <glyph glyph-name="greater" unicode="&#x3e;" horiz-adv-x="1290" 
d="M358 314l328 316l-328 316l168 168l484 -484l-484 -484z" />
    <glyph glyph-name="question" unicode="?" horiz-adv-x="1126" 
d="M409.5 523.5q15.5 65.5 46.5 118.5q21 43 44.5 69t68.5 64q7 6 37 32.5t64 62.5q39 43 53.5 85.5t14.5 98.5q0 62 -26 96q-23 32 -61.5 47t-86.5 15q-36 0 -68 -8.5t-54 -25.5q-28 -21 -42 -53t-12 -71h-288q12 108 61.5 196.5t126.5 139.5q57 37 126 57.5t138 20.5
q120 0 219.5 -37t162.5 -115q43 -51 67.5 -118.5t24.5 -135.5q0 -102 -45 -190.5t-125 -173.5l-51 -53q-25 -25 -47 -49.5t-36 -45.5q-27 -44 -33.5 -72.5t-6.5 -87.5h-288q0 68 15.5 133.5zM396 288h286v-288h-286v288z" />
    <glyph glyph-name="at" unicode="@" horiz-adv-x="1834" 
d="M520.5 -118q-171.5 92 -266 255.5t-94.5 368.5q0 260 101 436.5t269 262t370 85.5q246 0 421 -96.5t264 -259.5t89 -360q0 -208 -76 -315t-248 -107q-65 0 -126.5 24t-99.5 69q-44 -49 -103.5 -71t-126.5 -22q-110 0 -196.5 48.5t-135 137t-48.5 202.5q0 116 51 204
t138.5 136t194.5 48q49 0 105.5 -16.5t100.5 -43.5v32h162l-4 -394q0 -142 88 -142q48 0 69 26.5t25 65.5t4 118q0 194 -84.5 307t-204 156t-239.5 43q-167 0 -288 -64t-185 -184.5t-64 -287.5q0 -175 65.5 -297t187 -184.5t286.5 -62.5q108 0 210 34l68 -200
q-132 -44 -288 -44q-220 0 -391.5 92zM784.5 411q44.5 -47 125.5 -47q158 0 158 176q0 86 -38 131t-112 45q-89 0 -133.5 -47t-44.5 -129t44.5 -129z" />
    <glyph glyph-name="A" unicode="A" horiz-adv-x="1366" 
d="M480 1440h406l440 -1440h-280l-93 300h-542l-91 -300h-280zM875 554l-195 631l-192 -631h387z" />
    <glyph glyph-name="B" unicode="B" horiz-adv-x="1274" 
d="M140 1440h576q146 0 243 -59t143 -151t46 -194q0 -97 -35.5 -168t-100.5 -111q98 -41 150 -127.5t52 -193.5q0 -131 -48.5 -229t-146 -152.5t-241.5 -54.5h-638v1440zM750 256q55 0 98 23.5t67.5 66.5t24.5 100q0 80 -49 129t-141 49h-334v-368h334zM712 878
q73 0 116.5 38t43.5 114q0 68 -42 112t-118 44h-296v-308h296z" />
    <glyph glyph-name="C" unicode="C" horiz-adv-x="1492" 
d="M387 63.5q-158 93.5 -242.5 263.5t-84.5 393t84.5 393t242.5 263.5t371 93.5q163 0 294 -55t222.5 -157.5t137.5 -243.5l-274 -76q-41 133 -137 204.5t-243 71.5q-135 0 -227 -60.5t-138.5 -171t-46.5 -262.5t46.5 -262.5t138.5 -171t227 -60.5q147 0 243 71.5t137 204.5
l274 -76q-46 -141 -137.5 -243.5t-222.5 -157.5t-294 -55q-213 0 -371 93.5z" />
    <glyph glyph-name="D" unicode="D" horiz-adv-x="1420" 
d="M140 1440h466q106 0 172 -8q169 -20 291.5 -119t186.5 -253.5t64 -339.5t-64 -339.5t-186.5 -253.5t-291.5 -119q-66 -8 -172 -8h-466v1440zM606 256q106 0 156 10q90 18 150.5 85.5t90 164t29.5 204.5q0 111 -30.5 208t-91 163t-148.5 83q-50 10 -156 10h-190v-928h190z
" />
    <glyph glyph-name="E" unicode="E" horiz-adv-x="1180" 
d="M140 1440h940v-254h-668v-308h548v-254h-548v-370h668v-254h-940v1440z" />
    <glyph glyph-name="F" unicode="F" horiz-adv-x="1060" 
d="M140 1440h880v-272h-608v-312h488v-272h-488v-584h-272v1440z" />
    <glyph glyph-name="G" unicode="G" horiz-adv-x="1482" 
d="M399 57.5q-155 87.5 -247 257t-92 405.5q0 232 90 402t245 259t345 89q272 0 433.5 -126.5t216.5 -367.5l-278 -40q-41 131 -132.5 204.5t-229.5 73.5q-132 0 -222 -61t-135 -172t-45 -261q0 -233 106.5 -363.5t313.5 -130.5q140 0 234.5 81.5t125.5 244.5h-228v210h518
q2 -20 3 -45.5t1 -38.5q0 -206 -84 -367t-238.5 -251t-359.5 -90q-186 0 -341 87.5z" />
    <glyph glyph-name="H" unicode="H" horiz-adv-x="1468" 
d="M140 1440h272v-592h644v592h272v-1440h-272v594h-644v-594h-272v1440z" />
    <glyph glyph-name="I" unicode="I" horiz-adv-x="592" 
d="M160 1440h272v-1440h-272v1440z" />
    <glyph glyph-name="J" unicode="J" horiz-adv-x="1026" 
d="M160.5 56q-112.5 86 -160.5 240l268 64q6 -36 30.5 -67.5t60 -50t71.5 -18.5q42 0 84 22.5t60 65.5q11 26 13.5 62.5t2.5 105.5v960h276v-960v-83q0 -76 -9 -124.5t-39 -100.5q-60 -103 -156.5 -152.5t-219.5 -49.5q-169 0 -281.5 86z" />
    <glyph glyph-name="K" unicode="K" horiz-adv-x="1330" 
d="M140 1440h272v-664l548 664h332l-602 -710l640 -730h-344l-574 656v-656h-272v1440z" />
    <glyph glyph-name="L" unicode="L" horiz-adv-x="1082" 
d="M160 1440h272v-1186h620v-254h-892v1440z" />
    <glyph glyph-name="M" unicode="M" horiz-adv-x="1720" 
d="M140 1440h244l476 -956l476 956h244v-1440h-254v860l-418 -860h-96l-418 860v-860h-254v1440z" />
    <glyph glyph-name="N" unicode="N" horiz-adv-x="1458" 
d="M140 1440h276l626 -960v960h276v-1440h-276l-626 960v-960h-276v1440z" />
    <glyph glyph-name="O" unicode="O" horiz-adv-x="1516" 
d="M387 63.5q-158 93.5 -242.5 263.5t-84.5 393t84.5 393t242.5 263.5t371 93.5t371 -93.5t242.5 -263.5t84.5 -393t-84.5 -393t-242.5 -263.5t-371 -93.5t-371 93.5zM454 357q106 -131 312 -131q132 0 222 61t135 172t45 261q0 232 -106 363t-312 131q-132 0 -222 -61
t-135 -172t-45 -261q0 -232 106 -363z" />
    <glyph glyph-name="P" unicode="P" horiz-adv-x="1300" 
d="M140 1440h608q69 0 120 -8q187 -29 279.5 -153.5t92.5 -314.5q0 -189 -93 -314t-279 -154q-51 -8 -120 -8h-336v-488h-272v1440zM736 742q57 0 92 10q75 20 106.5 80.5t31.5 131.5t-31.5 131.5t-106.5 80.5q-35 10 -92 10h-324v-444h324z" />
    <glyph glyph-name="Q" unicode="Q" horiz-adv-x="1516" 
d="M1155 80q-166 -110 -397 -110q-213 0 -371 93.5t-242.5 263.5t-84.5 393t84.5 393t242.5 263.5t371 93.5t371 -93.5t242.5 -263.5t84.5 -393q0 -140 -33.5 -260t-98.5 -214l108 -108l-166 -168zM454 357q106 -131 311 -131q114 0 198 46l-117 116l168 168l106 -106
q48 113 48 270q0 232 -106 363t-312 131q-132 0 -222 -61t-135 -172t-45 -261q0 -232 106 -363z" />
    <glyph glyph-name="R" unicode="R" horiz-adv-x="1340" 
d="M140 1440h608q69 0 120 -8q187 -29 279.5 -153.5t92.5 -314.5q0 -151 -60 -263t-180 -167l260 -534h-308l-237 488h-303v-488h-272v1440zM736 742q57 0 92 10q75 20 106.5 80.5t31.5 131.5t-31.5 131.5t-106.5 80.5q-35 10 -92 10h-324v-444h324z" />
    <glyph glyph-name="S" unicode="S" horiz-adv-x="1342" 
d="M395.5 27q-129.5 57 -211.5 163t-104 250l284 42q20 -81 69 -139.5t118.5 -88.5t150.5 -30q69 0 132 21.5t102.5 63.5t39.5 99q0 48 -31 84t-109 60l-374 110q-82 23 -150.5 59t-122 114t-53.5 203q0 139 70.5 236t191 145.5t270.5 48.5q226 0 377.5 -109.5t204.5 -312.5
l-294 -50q-16 70 -60.5 119t-106 74t-130.5 25q-63 0 -117 -20t-87 -57t-33 -85q0 -63 52 -97t140 -57l250 -68q107 -29 189.5 -67t145.5 -120t63 -215q0 -148 -80.5 -251.5t-212.5 -155t-285 -51.5q-159 0 -288.5 57z" />
    <glyph glyph-name="T" unicode="T" horiz-adv-x="1220" 
d="M474 1186h-454v254h1180v-254h-454v-1186h-272v1186z" />
    <glyph glyph-name="U" unicode="U" horiz-adv-x="1452" 
d="M420 40.5q-133 70.5 -206.5 199.5t-73.5 300v898l276 2v-898q0 -93 41 -165t112 -111.5t157 -39.5q87 0 158 40.5t111.5 112.5t40.5 163v898h276v-900q0 -171 -73.5 -300t-206.5 -199.5t-306 -70.5t-306 70.5z" />
    <glyph glyph-name="V" unicode="V" horiz-adv-x="1306" 
d="M10 1440h280l360 -1184l366 1184h280l-440 -1440h-406z" />
    <glyph glyph-name="W" unicode="W" horiz-adv-x="1978" 
d="M20 1440h286l270 -990l270 988l286 2l270 -990l270 990h286l-422 -1440h-268l-279 972l-279 -972h-268z" />
    <glyph glyph-name="X" unicode="X" horiz-adv-x="1344" 
d="M504 728l-470 712h334l306 -480l302 480h336l-470 -712l482 -728h-334l-316 496l-318 -496h-336z" />
    <glyph glyph-name="Y" unicode="Y" horiz-adv-x="1260" 
d="M492 586l-492 854h318l312 -542l312 542h318l-492 -854v-586h-276v586z" />
    <glyph glyph-name="Z" unicode="Z" horiz-adv-x="1360" 
d="M100 34l684 1152h-624v254h1100v-34l-680 -1150h660v-256h-1140v34z" />
    <glyph glyph-name="bracketleft" unicode="[" horiz-adv-x="858" 
d="M280 1800h458v-240h-218v-1740h218v-240h-458v2220z" />
    <glyph glyph-name="backslash" unicode="\" horiz-adv-x="896" 
d="M776 0h-272l-384 1440h272z" />
    <glyph glyph-name="bracketright" unicode="]" horiz-adv-x="858" 
d="M120 -420v240h218v1740h-218v240h458v-2220h-458z" />
    <glyph glyph-name="asciicircum" unicode="^" horiz-adv-x="1368" 
d="M694 1471l485 -484l-168 -168l-317 328l-315 -329l-168 168z" />
    <glyph glyph-name="underscore" unicode="_" horiz-adv-x="1320" 
d="M0 -44h1320v-210h-1320v210z" />
    <glyph glyph-name="grave" unicode="`" horiz-adv-x="1110" 
d="M320 1980h202l166 -390h-202z" />
    <glyph glyph-name="a" unicode="a" horiz-adv-x="1166" 
d="M246.5 13.5q-81.5 43.5 -124 118.5t-42.5 166q0 118 55 199t181 127q70 26 171 44.5t291 46.5q-8 76 -55.5 111.5t-142.5 35.5q-69 0 -131 -32t-85 -100l-246 78q42 140 158 221t304 81q319 0 422 -196q29 -54 36.5 -109.5t7.5 -144.5v-660h-238v132q-72 -86 -158 -124
t-210 -38q-112 0 -193.5 43.5zM386.5 215.5q40.5 -31.5 111.5 -31.5q69 0 121 24.5t83.5 57.5t45.5 62q26 53 28 167q-141 -24 -207 -38t-111 -31q-59 -24 -85.5 -53.5t-26.5 -70.5q0 -55 40.5 -86.5z" />
    <glyph glyph-name="b" unicode="b" horiz-adv-x="1248" 
d="M378 62v-62h-240v1440h274v-396q105 66 244 66q152 0 268.5 -73t180 -203t63.5 -294q0 -161 -62.5 -291t-176 -204.5t-259.5 -74.5q-171 0 -292 92zM626 212q126 0 190 91.5t64 236.5q0 93 -29 167t-88 117.5t-147 43.5q-123 0 -180.5 -87t-57.5 -241q0 -328 248 -328z
" />
    <glyph glyph-name="c" unicode="c" horiz-adv-x="1166" 
d="M330.5 44q-121.5 74 -186 203.5t-64.5 292.5q0 164 66.5 293.5t189 203t284.5 73.5q126 0 227.5 -43.5t168 -125t90.5 -191.5l-272 -72q-24 83 -83 130.5t-135 47.5q-124 0 -186 -87t-62 -229q0 -145 64 -230.5t184 -85.5q88 0 137.5 40t74.5 122l278 -58
q-46 -172 -174 -265t-316 -93q-164 0 -285.5 74z" />
    <glyph glyph-name="d" unicode="d" horiz-adv-x="1250" 
d="M318.5 44.5q-113.5 74.5 -176 204.5t-62.5 291q0 164 63.5 294t180 203t268.5 73q139 0 244 -66v396h274v-1440h-240v62q-121 -92 -292 -92q-146 0 -259.5 74.5zM432 303.5q64 -91.5 190 -91.5q248 0 248 328q0 154 -57.5 241t-180.5 87q-88 0 -147 -43.5t-88 -117.5
t-29 -167q0 -145 64 -236.5z" />
    <glyph glyph-name="e" unicode="e" horiz-adv-x="1216" 
d="M350.5 41q-127.5 71 -199 198t-71.5 287q0 174 69.5 306.5t193.5 205t283 72.5q156 0 271 -69t176.5 -196t61.5 -298q0 -27 -4 -83h-758q15 -116 79.5 -178t173.5 -62q79 0 136.5 35t87.5 101l272 -78q-40 -97 -113 -167.5t-168 -107.5t-199 -37q-164 0 -291.5 71z
M856 666q-14 109 -66.5 158.5t-151.5 49.5q-215 0 -258 -208h476z" />
    <glyph glyph-name="f" unicode="f" horiz-adv-x="772" 
d="M60 1080h170q0 68 2.5 109.5t18.5 91.5t51 89q55 61 122.5 80.5t147.5 19.5h46h134v-220h-124q-62 0 -94 -31t-32 -79v-60h250v-210h-250v-870h-272v870h-170v210z" />
    <glyph glyph-name="g" unicode="g" horiz-adv-x="1248" 
d="M350 -446q-116 64 -178 170l252 122q25 -47 73.5 -72.5t106.5 -25.5q63 0 116.5 21t85.5 62t30 99v109q-110 -69 -258 -69q-146 0 -259.5 74.5t-176 204.5t-62.5 291q0 164 63.5 294t180 203t268.5 73q163 0 278 -90v60h238v-1154q0 -85 -16 -146q-38 -143 -170.5 -216.5
t-319.5 -73.5q-136 0 -252 64zM432 303.5q64 -91.5 190 -91.5q248 0 248 328q0 154 -57.5 241t-180.5 87q-88 0 -147 -43.5t-88 -117.5t-29 -167q0 -145 64 -236.5z" />
    <glyph glyph-name="h" unicode="h" 
d="M864 664q-12 72 -63.5 132t-156.5 60q-94 0 -162 -64.5t-68 -243.5v-548h-276v1440h242v-471q61 68 149 105.5t201 37.5q190 0 283.5 -97t116 -205t22.5 -204v-606h-276v510q0 82 -12 154z" />
    <glyph glyph-name="i" unicode="i" horiz-adv-x="592" 
d="M160 1470h272v-240h-272v240zM160 1080h272v-1080h-272v1080z" />
    <glyph glyph-name="j" unicode="j" horiz-adv-x="602" 
d="M-20 -226h48q89 0 125.5 40t36.5 122v1144h272v-1276q0 -85 -36.5 -149.5t-104 -99.5t-157.5 -35h-184v254zM190 1470h272v-240h-272v240z" />
    <glyph glyph-name="k" unicode="k" horiz-adv-x="1104" 
d="M140 1440h276v-880l366 520h336l-390 -540l416 -540h-354l-374 520v-520h-278z" />
    <glyph glyph-name="l" unicode="l" horiz-adv-x="592" 
d="M160 1440h272v-1440h-272v1440z" />
    <glyph glyph-name="m" unicode="m" horiz-adv-x="1832" 
d="M1389.5 804q-50.5 60 -139.5 60q-56 0 -98.5 -26.5t-66 -74t-23.5 -109.5v-654h-272v638q0 106 -50.5 166t-139.5 60q-56 0 -98.5 -26.5t-66 -74t-23.5 -109.5v-654h-274v1080h240v-118q55 68 137.5 106t178.5 38q112 0 191 -44.5t123 -123.5q53 79 140 123.5t190 44.5
q121 0 205 -49t126.5 -138.5t42.5 -208.5v-710h-272v638q0 106 -50.5 166z" />
    <glyph glyph-name="n" unicode="n" 
d="M864 664q-12 72 -63.5 132t-156.5 60q-94 0 -162 -64.5t-68 -243.5v-548h-276v1080h242v-111q61 68 149 105.5t201 37.5q190 0 283.5 -97t116 -205t22.5 -204v-606h-276v510q0 82 -12 154z" />
    <glyph glyph-name="o" unicode="o" horiz-adv-x="1254" 
d="M341 42.5q-124 72.5 -192.5 202t-68.5 295.5q0 167 69.5 296.5t194 201.5t282.5 72q161 0 285.5 -72.5t193.5 -202.5t69 -295q0 -166 -69.5 -295.5t-194 -202t-284.5 -72.5q-161 0 -285 72.5zM434.5 308q66.5 -84 191.5 -84q127 0 193.5 86t66.5 230q0 147 -67 231.5
t-193 84.5q-129 0 -193.5 -84.5t-64.5 -231.5q0 -148 66.5 -232z" />
    <glyph glyph-name="p" unicode="p" horiz-adv-x="1248" 
d="M412 39v-519h-274v1560h240v-60q115 90 278 90q152 0 268.5 -73t180 -203t63.5 -294q0 -161 -62.5 -291t-176 -204.5t-259.5 -74.5q-148 0 -258 69zM626 212q126 0 190 91.5t64 236.5q0 93 -29 167t-88 117.5t-147 43.5q-123 0 -180.5 -87t-57.5 -241q0 -328 248 -328z
" />
    <glyph glyph-name="q" unicode="q" horiz-adv-x="1250" 
d="M318.5 44.5q-113.5 74.5 -176 204.5t-62.5 291q0 164 63.5 294t180 203t268.5 73q163 0 278 -90v60h240v-1560h-274v519q-110 -69 -258 -69q-146 0 -259.5 74.5zM432 303.5q64 -91.5 190 -91.5q248 0 248 328q0 154 -57.5 241t-180.5 87q-88 0 -147 -43.5t-88 -117.5
t-29 -167q0 -145 64 -236.5z" />
    <glyph glyph-name="r" unicode="r" horiz-adv-x="824" 
d="M140 1080h240v-174q45 81 116 122q91 56 216 56q34 0 62 -4v-254q-31 10 -77 10q-76 0 -135 -28q-72 -33 -110 -98t-38 -158v-552h-274v1080z" />
    <glyph glyph-name="s" unicode="s" horiz-adv-x="1094" 
d="M232.5 62q-125.5 92 -152.5 262l278 42q17 -77 75.5 -119.5t148.5 -42.5q73 0 113.5 28.5t40.5 79.5q0 34 -16.5 52.5t-68 36.5t-175.5 51q-134 34 -212 76t-113 100t-35 142q0 103 53 180t150 118.5t227 41.5q126 0 224.5 -39t159 -111.5t74.5 -169.5l-278 -50
q-7 60 -52 95t-122 41l-21 1q-66 0 -105.5 -25t-39.5 -68q0 -29 20 -47.5t78 -38t190 -52.5q124 -32 198 -74.5t108 -101.5t34 -144q0 -110 -54 -190.5t-156 -123t-242 -42.5q-204 0 -329.5 92z" />
    <glyph glyph-name="t" unicode="t" horiz-adv-x="888" 
d="M594 -19q-122 0 -212 36.5t-134 116.5q-27 50 -36 102t-9 123l1 99v412h-184v210h184v300h272v-300h312v-210h-312v-396v-57q0 -52 4 -84t18 -53q41 -65 162 -65q46 0 128 11v-226q-104 -19 -194 -19z" />
    <glyph glyph-name="u" unicode="u" 
d="M258.5 65q-93.5 97 -116 205t-22.5 204v606h276v-510q0 -82 12 -154t63.5 -132t156.5 -60q94 0 162 64.5t68 243.5v548h274v-1080h-240v111q-61 -68 -149 -105.5t-201 -37.5q-190 0 -283.5 97z" />
    <glyph glyph-name="v" unicode="v" horiz-adv-x="1136" 
d="M40 1080h272l256 -748l256 748h272l-392 -1080h-272z" />
    <glyph glyph-name="w" unicode="w" horiz-adv-x="1628" 
d="M40 1082l266 -2l196 -644l199 644h226l199 -644l196 644h266l-330 -1080h-208l-236 704l-236 -704h-208z" />
    <glyph glyph-name="x" unicode="x" horiz-adv-x="1126" 
d="M406 546l-378 534h320l216 -320l212 320h320l-378 -534l388 -546h-320l-222 332l-224 -332h-320z" />
    <glyph glyph-name="y" unicode="y" horiz-adv-x="1140" 
d="M456 9l-436 1071h282l284 -735l282 735h272l-610 -1560h-252z" />
    <glyph glyph-name="z" unicode="z" horiz-adv-x="1070" 
d="M40 34l530 810h-470v236h890v-34l-528 -810h508v-236h-930v34z" />
    <glyph glyph-name="braceleft" unicode="{" horiz-adv-x="918" 
d="M480 -342q-78 78 -78 216v584q0 19 -10 32l-90 128q-22 32 -22 72t22 72l90 128q10 17 10 32v584q0 91 35 157t101.5 101.5t157.5 35.5h142v-256h-122q-24 0 -41 -17t-17 -41v-564q0 -98 -58 -180l-38 -52l38 -52q58 -82 58 -180v-564q0 -25 17 -42.5t41 -17.5h122v-254
h-142q-138 0 -216 78z" />
    <glyph glyph-name="bar" unicode="|" horiz-adv-x="632" 
d="M180 1440h272v-1440h-272v1440z" />
    <glyph glyph-name="braceright" unicode="}" horiz-adv-x="918" 
d="M80 -420v254h122q24 0 41 17.5t17 42.5v564q0 98 58 180l38 52l-38 52q-58 82 -58 180v564q0 24 -17 41t-41 17h-122v256h142q91 0 157.5 -35.5t101.5 -101.5t35 -157v-584q0 -15 10 -32l90 -128q23 -34 23 -72t-23 -72l-90 -128q-10 -13 -10 -32v-584q0 -138 -78 -216
t-216 -78h-142z" />
    <glyph glyph-name="asciitilde" unicode="~" horiz-adv-x="1468" 
d="M880.5 407.5q-47.5 17.5 -87.5 42t-97 64.5q-60 43 -98 64t-70 21q-31 0 -48.5 -26.5t-17.5 -70.5q0 -34 10 -70h-237q-19 76 -19 148q0 133 69.5 212.5t205.5 79.5q48 0 96 -17.5t88 -42t97 -64.5q63 -44 99.5 -64.5t68.5 -20.5q30 0 48 26.5t18 70.5q0 34 -10 70h237
q19 -82 19 -147q0 -134 -70 -213.5t-206 -79.5q-48 0 -95.5 17.5z" />
    <glyph glyph-name="uni00A0" unicode="&#xa0;" horiz-adv-x="400" 
 />
    <glyph glyph-name="exclamdown" unicode="&#xa1;" horiz-adv-x="752" 
d="M512 1080v-240h-272v240h272zM240 720h272v-1080h-272v1080z" />
    <glyph glyph-name="cent" unicode="&#xa2;" horiz-adv-x="1166" 
d="M286 224.5q-100 77.5 -153 198t-53 267.5q0 146 54 266.5t154.5 197.5t235.5 98v188h210v-190q146 -27 244 -118.5t128 -231.5l-272 -72q-24 83 -83 130.5t-135 47.5q-124 0 -186 -87t-62 -229q0 -145 64 -230.5t184 -85.5q88 0 137.5 40t74.5 122l278 -58
q-39 -143 -134.5 -232t-237.5 -116v-188h-210v184q-138 21 -238 98.5z" />
    <glyph glyph-name="sterling" unicode="&#xa3;" horiz-adv-x="1142" 
d="M80 254h2q40 0 74.5 21t55 56.5t20.5 74.5v186h-152v256h152v234q0 108 56 197t151.5 140t210.5 51q152 0 251.5 -98.5t160.5 -269.5l-244 -80q-28 94 -67 143t-101 49t-101 -41t-39 -105l-1 -220h283v-256h-283l-1 -338h446v-254h-874v254z" />
    <glyph glyph-name="currency" unicode="&#xa4;" horiz-adv-x="1360" 
d="M412 270l-172 -170l-180 180l171 171q-75 123 -75 271q0 142 73 267l-169 169l180 182l170 -170q125 76 270 76q148 0 271 -75l169 169l180 -182l-168 -168q74 -124 74 -268q0 -73 -19.5 -142.5t-56.5 -129.5l170 -170l-180 -180l-170 170q-124 -74 -270 -74
q-145 0 -268 74zM424 573q40 -68 108 -108.5t148 -40.5t148 40.5t108 108.5t40 147q0 80 -40.5 148t-108.5 108t-147 40q-81 0 -149 -39.5t-107.5 -107.5t-39.5 -149q0 -79 40 -147z" />
    <glyph glyph-name="yen" unicode="&#xa5;" horiz-adv-x="1260" 
d="M210 736h196l-406 704h318l312 -542l312 542h318l-406 -704h196v-210h-282v-128h282v-210h-282v-188h-276v188h-282v210h282v128h-282v210z" />
    <glyph glyph-name="brokenbar" unicode="&#xa6;" horiz-adv-x="632" 
d="M180 1440h272v-840h-272v840zM180 400h272v-840h-272v840z" />
    <glyph glyph-name="section" unicode="&#xa7;" horiz-adv-x="1094" 
d="M252.5 -180.5q-123.5 89.5 -152.5 264.5l278 42q16 -77 71.5 -119.5t128.5 -42.5q58 0 98 27.5t40 80.5q0 37 -23 58t-72 37t-165 45q-186 48 -273 117.5t-87 180.5q0 84 46 143t123 94q-76 41 -112.5 99t-36.5 144q0 112 57.5 189t150 114t196.5 37t195 -36.5t153 -109
t76 -174.5l-278 -50q-12 70 -49 104t-105 34q-56 0 -91 -22.5t-35 -65.5q0 -33 23 -54t61.5 -34.5t114.5 -32.5q65 -16 89 -23q121 -34 194 -72.5t109.5 -95t36.5 -140.5t-35 -145t-102 -96q60 -39 88.5 -93.5t28.5 -133.5q0 -114 -55.5 -195t-154 -123t-224.5 -42
q-184 0 -307.5 89.5zM388.5 496.5q22.5 -20.5 60.5 -33.5t118 -34q63 -16 86 -23q37 22 60 54t23 72q0 36 -22 56.5t-69 36.5t-154 43q-65 -24 -95 -51.5t-30 -66.5q0 -33 22.5 -53.5z" />
    <glyph glyph-name="dieresis" unicode="&#xa8;" horiz-adv-x="1144" 
d="M664 1832h240v-240h-240v240zM240 1832h240v-240h-240v240z" />
    <glyph glyph-name="copyright" unicode="&#xa9;" horiz-adv-x="1828" 
d="M486 -25q-196 115 -311 311t-115 428t115 428t311 311t428 115t428 -115t311 -311t115 -428t-115 -428t-311 -311t-428 -115t-428 115zM394.5 413q80.5 -138 218.5 -218.5t301 -80.5t301 80.5t218.5 218.5t80.5 301t-80.5 301t-218.5 218.5t-301 80.5t-301 -80.5
t-218.5 -218.5t-80.5 -301t80.5 -301zM628 1006q57 69 132 102.5t182 33.5q60 0 106.5 -12t95.5 -42q59 -35 98.5 -89.5t55.5 -126.5l-204 -54q-16 57 -60 96q-44 38 -104 38q-85 0 -140 -68q-46 -59 -46 -170q0 -103 46 -168q49 -68 144 -68q70 0 104 34q20 20 31 39t21 47
l208 -42q-17 -60 -50.5 -111.5t-81.5 -88.5q-47 -36 -102 -53t-132 -17q-103 0 -175 31.5t-129 102.5q-52 65 -76 137.5t-24 156.5q0 171 100 292z" />
    <glyph glyph-name="ordfeminine" unicode="&#xaa;" horiz-adv-x="643" 
d="M163 562q-41 22 -62 59t-21 83q0 59 27.5 99.5t90.5 63.5q35 13 86.5 22.5t144.5 23.5q-5 38 -28 55.5t-71 17.5q-35 0 -65.5 -16t-42.5 -50l-123 39q21 70 79 110.5t152 40.5q159 0 211 -98q14 -27 18 -55t4 -72v-330h-119v66q-36 -43 -79 -62t-105 -19q-56 0 -97 22z
M233.5 662.5q20.5 -15.5 55.5 -15.5q49 0 81 23.5t44 48.5t14 83q-68 -11 -102 -18.5t-57 -15.5q-30 -12 -43 -26.5t-13 -35.5q0 -28 20.5 -43.5z" />
    <glyph glyph-name="guillemotleft" unicode="&#xab;" horiz-adv-x="1206" 
d="M590 540l354 446l142 -112l-266 -334l266 -334l-142 -112zM514 986l142 -112l-266 -334l266 -334l-142 -112l-354 446z" />
    <glyph glyph-name="logicalnot" unicode="&#xac;" horiz-adv-x="1200" 
d="M870 596h-750v210h960v-440h-210v230z" />
    <glyph glyph-name="uni00AD" unicode="&#xad;" horiz-adv-x="840" 
d="M120 736h600v-210h-600v210z" />
    <glyph glyph-name="registered" unicode="&#xae;" horiz-adv-x="1330" 
d="M402 607q-120 71 -191 191.5t-71 263.5q0 142 71 262t191 191t262 71q143 0 263.5 -71t191.5 -191t71 -262q0 -143 -71 -263.5t-191.5 -191.5t-263.5 -71q-142 0 -262 71zM363 887.5q47 -80.5 127.5 -128t175.5 -47.5q93 0 173.5 48t128.5 128.5t48 173.5
q0 95 -47.5 175.5t-128 127.5t-174.5 47q-95 0 -175.5 -47t-127.5 -127.5t-47 -175.5q0 -94 47 -174.5zM498 1300h200q75 0 118 -42.5t46 -115.5q0 -45 -20.5 -81t-61.5 -59l88 -178h-102l-78 162h-100v-162h-90v476zM702 1070q30 0 49 20t19 52q0 72 -68 72h-114v-144h114z
" />
    <glyph glyph-name="macron" unicode="&#xaf;" horiz-adv-x="1024" 
d="M240 1888h544v-208h-544v208z" />
    <glyph glyph-name="degree" unicode="&#xb0;" horiz-adv-x="900" 
d="M239.5 798q-82.5 48 -131 131t-48.5 181q0 96 49.5 179t132.5 132t178 49q98 0 180.5 -48t131 -131t48.5 -181t-48.5 -181t-131 -131t-180.5 -48t-180.5 48zM308 1046q18 -30 48 -48t64 -18t64 18t48 48t18 64t-18 64t-48 48t-64 18t-64 -18t-48 -48t-18 -64t18 -64z" />
    <glyph glyph-name="plusminus" unicode="&#xb1;" horiz-adv-x="1200" 
d="M496 656h-376v210h376v214h210v-214h374v-210h-374v-216h-210v216zM120 330h960v-210h-960v210z" />
    <glyph glyph-name="uni00B2" unicode="&#xb2;" horiz-adv-x="832" 
d="M100 688l378 336q78 70 78 132q0 64 -37.5 104t-98.5 40q-42 0 -75.5 -19.5t-52 -52t-16.5 -70.5h-176q0 92 40.5 160t113.5 105t170 37q87 0 157.5 -38.5t110.5 -108.5t40 -159q0 -64 -18 -107.5t-49 -76.5t-99 -92l-201 -178h367v-160h-632v148z" />
    <glyph glyph-name="uni00B3" unicode="&#xb3;" horiz-adv-x="818" 
d="M251.5 545.5q-62.5 27.5 -107.5 77.5t-64 117l166 44q13 -49 51 -76.5t85 -27.5q38 0 71 18.5t52 51t19 70.5q0 39 -18.5 71.5t-51 51.5t-72.5 19q-37 0 -70 -20l-78 134l242 202h-360v162h566v-162l-184 -177q94 -29 147 -106t53 -175q0 -84 -43 -153t-116 -109
t-157 -40q-68 0 -130.5 27.5z" />
    <glyph glyph-name="acute" unicode="&#xb4;" horiz-adv-x="1110" 
d="M422 1590l166 390h202l-166 -390h-202z" />
    <glyph glyph-name="uni00B5" unicode="&#xb5;" horiz-adv-x="1290" 
d="M138 1080h276v-510q0 -82 12 -154t63.5 -132t156.5 -60q94 0 162 64.5t68 243.5v548h274v-1080h-240v112q-61 -69 -149 -106.5t-201 -37.5q-102 0 -182 32v-480h-240v1560z" />
    <glyph glyph-name="paragraph" unicode="&#xb6;" horiz-adv-x="1484" 
d="M668 488h-96q-64 0 -120 8q-123 18 -206.5 82t-124.5 163.5t-41 222.5q0 122 40 221.5t123.5 164.5t208.5 82q56 8 120 8h368v-1722h-272v770zM1132 1440h272v-1722h-272v1722z" />
    <glyph glyph-name="periodcentered" unicode="&#xb7;" horiz-adv-x="560" 
d="M201 491q-38 21 -59.5 57.5t-21.5 81.5t21.5 81.5t59.5 57.5t83 21q42 0 77.5 -21t57 -57.5t21.5 -81.5t-21.5 -81.5t-57 -57.5t-77.5 -21q-45 0 -83 21z" />
    <glyph glyph-name="cedilla" unicode="&#xb8;" horiz-adv-x="838" 
d="M240 -446l58 156q39 -12 60 -12q25 0 40.5 14t15.5 32q0 32 -31.5 49.5t-98.5 36.5l70 204l158 2l-36 -108q59 -30 90.5 -78t31.5 -112t-29.5 -115t-79 -79t-107.5 -28q-73 0 -142 38z" />
    <glyph glyph-name="uni00B9" unicode="&#xb9;" horiz-adv-x="703" 
d="M289 1255l-169 -104v188l169 101h174v-900h-174v715z" />
    <glyph glyph-name="ordmasculine" unicode="&#xba;" horiz-adv-x="707" 
d="M211 576.5q-62 36.5 -96.5 101t-34.5 147.5t35 148t97 101t141 36q80 0 142.5 -36.5t97 -101t34.5 -147.5t-34.5 -148t-97 -101t-142.5 -36t-142 36.5zM257 709q33 -42 96 -42t96.5 43t33.5 115q0 74 -33.5 116t-96.5 42q-65 0 -97 -42.5t-32 -115.5q0 -74 33 -116z" />
    <glyph glyph-name="guillemotright" unicode="&#xbb;" horiz-adv-x="1206" 
d="M120 206l266 334l-266 334l142 112l354 -446l-354 -446zM816 540l-266 334l142 112l354 -446l-354 -446l-142 112z" />
    <glyph glyph-name="onequarter" unicode="&#xbc;" horiz-adv-x="2112" 
d="M289 1255l-169 -104v188l169 101h174v-900h-174v715zM417 114l964 1340l154 -116l-964 -1338zM1620 140h-392v160l284 600h196l-284 -600h196v224h172v-224h80v-160h-80v-140h-172v140z" />
    <glyph glyph-name="onehalf" unicode="&#xbd;" horiz-adv-x="2081" 
d="M289 1255l-169 -104v188l169 101h174v-900h-174v715zM417 114l964 1340l154 -116l-964 -1338zM1349 148l378 336q78 70 78 132q0 64 -37.5 104t-98.5 40q-42 0 -75.5 -19.5t-52 -52t-16.5 -70.5h-176q0 92 40.5 160t113.5 105t170 37q87 0 157.5 -38.5t110.5 -108.5
t40 -159q0 -64 -18 -107.5t-49 -76.5t-99 -92l-201 -178h367v-160h-632v148z" />
    <glyph glyph-name="threequarters" unicode="&#xbe;" horiz-adv-x="2088" 
d="M251.5 545.5q-62.5 27.5 -107.5 77.5t-64 117l166 44q13 -49 51 -76.5t85 -27.5q38 0 71 18.5t52 51t19 70.5q0 39 -18.5 71.5t-51 51.5t-72.5 19q-37 0 -70 -20l-78 134l242 202h-360v162h566v-162l-184 -177q94 -29 147 -106t53 -175q0 -84 -43 -153t-116 -109
t-157 -40q-68 0 -130.5 27.5zM532 114l964 1340l154 -116l-964 -1338zM1716 140h-392v160l284 600h196l-284 -600h196v224h172v-224h80v-160h-80v-140h-172v140z" />
    <glyph glyph-name="questiondown" unicode="&#xbf;" horiz-adv-x="1126" 
d="M716.5 556.5q-15.5 -65.5 -46.5 -118.5q-21 -43 -44.5 -69t-68.5 -64q-7 -6 -37 -32.5t-64 -62.5q-39 -43 -53.5 -85.5t-14.5 -98.5q0 -62 26 -96q23 -32 61.5 -47t86.5 -15q36 0 68 8.5t54 25.5q28 21 42 53t12 71h288q-12 -108 -61.5 -196.5t-126.5 -139.5
q-57 -37 -126 -57.5t-138 -20.5q-120 0 -219.5 37t-162.5 115q-43 51 -67.5 118.5t-24.5 135.5q0 102 45 190.5t125 173.5l51 53q25 25 47 49.5t36 45.5q27 44 33.5 72.5t6.5 87.5h288q0 -68 -15.5 -133.5zM444 1080h286v-288h-286v288z" />
    <glyph glyph-name="Agrave" unicode="&#xc0;" horiz-adv-x="1366" 
d="M1046 0l-91 300h-542l-93 -300h-280l440 1440h406l440 -1440h-280zM590 1980l166 -390h-202l-166 390h202zM878 554l-192 631l-195 -631h387z" />
    <glyph glyph-name="Aacute" unicode="&#xc1;" horiz-adv-x="1366" 
d="M480 1440h406l440 -1440h-280l-93 300h-542l-91 -300h-280zM875 554l-195 631l-192 -631h387zM776 1980h202l-166 -390h-202z" />
    <glyph glyph-name="Acircumflex" unicode="&#xc2;" horiz-adv-x="1366" 
d="M480 1440h406l440 -1440h-280l-93 300h-542l-91 -300h-280zM568 1920h224l288 -330h-250l-150 180l-150 -180h-250zM875 554l-195 631l-192 -631h387z" />
    <glyph glyph-name="Atilde" unicode="&#xc3;" horiz-adv-x="1366" 
d="M480 1440h406l440 -1440h-280l-93 300h-542l-91 -300h-280zM317 1780q0 95 49.5 151.5t145.5 56.5q48 0 92.5 -22.5t106.5 -65.5q43 -31 69.5 -45.5t49.5 -14.5q22 0 34.5 18.5t12.5 50.5q0 24 -7 49h168q13 -53 13 -104q0 -95 -49.5 -151.5t-145.5 -56.5
q-48 0 -92.5 22.5t-106.5 65.5q-43 31 -69.5 45.5t-49.5 14.5q-22 0 -34.5 -18.5t-12.5 -50.5q0 -24 7 -49h-168q-13 53 -13 104zM875 554l-195 631l-192 -631h387z" />
    <glyph glyph-name="Adieresis" unicode="&#xc4;" horiz-adv-x="1366" 
d="M480 1440h406l440 -1440h-280l-93 300h-542l-91 -300h-280zM352 1832h240v-240h-240v240zM875 554l-195 631l-192 -631h387zM776 1832h240v-240h-240v240z" />
    <glyph glyph-name="Aring" unicode="&#xc5;" horiz-adv-x="1366" 
d="M480 1440h406l440 -1440h-280l-93 300h-542l-91 -300h-280zM450.5 1955q36.5 62 98.5 98.5t135 36.5t135 -36.5t98.5 -98.5t36.5 -135t-36.5 -135t-98.5 -98.5t-135 -36.5t-135 36.5t-98.5 98.5t-36.5 135t36.5 135zM875 554l-195 631l-192 -631h387zM606.5 1742.5
q32.5 -32.5 77.5 -32.5q46 0 78 32.5t32 77.5q0 46 -32 78t-78 32q-45 0 -77.5 -32t-32.5 -78q0 -45 32.5 -77.5z" />
    <glyph glyph-name="AE" unicode="&#xc6;" horiz-adv-x="1890" 
d="M480 1440h1310v-254h-668v-308h548v-254h-548v-370h668v-254h-940v300h-439l-91 -300h-280zM850 554v632h-170l-192 -632h362z" />
    <glyph glyph-name="Ccedilla" unicode="&#xc7;" horiz-adv-x="1492" 
d="M592 -446l58 156q39 -12 60 -12q25 0 40.5 14t15.5 32q0 32 -31.5 49.5t-98.5 36.5l49 143q-192 16 -333 113t-216.5 260.5t-75.5 373.5q0 223 84.5 393t242.5 263.5t371 93.5q163 0 294 -55t222.5 -157.5t137.5 -243.5l-274 -76q-41 133 -137 204.5t-243 71.5
q-135 0 -227 -60.5t-138.5 -171t-46.5 -262.5t46.5 -262.5t138.5 -171t227 -60.5q147 0 243 71.5t137 204.5l274 -76q-64 -194 -211 -312.5t-358 -139.5l-15 -46q59 -30 90.5 -78t31.5 -112t-29.5 -115t-79 -79t-107.5 -28q-73 0 -142 38z" />
    <glyph glyph-name="Egrave" unicode="&#xc8;" horiz-adv-x="1180" 
d="M140 1440h940v-254h-668v-308h548v-254h-548v-370h668v-254h-940v1440zM562 1980l166 -390h-202l-166 390h202z" />
    <glyph glyph-name="Eacute" unicode="&#xc9;" horiz-adv-x="1180" 
d="M140 1440h940v-254h-668v-308h548v-254h-548v-370h668v-254h-940v1440zM703 1980h202l-166 -390h-202z" />
    <glyph glyph-name="Ecircumflex" unicode="&#xca;" horiz-adv-x="1180" 
d="M140 1440h940v-254h-668v-308h548v-254h-548v-370h668v-254h-940v1440zM484 1920h224l288 -330h-250l-150 180l-150 -180h-250z" />
    <glyph glyph-name="Edieresis" unicode="&#xcb;" horiz-adv-x="1180" 
d="M140 1440h940v-254h-668v-308h548v-254h-548v-370h668v-254h-940v1440zM276 1832h240v-240h-240v240zM700 1832h240v-240h-240v240z" />
    <glyph glyph-name="Igrave" unicode="&#xcc;" horiz-adv-x="592" 
d="M160 1440h272v-1440h-272v1440zM227 1980l166 -390h-202l-166 390h202z" />
    <glyph glyph-name="Iacute" unicode="&#xcd;" horiz-adv-x="592" 
d="M160 1440h272v-1440h-272v1440zM365 1980h202l-166 -390h-202z" />
    <glyph glyph-name="Icircumflex" unicode="&#xce;" horiz-adv-x="592" 
d="M160 1440h272v-1440h-272v1440zM180 1920h224l288 -330h-250l-150 180l-150 -180h-250z" />
    <glyph glyph-name="Idieresis" unicode="&#xcf;" horiz-adv-x="592" 
d="M160 1440h272v-1440h-272v1440zM-36 1832h240v-240h-240v240zM388 1832h240v-240h-240v240z" />
    <glyph glyph-name="Eth" unicode="&#xd0;" horiz-adv-x="1428" 
d="M20 826h128v614h466q106 0 172 -8q169 -20 291.5 -119t186.5 -253.5t64 -339.5t-64 -339.5t-186.5 -253.5t-291.5 -119q-66 -8 -172 -8h-466v616h-128v210zM614 256q106 0 156 10q90 18 150.5 85.5t90 164t29.5 204.5q0 111 -30.5 208t-91 163t-148.5 83q-50 10 -156 10
h-190v-358h286v-210h-286v-360h190z" />
    <glyph glyph-name="Ntilde" unicode="&#xd1;" horiz-adv-x="1458" 
d="M140 1440h276l626 -960v960h276v-1440h-276l-626 960v-960h-276v1440zM383 1730q0 95 49.5 151.5t145.5 56.5q48 0 92.5 -22.5t106.5 -65.5q43 -31 69.5 -45.5t49.5 -14.5q22 0 34.5 18.5t12.5 50.5q0 24 -7 49h168q13 -53 13 -104q0 -95 -49.5 -151.5t-145.5 -56.5
q-48 0 -92.5 22.5t-106.5 65.5q-43 31 -69.5 45.5t-49.5 14.5q-22 0 -34.5 -18.5t-12.5 -50.5q0 -24 7 -49h-168q-13 53 -13 104z" />
    <glyph glyph-name="Ograve" unicode="&#xd2;" horiz-adv-x="1516" 
d="M387 63.5q-158 93.5 -242.5 263.5t-84.5 393t84.5 393t242.5 263.5t371 93.5t371 -93.5t242.5 -263.5t84.5 -393t-84.5 -393t-242.5 -263.5t-371 -93.5t-371 93.5zM454 357q106 -131 312 -131q132 0 222 61t135 172t45 261q0 232 -106 363t-312 131q-132 0 -222 -61
t-135 -172t-45 -261q0 -232 106 -363zM665 1980l166 -390h-202l-166 390h202z" />
    <glyph glyph-name="Oacute" unicode="&#xd3;" horiz-adv-x="1516" 
d="M387 63.5q-158 93.5 -242.5 263.5t-84.5 393t84.5 393t242.5 263.5t371 93.5t371 -93.5t242.5 -263.5t84.5 -393t-84.5 -393t-242.5 -263.5t-371 -93.5t-371 93.5zM454 357q106 -131 312 -131q132 0 222 61t135 172t45 261q0 232 -106 363t-312 131q-132 0 -222 -61
t-135 -172t-45 -261q0 -232 106 -363zM831 1980h202l-166 -390h-202z" />
    <glyph glyph-name="Ocircumflex" unicode="&#xd4;" horiz-adv-x="1516" 
d="M387 63.5q-158 93.5 -242.5 263.5t-84.5 393t84.5 393t242.5 263.5t371 93.5t371 -93.5t242.5 -263.5t84.5 -393t-84.5 -393t-242.5 -263.5t-371 -93.5t-371 93.5zM454 357q106 -131 312 -131q132 0 222 61t135 172t45 261q0 232 -106 363t-312 131q-132 0 -222 -61
t-135 -172t-45 -261q0 -232 106 -363zM642 1920h224l288 -330h-250l-150 180l-150 -180h-250z" />
    <glyph glyph-name="Otilde" unicode="&#xd5;" horiz-adv-x="1516" 
d="M387 63.5q-158 93.5 -242.5 263.5t-84.5 393t84.5 393t242.5 263.5t371 93.5t371 -93.5t242.5 -263.5t84.5 -393t-84.5 -393t-242.5 -263.5t-371 -93.5t-371 93.5zM454 357q106 -131 312 -131q132 0 222 61t135 172t45 261q0 232 -106 363t-312 131q-132 0 -222 -61
t-135 -172t-45 -261q0 -232 106 -363zM849.5 1618.5q-44.5 22.5 -106.5 65.5q-43 31 -69.5 45.5t-49.5 14.5q-22 0 -34.5 -18.5t-12.5 -50.5q0 -24 7 -49h-168q-13 53 -13 104q0 95 49.5 151.5t145.5 56.5q48 0 92.5 -22.5t106.5 -65.5q43 -31 69.5 -45.5t49.5 -14.5
q22 0 34.5 18.5t12.5 50.5q0 24 -7 49h168q13 -53 13 -104q0 -95 -49.5 -151.5t-145.5 -56.5q-48 0 -92.5 22.5z" />
    <glyph glyph-name="Odieresis" unicode="&#xd6;" horiz-adv-x="1516" 
d="M387 63.5q-158 93.5 -242.5 263.5t-84.5 393t84.5 393t242.5 263.5t371 93.5t371 -93.5t242.5 -263.5t84.5 -393t-84.5 -393t-242.5 -263.5t-371 -93.5t-371 93.5zM454 357q106 -131 312 -131q132 0 222 61t135 172t45 261q0 232 -106 363t-312 131q-132 0 -222 -61
t-135 -172t-45 -261q0 -232 106 -363zM426 1832h240v-240h-240v240zM850 1832h240v-240h-240v240z" />
    <glyph glyph-name="multiply" unicode="&#xd7;" horiz-adv-x="1026" 
d="M513 573l-245 -245l-148 149l244 245l-243 243l149 148l243 -243l243 243l149 -148l-244 -243l245 -245l-148 -149z" />
    <glyph glyph-name="Oslash" unicode="&#xd8;" horiz-adv-x="1516" 
d="M94 144l94 108q-63 94 -95.5 212t-32.5 256q0 223 84.5 393t242.5 263.5t371 93.5q237 0 406 -116l100 112l192 -172l-114 -128q114 -186 114 -446q0 -223 -84.5 -393t-242.5 -263.5t-371 -93.5q-224 0 -385 103l-87 -99zM389 470l601 678q-98 66 -240 66
q-132 0 -222 -61t-135 -172t-45 -261q0 -142 41 -250zM766 226q132 0 222 61t135 172t45 261q0 125 -32 224l-589 -665q91 -53 219 -53z" />
    <glyph glyph-name="Ugrave" unicode="&#xd9;" horiz-adv-x="1452" 
d="M420 40.5q-133 70.5 -206.5 199.5t-73.5 300v898l276 2v-898q0 -93 41 -165t112 -111.5t157 -39.5q87 0 158 40.5t111.5 112.5t40.5 163v898h276v-900q0 -171 -73.5 -300t-206.5 -199.5t-306 -70.5t-306 70.5zM678 1980l166 -390h-202l-166 390h202z" />
    <glyph glyph-name="Uacute" unicode="&#xda;" horiz-adv-x="1452" 
d="M420 40.5q-133 70.5 -206.5 199.5t-73.5 300v898l276 2v-898q0 -93 41 -165t112 -111.5t157 -39.5q87 0 158 40.5t111.5 112.5t40.5 163v898h276v-900q0 -171 -73.5 -300t-206.5 -199.5t-306 -70.5t-306 70.5zM789 1980h202l-166 -390h-202z" />
    <glyph glyph-name="Ucircumflex" unicode="&#xdb;" horiz-adv-x="1452" 
d="M420 40.5q-133 70.5 -206.5 199.5t-73.5 300v898l276 2v-898q0 -93 41 -165t112 -111.5t157 -39.5q87 0 158 40.5t111.5 112.5t40.5 163v898h276v-900q0 -171 -73.5 -300t-206.5 -199.5t-306 -70.5t-306 70.5zM610 1920h224l288 -330h-250l-150 180l-150 -180h-250z" />
    <glyph glyph-name="Udieresis" unicode="&#xdc;" horiz-adv-x="1452" 
d="M420 40.5q-133 70.5 -206.5 199.5t-73.5 300v898l276 2v-898q0 -93 41 -165t112 -111.5t157 -39.5q87 0 158 40.5t111.5 112.5t40.5 163v898h276v-900q0 -171 -73.5 -300t-206.5 -199.5t-306 -70.5t-306 70.5zM394 1832h240v-240h-240v240zM818 1832h240v-240h-240v240z
" />
    <glyph glyph-name="Yacute" unicode="&#xdd;" horiz-adv-x="1260" 
d="M492 586l-492 854h318l312 -542l312 542h318l-492 -854v-586h-276v586zM694 1980h202l-166 -390h-202z" />
    <glyph glyph-name="Thorn" unicode="&#xde;" horiz-adv-x="1284" 
d="M140 1440h276v-244h326q74 0 146 -22q73 -23 135 -67t105 -105q46 -61 71 -137t25 -153q0 -71 -25.5 -142.5t-70.5 -131.5q-64 -88 -166.5 -140t-219.5 -52h-326v-246h-276v1440zM740 500q42 0 87.5 23.5t76.5 64.5q44 59 44 125q0 42 -13 81t-39 68q-29 34 -72 56
t-84 22h-324v-440h324z" />
    <glyph glyph-name="germandbls" unicode="&#xdf;" horiz-adv-x="1292" 
d="M603 -23q-43 7 -79 23v266q73 -30 146 -30q108 0 169 49t61 147q0 109 -80.5 160.5t-221.5 51.5v236q91 6 138.5 50.5t47.5 121.5q0 50 -26.5 87.5t-69.5 57t-92 19.5q-111 0 -158 -84q-13 -23 -19.5 -61.5t-6.5 -84.5v-986h-274v1060q0 75 16 128q44 143 164.5 212.5
t277.5 69.5q126 0 232 -54t168 -148.5t62 -209.5q0 -162 -104 -260q103 -43 160.5 -142.5t57.5 -227.5q0 -143 -53.5 -246t-157 -157.5t-251.5 -54.5q-64 0 -107 7z" />
    <glyph glyph-name="agrave" unicode="&#xe0;" horiz-adv-x="1166" 
d="M246.5 13.5q-81.5 43.5 -124 118.5t-42.5 166q0 118 55 199t181 127q70 26 171 44.5t291 46.5q-8 76 -55.5 111.5t-142.5 35.5q-69 0 -131 -32t-85 -100l-246 78q42 140 158 221t304 81q319 0 422 -196q29 -54 36.5 -109.5t7.5 -144.5v-660h-238v132q-72 -86 -158 -124
t-210 -38q-112 0 -193.5 43.5zM530 1620l166 -390h-202l-166 390h202zM386.5 215.5q40.5 -31.5 111.5 -31.5q69 0 121 24.5t83.5 57.5t45.5 62q26 53 28 167q-141 -24 -207 -38t-111 -31q-59 -24 -85.5 -53.5t-26.5 -70.5q0 -55 40.5 -86.5z" />
    <glyph glyph-name="aacute" unicode="&#xe1;" horiz-adv-x="1166" 
d="M246.5 13.5q-81.5 43.5 -124 118.5t-42.5 166q0 118 55 199t181 127q70 26 171 44.5t291 46.5q-8 76 -55.5 111.5t-142.5 35.5q-69 0 -131 -32t-85 -100l-246 78q42 140 158 221t304 81q319 0 422 -196q29 -54 36.5 -109.5t7.5 -144.5v-660h-238v132q-72 -86 -158 -124
t-210 -38q-112 0 -193.5 43.5zM386.5 215.5q40.5 -31.5 111.5 -31.5q69 0 121 24.5t83.5 57.5t45.5 62q26 53 28 167q-141 -24 -207 -38t-111 -31q-59 -24 -85.5 -53.5t-26.5 -70.5q0 -55 40.5 -86.5zM669 1620h202l-166 -390h-202z" />
    <glyph glyph-name="acircumflex" unicode="&#xe2;" horiz-adv-x="1166" 
d="M246.5 13.5q-81.5 43.5 -124 118.5t-42.5 166q0 118 55 199t181 127q70 26 171 44.5t291 46.5q-8 76 -55.5 111.5t-142.5 35.5q-69 0 -131 -32t-85 -100l-246 78q42 140 158 221t304 81q319 0 422 -196q29 -54 36.5 -109.5t7.5 -144.5v-660h-238v132q-72 -86 -158 -124
t-210 -38q-112 0 -193.5 43.5zM484 1560h224l288 -330h-250l-150 180l-150 -180h-250zM386.5 215.5q40.5 -31.5 111.5 -31.5q69 0 121 24.5t83.5 57.5t45.5 62q26 53 28 167q-141 -24 -207 -38t-111 -31q-59 -24 -85.5 -53.5t-26.5 -70.5q0 -55 40.5 -86.5z" />
    <glyph glyph-name="atilde" unicode="&#xe3;" horiz-adv-x="1166" 
d="M246.5 13.5q-81.5 43.5 -124 118.5t-42.5 166q0 118 55 199t181 127q70 26 171 44.5t291 46.5q-8 76 -55.5 111.5t-142.5 35.5q-69 0 -131 -32t-85 -100l-246 78q42 140 158 221t304 81q319 0 422 -196q29 -54 36.5 -109.5t7.5 -144.5v-660h-238v132q-72 -86 -158 -124
t-210 -38q-112 0 -193.5 43.5zM251 1370q0 95 49.5 151.5t145.5 56.5q48 0 92.5 -22.5t106.5 -65.5q43 -31 69.5 -45.5t49.5 -14.5q22 0 34.5 18.5t12.5 50.5q0 24 -7 49h168q13 -53 13 -104q0 -95 -49.5 -151.5t-145.5 -56.5q-48 0 -92.5 22.5t-106.5 65.5
q-43 31 -69.5 45.5t-49.5 14.5q-22 0 -34.5 -18.5t-12.5 -50.5q0 -24 7 -49h-168q-13 53 -13 104zM386.5 215.5q40.5 -31.5 111.5 -31.5q69 0 121 24.5t83.5 57.5t45.5 62q26 53 28 167q-141 -24 -207 -38t-111 -31q-59 -24 -85.5 -53.5t-26.5 -70.5q0 -55 40.5 -86.5z" />
    <glyph glyph-name="adieresis" unicode="&#xe4;" horiz-adv-x="1166" 
d="M246.5 13.5q-81.5 43.5 -124 118.5t-42.5 166q0 118 55 199t181 127q70 26 171 44.5t291 46.5q-8 76 -55.5 111.5t-142.5 35.5q-69 0 -131 -32t-85 -100l-246 78q42 140 158 221t304 81q319 0 422 -196q29 -54 36.5 -109.5t7.5 -144.5v-660h-238v132q-72 -86 -158 -124
t-210 -38q-112 0 -193.5 43.5zM268 1472h240v-240h-240v240zM386.5 215.5q40.5 -31.5 111.5 -31.5q69 0 121 24.5t83.5 57.5t45.5 62q26 53 28 167q-141 -24 -207 -38t-111 -31q-59 -24 -85.5 -53.5t-26.5 -70.5q0 -55 40.5 -86.5zM692 1472h240v-240h-240v240z" />
    <glyph glyph-name="aring" unicode="&#xe5;" horiz-adv-x="1166" 
d="M246.5 13.5q-81.5 43.5 -124 118.5t-42.5 166q0 118 55 199t181 127q70 26 171 44.5t291 46.5q-8 76 -55.5 111.5t-142.5 35.5q-69 0 -131 -32t-85 -100l-246 78q42 140 158 221t304 81q319 0 422 -196q29 -54 36.5 -109.5t7.5 -144.5v-660h-238v132q-72 -86 -158 -124
t-210 -38q-112 0 -193.5 43.5zM362.5 1595q36.5 62 98.5 98.5t135 36.5t135 -36.5t98.5 -98.5t36.5 -135t-36.5 -135t-98.5 -98.5t-135 -36.5t-135 36.5t-98.5 98.5t-36.5 135t36.5 135zM386.5 215.5q40.5 -31.5 111.5 -31.5q69 0 121 24.5t83.5 57.5t45.5 62q26 53 28 167
q-141 -24 -207 -38t-111 -31q-59 -24 -85.5 -53.5t-26.5 -70.5q0 -55 40.5 -86.5zM518.5 1382.5q32.5 -32.5 77.5 -32.5q46 0 78 32.5t32 77.5q0 46 -32 78t-78 32q-45 0 -77.5 -32t-32.5 -78q0 -45 32.5 -77.5z" />
    <glyph glyph-name="ae" unicode="&#xe6;" horiz-adv-x="1868" 
d="M1071 26q-111 56 -181 158q-77 -112 -184.5 -163t-251.5 -51q-118 0 -202.5 41t-128 113.5t-43.5 165.5q0 132 81.5 207.5t188 105.5t242.5 47l185 24q1 99 -54.5 143.5t-142.5 44.5q-74 0 -132.5 -33.5t-85.5 -98.5l-244 74q38 86 103.5 155t158.5 110t208 41
q122 0 213.5 -36t149.5 -104q68 68 158 104t197 36q152 0 260.5 -71.5t164.5 -199.5t56 -297q0 -39 -3 -78h-717q15 -114 75.5 -177t163.5 -63q72 0 127 35t84 101l257 -78q-37 -96 -107 -166.5t-160 -108t-186 -37.5q-139 0 -250 56zM386.5 215q40.5 -33 111.5 -33
q78 0 144.5 39t97.5 91q37 66 39 174l-131 -16q-121 -14 -211.5 -50t-90.5 -120q0 -52 40.5 -85zM1523 674q-13 101 -62.5 150.5t-154.5 49.5q-189 0 -232 -200h449z" />
    <glyph glyph-name="ccedilla" unicode="&#xe7;" horiz-adv-x="1166" 
d="M444 -446l58 156q39 -12 60 -12q25 0 40.5 14t15.5 32q0 32 -31.5 49.5t-98.5 36.5l50 145q-142 17 -245.5 94.5t-158 199.5t-54.5 271q0 164 66.5 293.5t189 203t284.5 73.5q126 0 227.5 -43.5t168 -125t90.5 -191.5l-272 -72q-24 83 -83 130.5t-135 47.5
q-124 0 -186 -87t-62 -229q0 -145 64 -230.5t184 -85.5q88 0 137.5 40t74.5 122l278 -58q-41 -153 -147 -244t-263 -109l-16 -47q59 -30 90.5 -78t31.5 -112t-29.5 -115t-79 -79t-107.5 -28q-73 0 -142 38z" />
    <glyph glyph-name="egrave" unicode="&#xe8;" horiz-adv-x="1216" 
d="M350.5 41q-127.5 71 -199 198t-71.5 287q0 174 69.5 306.5t193.5 205t283 72.5q156 0 271 -69t176.5 -196t61.5 -298q0 -27 -4 -83h-758q15 -116 79.5 -178t173.5 -62q79 0 136.5 35t87.5 101l272 -78q-40 -97 -113 -167.5t-168 -107.5t-199 -37q-164 0 -291.5 71z
M559 1620l166 -390h-202l-166 390h202zM856 666q-14 109 -66.5 158.5t-151.5 49.5q-215 0 -258 -208h476z" />
    <glyph glyph-name="eacute" unicode="&#xe9;" horiz-adv-x="1216" 
d="M350.5 41q-127.5 71 -199 198t-71.5 287q0 174 69.5 306.5t193.5 205t283 72.5q156 0 271 -69t176.5 -196t61.5 -298q0 -27 -4 -83h-758q15 -116 79.5 -178t173.5 -62q79 0 136.5 35t87.5 101l272 -78q-40 -97 -113 -167.5t-168 -107.5t-199 -37q-164 0 -291.5 71z
M856 666q-14 109 -66.5 158.5t-151.5 49.5q-215 0 -258 -208h476zM713 1620h202l-166 -390h-202z" />
    <glyph glyph-name="ecircumflex" unicode="&#xea;" horiz-adv-x="1216" 
d="M350.5 41q-127.5 71 -199 198t-71.5 287q0 174 69.5 306.5t193.5 205t283 72.5q156 0 271 -69t176.5 -196t61.5 -298q0 -27 -4 -83h-758q15 -116 79.5 -178t173.5 -62q79 0 136.5 35t87.5 101l272 -78q-40 -97 -113 -167.5t-168 -107.5t-199 -37q-164 0 -291.5 71z
M510 1560h224l288 -330h-250l-150 180l-150 -180h-250zM856 666q-14 109 -66.5 158.5t-151.5 49.5q-215 0 -258 -208h476z" />
    <glyph glyph-name="edieresis" unicode="&#xeb;" horiz-adv-x="1216" 
d="M350.5 41q-127.5 71 -199 198t-71.5 287q0 174 69.5 306.5t193.5 205t283 72.5q156 0 271 -69t176.5 -196t61.5 -298q0 -27 -4 -83h-758q15 -116 79.5 -178t173.5 -62q79 0 136.5 35t87.5 101l272 -78q-40 -97 -113 -167.5t-168 -107.5t-199 -37q-164 0 -291.5 71z
M294 1472h240v-240h-240v240zM856 666q-14 109 -66.5 158.5t-151.5 49.5q-215 0 -258 -208h476zM718 1472h240v-240h-240v240z" />
    <glyph glyph-name="igrave" unicode="&#xec;" horiz-adv-x="592" 
d="M160 1080h272v-1080h-272v1080zM227 1620l166 -390h-202l-166 390h202z" />
    <glyph glyph-name="iacute" unicode="&#xed;" horiz-adv-x="592" 
d="M160 1080h272v-1080h-272v1080zM365 1620h202l-166 -390h-202z" />
    <glyph glyph-name="icircumflex" unicode="&#xee;" horiz-adv-x="592" 
d="M160 1080h272v-1080h-272v1080zM200 1560h224l288 -330h-250l-150 180l-150 -180h-250z" />
    <glyph glyph-name="idieresis" unicode="&#xef;" horiz-adv-x="592" 
d="M160 1080h272v-1080h-272v1080zM-36 1472h240v-240h-240v240zM388 1472h240v-240h-240v240z" />
    <glyph glyph-name="eth" unicode="&#xf0;" horiz-adv-x="1202" 
d="M331 37.5q-119 67.5 -185 188.5t-66 276q0 156 66 277.5t185 189t271 67.5q66 0 125.5 -15.5t138.5 -54.5q-8 54 -41.5 107t-85.5 98l-99 -113l-148 132l75 85q-84 33 -165 39l42 206q156 -4 282 -63l96 109l148 -132l-82 -94q19 -19 32 -36q108 -132 155 -317.5
t47 -476.5q0 -164 -63.5 -286t-181 -188t-275.5 -66q-152 0 -271 67.5zM417 286.5q65 -76.5 185 -76.5q117 0 182.5 77.5t65.5 216.5q0 138 -65.5 215t-182.5 77q-121 0 -185.5 -75.5t-64.5 -216.5t65 -217.5z" />
    <glyph glyph-name="ntilde" unicode="&#xf1;" 
d="M864 664q-12 72 -63.5 132t-156.5 60q-94 0 -162 -64.5t-68 -243.5v-548h-276v1080h242v-111q61 68 149 105.5t201 37.5q190 0 283.5 -97t116 -205t22.5 -204v-606h-276v510q0 82 -12 154zM271 1370q0 95 49.5 151.5t145.5 56.5q48 0 92.5 -22.5t106.5 -65.5
q43 -31 69.5 -45.5t49.5 -14.5q22 0 34.5 18.5t12.5 50.5q0 24 -7 49h168q13 -53 13 -104q0 -95 -49.5 -151.5t-145.5 -56.5q-48 0 -92.5 22.5t-106.5 65.5q-43 31 -69.5 45.5t-49.5 14.5q-22 0 -34.5 -18.5t-12.5 -50.5q0 -24 7 -49h-168q-13 53 -13 104z" />
    <glyph glyph-name="ograve" unicode="&#xf2;" horiz-adv-x="1254" 
d="M341 42.5q-124 72.5 -192.5 202t-68.5 295.5q0 167 69.5 296.5t194 201.5t282.5 72q161 0 285.5 -72.5t193.5 -202.5t69 -295q0 -166 -69.5 -295.5t-194 -202t-284.5 -72.5q-161 0 -285 72.5zM549 1620l166 -390h-202l-166 390h202zM434.5 308q66.5 -84 191.5 -84
q127 0 193.5 86t66.5 230q0 147 -67 231.5t-193 84.5q-129 0 -193.5 -84.5t-64.5 -231.5q0 -148 66.5 -232z" />
    <glyph glyph-name="oacute" unicode="&#xf3;" horiz-adv-x="1254" 
d="M341 42.5q-124 72.5 -192.5 202t-68.5 295.5q0 167 69.5 296.5t194 201.5t282.5 72q161 0 285.5 -72.5t193.5 -202.5t69 -295q0 -166 -69.5 -295.5t-194 -202t-284.5 -72.5q-161 0 -285 72.5zM434.5 308q66.5 -84 191.5 -84q127 0 193.5 86t66.5 230q0 147 -67 231.5
t-193 84.5q-129 0 -193.5 -84.5t-64.5 -231.5q0 -148 66.5 -232zM695 1620h202l-166 -390h-202z" />
    <glyph glyph-name="ocircumflex" unicode="&#xf4;" horiz-adv-x="1254" 
d="M341 42.5q-124 72.5 -192.5 202t-68.5 295.5q0 167 69.5 296.5t194 201.5t282.5 72q161 0 285.5 -72.5t193.5 -202.5t69 -295q0 -166 -69.5 -295.5t-194 -202t-284.5 -72.5q-161 0 -285 72.5zM512 1560h224l288 -330h-250l-150 180l-150 -180h-250zM434.5 308
q66.5 -84 191.5 -84q127 0 193.5 86t66.5 230q0 147 -67 231.5t-193 84.5q-129 0 -193.5 -84.5t-64.5 -231.5q0 -148 66.5 -232z" />
    <glyph glyph-name="otilde" unicode="&#xf5;" horiz-adv-x="1254" 
d="M341 42.5q-124 72.5 -192.5 202t-68.5 295.5q0 167 69.5 296.5t194 201.5t282.5 72q161 0 285.5 -72.5t193.5 -202.5t69 -295q0 -166 -69.5 -295.5t-194 -202t-284.5 -72.5q-161 0 -285 72.5zM261 1370q0 95 49.5 151.5t145.5 56.5q48 0 92.5 -22.5t106.5 -65.5
q43 -31 69.5 -45.5t49.5 -14.5q22 0 34.5 18.5t12.5 50.5q0 24 -7 49h168q13 -53 13 -104q0 -95 -49.5 -151.5t-145.5 -56.5q-48 0 -92.5 22.5t-106.5 65.5q-43 31 -69.5 45.5t-49.5 14.5q-22 0 -34.5 -18.5t-12.5 -50.5q0 -24 7 -49h-168q-13 53 -13 104zM434.5 308
q66.5 -84 191.5 -84q127 0 193.5 86t66.5 230q0 147 -67 231.5t-193 84.5q-129 0 -193.5 -84.5t-64.5 -231.5q0 -148 66.5 -232z" />
    <glyph glyph-name="odieresis" unicode="&#xf6;" horiz-adv-x="1254" 
d="M341 42.5q-124 72.5 -192.5 202t-68.5 295.5q0 167 69.5 296.5t194 201.5t282.5 72q161 0 285.5 -72.5t193.5 -202.5t69 -295q0 -166 -69.5 -295.5t-194 -202t-284.5 -72.5q-161 0 -285 72.5zM296 1472h240v-240h-240v240zM434.5 308q66.5 -84 191.5 -84q127 0 193.5 86
t66.5 230q0 147 -67 231.5t-193 84.5q-129 0 -193.5 -84.5t-64.5 -231.5q0 -148 66.5 -232zM720 1472h240v-240h-240v240z" />
    <glyph glyph-name="divide" unicode="&#xf7;" horiz-adv-x="1080" 
d="M120 826h840v-210h-840v210zM417 515h248v-247h-248v247zM417 1175h248v-247h-248v247z" />
    <glyph glyph-name="oslash" unicode="&#xf8;" horiz-adv-x="1254" 
d="M56 150l93 93q-69 133 -69 297q0 167 69.5 296.5t194 201.5t282.5 72q175 0 306 -86l86 86l180 -182l-93 -92q69 -133 69 -296q0 -166 -69.5 -295.5t-194 -202t-284.5 -72.5q-175 0 -305 85l-85 -85zM379 431l389 387q-58 38 -142 38q-129 0 -193.5 -84.5t-64.5 -231.5
q0 -57 11 -109zM626 224q127 0 193.5 86t66.5 230q0 57 -11 107l-387 -387q58 -36 138 -36z" />
    <glyph glyph-name="ugrave" unicode="&#xf9;" 
d="M258.5 65q-93.5 97 -116 205t-22.5 204v606h276v-510q0 -82 12 -154t63.5 -132t156.5 -60q94 0 162 64.5t68 243.5v548h274v-1080h-240v111q-61 -68 -149 -105.5t-201 -37.5q-190 0 -283.5 97zM558 1620l166 -390h-202l-166 390h202z" />
    <glyph glyph-name="uacute" unicode="&#xfa;" 
d="M258.5 65q-93.5 97 -116 205t-22.5 204v606h276v-510q0 -82 12 -154t63.5 -132t156.5 -60q94 0 162 64.5t68 243.5v548h274v-1080h-240v111q-61 -68 -149 -105.5t-201 -37.5q-190 0 -283.5 97zM679 1620h202l-166 -390h-202z" />
    <glyph glyph-name="ucircumflex" unicode="&#xfb;" 
d="M258.5 65q-93.5 97 -116 205t-22.5 204v606h276v-510q0 -82 12 -154t63.5 -132t156.5 -60q94 0 162 64.5t68 243.5v548h274v-1080h-240v111q-61 -68 -149 -105.5t-201 -37.5q-190 0 -283.5 97zM510 1560h224l288 -330h-250l-150 180l-150 -180h-250z" />
    <glyph glyph-name="udieresis" unicode="&#xfc;" 
d="M258.5 65q-93.5 97 -116 205t-22.5 204v606h276v-510q0 -82 12 -154t63.5 -132t156.5 -60q94 0 162 64.5t68 243.5v548h274v-1080h-240v111q-61 -68 -149 -105.5t-201 -37.5q-190 0 -283.5 97zM294 1472h240v-240h-240v240zM718 1472h240v-240h-240v240z" />
    <glyph glyph-name="yacute" unicode="&#xfd;" horiz-adv-x="1140" 
d="M456 9l-436 1071h282l284 -735l282 735h272l-610 -1560h-252zM652 1620h202l-166 -390h-202z" />
    <glyph glyph-name="thorn" unicode="&#xfe;" horiz-adv-x="1248" 
d="M412 39v-519h-274v1560h2v360h274v-394q105 64 242 64q152 0 268.5 -73t180 -203t63.5 -294q0 -161 -62.5 -291t-176 -204.5t-259.5 -74.5q-148 0 -258 69zM626 212q126 0 190 91.5t64 236.5q0 93 -29 167t-88 117.5t-147 43.5q-123 0 -180.5 -87t-57.5 -241
q0 -328 248 -328z" />
    <glyph glyph-name="ydieresis" unicode="&#xff;" horiz-adv-x="1140" 
d="M456 9l-436 1071h282l284 -735l282 735h272l-610 -1560h-252zM252 1472h240v-240h-240v240zM676 1472h240v-240h-240v240z" />
    <glyph glyph-name="Amacron" unicode="&#x100;" horiz-adv-x="1366" 
d="M480 1440h406l440 -1440h-280l-93 300h-542l-91 -300h-280zM412 1888h544v-208h-544v208zM875 554l-195 631l-192 -631h387z" />
    <glyph glyph-name="amacron" unicode="&#x101;" horiz-adv-x="1166" 
d="M246.5 13.5q-81.5 43.5 -124 118.5t-42.5 166q0 118 55 199t181 127q70 26 171 44.5t291 46.5q-8 76 -55.5 111.5t-142.5 35.5q-69 0 -131 -32t-85 -100l-246 78q42 140 158 221t304 81q319 0 422 -196q29 -54 36.5 -109.5t7.5 -144.5v-660h-238v132q-72 -86 -158 -124
t-210 -38q-112 0 -193.5 43.5zM386.5 215.5q40.5 -31.5 111.5 -31.5q69 0 121 24.5t83.5 57.5t45.5 62q26 53 28 167q-141 -24 -207 -38t-111 -31q-59 -24 -85.5 -53.5t-26.5 -70.5q0 -55 40.5 -86.5zM350 1528h544v-208h-544v208z" />
    <glyph glyph-name="Abreve" unicode="&#x102;" horiz-adv-x="1366" 
d="M480 1440h406l440 -1440h-280l-93 300h-542l-91 -300h-280zM576 1878q0 -45 31.5 -76.5t76.5 -31.5t76.5 31.5t31.5 76.5h210q0 -87 -42.5 -160t-115.5 -115.5t-160 -42.5t-160 42.5t-115.5 115.5t-42.5 160h210zM875 554l-195 631l-192 -631h387z" />
    <glyph glyph-name="abreve" unicode="&#x103;" horiz-adv-x="1166" 
d="M246.5 13.5q-81.5 43.5 -124 118.5t-42.5 166q0 118 55 199t181 127q70 26 171 44.5t291 46.5q-8 76 -55.5 111.5t-142.5 35.5q-69 0 -131 -32t-85 -100l-246 78q42 140 158 221t304 81q319 0 422 -196q29 -54 36.5 -109.5t7.5 -144.5v-660h-238v132q-72 -86 -158 -124
t-210 -38q-112 0 -193.5 43.5zM484 1518q0 -45 31.5 -76.5t76.5 -31.5t76.5 31.5t31.5 76.5h210q0 -87 -42.5 -160t-115.5 -115.5t-160 -42.5t-160 42.5t-115.5 115.5t-42.5 160h210zM386.5 215.5q40.5 -31.5 111.5 -31.5q69 0 121 24.5t83.5 57.5t45.5 62q26 53 28 167
q-141 -24 -207 -38t-111 -31q-59 -24 -85.5 -53.5t-26.5 -70.5q0 -55 40.5 -86.5z" />
    <glyph glyph-name="Aogonek" unicode="&#x104;" horiz-adv-x="1366" 
d="M480 1440h406l440 -1440q-60 -30 -110.5 -72.5t-80 -84.5t-29.5 -73q0 -21 15 -35.5t37 -14.5q32 0 68 30l94 -124q-36 -49 -89 -76.5t-111 -27.5q-64 0 -114.5 31.5t-79 83.5t-28.5 111q0 69 38 141t104 132l-87 279h-542l-91 -300h-280zM875 554l-195 631l-192 -631
h387z" />
    <glyph glyph-name="aogonek" unicode="&#x105;" horiz-adv-x="1166" 
d="M246.5 13.5q-81.5 43.5 -124 118.5t-42.5 166q0 118 55 199t181 127q70 26 171 44.5t291 46.5q-8 76 -55.5 111.5t-142.5 35.5q-69 0 -131 -32t-85 -100l-246 78q42 140 158 221t304 81q319 0 422 -196q29 -54 36.5 -109.5t7.5 -144.5v-660q-60 -30 -110.5 -72.5
t-80 -84.5t-29.5 -73q0 -21 15 -35.5t37 -14.5q32 0 68 30l94 -124q-36 -49 -89 -76.5t-111 -27.5q-64 0 -114.5 31.5t-79 83.5t-28.5 111q0 82 51.5 165.5t138.5 147.5v71q-72 -86 -158 -124t-210 -38q-112 0 -193.5 43.5zM386.5 215.5q40.5 -31.5 111.5 -31.5
q69 0 121 24.5t83.5 57.5t45.5 62q26 53 28 167q-141 -24 -207 -38t-111 -31q-59 -24 -85.5 -53.5t-26.5 -70.5q0 -55 40.5 -86.5z" />
    <glyph glyph-name="Cacute" unicode="&#x106;" horiz-adv-x="1492" 
d="M387 63.5q-158 93.5 -242.5 263.5t-84.5 393t84.5 393t242.5 263.5t371 93.5q163 0 294 -55t222.5 -157.5t137.5 -243.5l-274 -76q-41 133 -137 204.5t-243 71.5q-135 0 -227 -60.5t-138.5 -171t-46.5 -262.5t46.5 -262.5t138.5 -171t227 -60.5q147 0 243 71.5t137 204.5
l274 -76q-46 -141 -137.5 -243.5t-222.5 -157.5t-294 -55q-213 0 -371 93.5zM849 1980h202l-166 -390h-202z" />
    <glyph glyph-name="cacute" unicode="&#x107;" horiz-adv-x="1166" 
d="M330.5 44q-121.5 74 -186 203.5t-64.5 292.5q0 164 66.5 293.5t189 203t284.5 73.5q126 0 227.5 -43.5t168 -125t90.5 -191.5l-272 -72q-24 83 -83 130.5t-135 47.5q-124 0 -186 -87t-62 -229q0 -145 64 -230.5t184 -85.5q88 0 137.5 40t74.5 122l278 -58
q-46 -172 -174 -265t-316 -93q-164 0 -285.5 74zM682 1620h202l-166 -390h-202z" />
    <glyph glyph-name="Ccircumflex" unicode="&#x108;" horiz-adv-x="1492" 
d="M387 63.5q-158 93.5 -242.5 263.5t-84.5 393t84.5 393t242.5 263.5t371 93.5q163 0 294 -55t222.5 -157.5t137.5 -243.5l-274 -76q-41 133 -137 204.5t-243 71.5q-135 0 -227 -60.5t-138.5 -171t-46.5 -262.5t46.5 -262.5t138.5 -171t227 -60.5q147 0 243 71.5t137 204.5
l274 -76q-46 -141 -137.5 -243.5t-222.5 -157.5t-294 -55q-213 0 -371 93.5zM642 1920h224l288 -330h-250l-150 180l-150 -180h-250z" />
    <glyph glyph-name="ccircumflex" unicode="&#x109;" horiz-adv-x="1166" 
d="M330.5 44q-121.5 74 -186 203.5t-64.5 292.5q0 164 66.5 293.5t189 203t284.5 73.5q126 0 227.5 -43.5t168 -125t90.5 -191.5l-272 -72q-24 83 -83 130.5t-135 47.5q-124 0 -186 -87t-62 -229q0 -145 64 -230.5t184 -85.5q88 0 137.5 40t74.5 122l278 -58
q-46 -172 -174 -265t-316 -93q-164 0 -285.5 74zM512 1560h224l288 -330h-250l-150 180l-150 -180h-250z" />
    <glyph glyph-name="Cdotaccent" unicode="&#x10a;" horiz-adv-x="1492" 
d="M387 63.5q-158 93.5 -242.5 263.5t-84.5 393t84.5 393t242.5 263.5t371 93.5q163 0 294 -55t222.5 -157.5t137.5 -243.5l-274 -76q-41 133 -137 204.5t-243 71.5q-135 0 -227 -60.5t-138.5 -171t-46.5 -262.5t46.5 -262.5t138.5 -171t227 -60.5q147 0 243 71.5t137 204.5
l274 -76q-46 -141 -137.5 -243.5t-222.5 -157.5t-294 -55q-213 0 -371 93.5zM630 1920h272v-272h-272v272z" />
    <glyph glyph-name="cdotaccent" unicode="&#x10b;" horiz-adv-x="1166" 
d="M330.5 44q-121.5 74 -186 203.5t-64.5 292.5q0 164 66.5 293.5t189 203t284.5 73.5q126 0 227.5 -43.5t168 -125t90.5 -191.5l-272 -72q-24 83 -83 130.5t-135 47.5q-124 0 -186 -87t-62 -229q0 -145 64 -230.5t184 -85.5q88 0 137.5 40t74.5 122l278 -58
q-46 -172 -174 -265t-316 -93q-164 0 -285.5 74zM516 1560h272v-272h-272v272z" />
    <glyph glyph-name="Ccaron" unicode="&#x10c;" horiz-adv-x="1492" 
d="M387 63.5q-158 93.5 -242.5 263.5t-84.5 393t84.5 393t242.5 263.5t371 93.5q163 0 294 -55t222.5 -157.5t137.5 -243.5l-274 -76q-41 133 -137 204.5t-243 71.5q-135 0 -227 -60.5t-138.5 -171t-46.5 -262.5t46.5 -262.5t138.5 -171t227 -60.5q147 0 243 71.5t137 204.5
l274 -76q-46 -141 -137.5 -243.5t-222.5 -157.5t-294 -55q-213 0 -371 93.5zM596 1920l150 -180l150 180h250l-288 -330h-224l-288 330h250z" />
    <glyph glyph-name="ccaron" unicode="&#x10d;" horiz-adv-x="1166" 
d="M330.5 44q-121.5 74 -186 203.5t-64.5 292.5q0 164 66.5 293.5t189 203t284.5 73.5q126 0 227.5 -43.5t168 -125t90.5 -191.5l-272 -72q-24 83 -83 130.5t-135 47.5q-124 0 -186 -87t-62 -229q0 -145 64 -230.5t184 -85.5q88 0 137.5 40t74.5 122l278 -58
q-46 -172 -174 -265t-316 -93q-164 0 -285.5 74zM466 1560l150 -180l150 180h250l-288 -330h-224l-288 330h250z" />
    <glyph glyph-name="Dcaron" unicode="&#x10e;" horiz-adv-x="1420" 
d="M140 1440h466q106 0 172 -8q169 -20 291.5 -119t186.5 -253.5t64 -339.5t-64 -339.5t-186.5 -253.5t-291.5 -119q-66 -8 -172 -8h-466v1440zM482 1920l150 -180l150 180h250l-288 -330h-224l-288 330h250zM606 256q106 0 156 10q90 18 150.5 85.5t90 164t29.5 204.5
q0 111 -30.5 208t-91 163t-148.5 83q-50 10 -156 10h-190v-928h190z" />
    <glyph glyph-name="dcaron" unicode="&#x10f;" horiz-adv-x="1616" 
d="M318.5 44.5q-113.5 74.5 -176 204.5t-62.5 291q0 164 63.5 294t180 203t268.5 73q139 0 244 -66v396h274v-1440h-240v62q-121 -92 -292 -92q-146 0 -259.5 74.5zM432 303.5q64 -91.5 190 -91.5q248 0 248 328q0 154 -57.5 241t-180.5 87q-88 0 -147 -43.5t-88 -117.5
t-29 -167q0 -145 64 -236.5zM1291 1011q54 0 83 33.5t29 89.5q0 16 -3 34h-140v272h272v-272q0 -131 -54 -203t-160 -72q-25 0 -58 5l16 114z" />
    <glyph glyph-name="Dcroat" unicode="&#x110;" horiz-adv-x="1428" 
d="M20 826h128v614h466q106 0 172 -8q169 -20 291.5 -119t186.5 -253.5t64 -339.5t-64 -339.5t-186.5 -253.5t-291.5 -119q-66 -8 -172 -8h-466v616h-128v210zM614 256q106 0 156 10q90 18 150.5 85.5t90 164t29.5 204.5q0 111 -30.5 208t-91 163t-148.5 83q-50 10 -156 10
h-190v-358h286v-210h-286v-360h190z" />
    <glyph glyph-name="dcroat" unicode="&#x111;" horiz-adv-x="1250" 
d="M318.5 44.5q-113.5 74.5 -176 204.5t-62.5 291q0 164 63.5 294t180 203t268.5 73q139 0 244 -66v116h-146v208h146v72h274v-72h124v-208h-124v-1160h-240v62q-121 -92 -292 -92q-146 0 -259.5 74.5zM432 303.5q64 -91.5 190 -91.5q248 0 248 328q0 154 -57.5 241
t-180.5 87q-88 0 -147 -43.5t-88 -117.5t-29 -167q0 -145 64 -236.5z" />
    <glyph glyph-name="Emacron" unicode="&#x112;" horiz-adv-x="1180" 
d="M140 1440h940v-254h-668v-308h548v-254h-548v-370h668v-254h-940v1440zM348 1888h544v-208h-544v208z" />
    <glyph glyph-name="emacron" unicode="&#x113;" horiz-adv-x="1216" 
d="M350.5 41q-127.5 71 -199 198t-71.5 287q0 174 69.5 306.5t193.5 205t283 72.5q156 0 271 -69t176.5 -196t61.5 -298q0 -27 -4 -83h-758q15 -116 79.5 -178t173.5 -62q79 0 136.5 35t87.5 101l272 -78q-40 -97 -113 -167.5t-168 -107.5t-199 -37q-164 0 -291.5 71z
M374 1528h544v-208h-544v208zM856 666q-14 109 -66.5 158.5t-151.5 49.5q-215 0 -258 -208h476z" />
    <glyph glyph-name="Edotaccent" unicode="&#x116;" horiz-adv-x="1180" 
d="M140 1440h940v-254h-668v-308h548v-254h-548v-370h668v-254h-940v1440zM472 1920h272v-272h-272v272z" />
    <glyph glyph-name="edotaccent" unicode="&#x117;" horiz-adv-x="1216" 
d="M350.5 41q-127.5 71 -199 198t-71.5 287q0 174 69.5 306.5t193.5 205t283 72.5q156 0 271 -69t176.5 -196t61.5 -298q0 -27 -4 -83h-758q15 -116 79.5 -178t173.5 -62q79 0 136.5 35t87.5 101l272 -78q-40 -97 -113 -167.5t-168 -107.5t-199 -37q-164 0 -291.5 71z
M856 666q-14 109 -66.5 158.5t-151.5 49.5q-215 0 -258 -208h476zM492 1560h272v-272h-272v272z" />
    <glyph glyph-name="Eogonek" unicode="&#x118;" horiz-adv-x="1180" 
d="M140 1440h940v-254h-668v-308h548v-254h-548v-370h668v-254q-60 -30 -110.5 -72.5t-80 -84.5t-29.5 -73q0 -21 15 -35.5t37 -14.5q32 0 68 30l94 -124q-36 -49 -89 -76.5t-111 -27.5q-64 0 -114.5 31.5t-79 83.5t-28.5 111q0 63 32 129t88 123h-632v1440z" />
    <glyph glyph-name="eogonek" unicode="&#x119;" horiz-adv-x="1216" 
d="M890 -479q-54 0 -103 23.5t-81 65.5q-25 31 -38.5 72.5t-13.5 86.5q0 57 22 107q17 40 55 101q-41 -7 -89 -7q-164 0 -291.5 71t-199 198t-71.5 287q0 174 69.5 306.5t193.5 205t283 72.5q156 0 271 -69t176.5 -196t61.5 -298q0 -27 -4 -83h-758q15 -116 79.5 -178
t173.5 -62q79 0 136.5 35t87.5 101l272 -78q-24 -57 -60 -106q-78 -126 -126 -212q-50 -90 -72 -158q-4 -12 -4 -29q0 -26 12 -39q12 -15 38 -15q17 0 36 7.5t34 19.5l94 -124q-31 -57 -96 -86q-41 -19 -88 -19zM856 666q-14 109 -66.5 158.5t-151.5 49.5q-215 0 -258 -208
h476z" />
    <glyph glyph-name="Ecaron" unicode="&#x11a;" horiz-adv-x="1180" 
d="M140 1440h940v-254h-668v-308h548v-254h-548v-370h668v-254h-940v1440zM466 1920l150 -180l150 180h250l-288 -330h-224l-288 330h250z" />
    <glyph glyph-name="ecaron" unicode="&#x11b;" horiz-adv-x="1216" 
d="M350.5 41q-127.5 71 -199 198t-71.5 287q0 174 69.5 306.5t193.5 205t283 72.5q156 0 271 -69t176.5 -196t61.5 -298q0 -27 -4 -83h-758q15 -116 79.5 -178t173.5 -62q79 0 136.5 35t87.5 101l272 -78q-40 -97 -113 -167.5t-168 -107.5t-199 -37q-164 0 -291.5 71z
M472 1560l150 -180l150 180h250l-288 -330h-224l-288 330h250zM856 666q-14 109 -66.5 158.5t-151.5 49.5q-215 0 -258 -208h476z" />
    <glyph glyph-name="Gcircumflex" unicode="&#x11c;" horiz-adv-x="1482" 
d="M399 57.5q-155 87.5 -247 257t-92 405.5q0 232 90 402t245 259t345 89q272 0 433.5 -126.5t216.5 -367.5l-278 -40q-41 131 -132.5 204.5t-229.5 73.5q-132 0 -222 -61t-135 -172t-45 -261q0 -233 106.5 -363.5t313.5 -130.5q140 0 234.5 81.5t125.5 244.5h-228v210h518
q2 -20 3 -45.5t1 -38.5q0 -206 -84 -367t-238.5 -251t-359.5 -90q-186 0 -341 87.5zM620 1920h224l288 -330h-250l-150 180l-150 -180h-250z" />
    <glyph glyph-name="gcircumflex" unicode="&#x11d;" horiz-adv-x="1248" 
d="M350 -446q-116 64 -178 170l252 122q25 -47 73.5 -72.5t106.5 -25.5q63 0 116.5 21t85.5 62t30 99v109q-110 -69 -258 -69q-146 0 -259.5 74.5t-176 204.5t-62.5 291q0 164 63.5 294t180 203t268.5 73q163 0 278 -90v60h238v-1154q0 -85 -16 -146q-38 -143 -170.5 -216.5
t-319.5 -73.5q-136 0 -252 64zM523 1560h224l288 -330h-250l-150 180l-150 -180h-250zM432 303.5q64 -91.5 190 -91.5q248 0 248 328q0 154 -57.5 241t-180.5 87q-88 0 -147 -43.5t-88 -117.5t-29 -167q0 -145 64 -236.5z" />
    <glyph glyph-name="Gbreve" unicode="&#x11e;" horiz-adv-x="1482" 
d="M399 57.5q-155 87.5 -247 257t-92 405.5q0 232 90 402t245 259t345 89q272 0 433.5 -126.5t216.5 -367.5l-278 -40q-41 131 -132.5 204.5t-229.5 73.5q-132 0 -222 -61t-135 -172t-45 -261q0 -233 106.5 -363.5t313.5 -130.5q140 0 234.5 81.5t125.5 244.5h-228v210h518
q2 -20 3 -45.5t1 -38.5q0 -206 -84 -367t-238.5 -251t-359.5 -90q-186 0 -341 87.5zM638 1878q0 -45 31.5 -76.5t76.5 -31.5t76.5 31.5t31.5 76.5h210q0 -87 -42.5 -160t-115.5 -115.5t-160 -42.5t-160 42.5t-115.5 115.5t-42.5 160h210z" />
    <glyph glyph-name="gbreve" unicode="&#x11f;" horiz-adv-x="1248" 
d="M350 -446q-116 64 -178 170l252 122q25 -47 73.5 -72.5t106.5 -25.5q63 0 116.5 21t85.5 62t30 99v109q-110 -69 -258 -69q-146 0 -259.5 74.5t-176 204.5t-62.5 291q0 164 63.5 294t180 203t268.5 73q163 0 278 -90v60h238v-1154q0 -85 -16 -146q-38 -143 -170.5 -216.5
t-319.5 -73.5q-136 0 -252 64zM432 303.5q64 -91.5 190 -91.5q248 0 248 328q0 154 -57.5 241t-180.5 87q-88 0 -147 -43.5t-88 -117.5t-29 -167q0 -145 64 -236.5zM582 1518q0 -45 31.5 -76.5t76.5 -31.5t76.5 31.5t31.5 76.5h210q0 -87 -42.5 -160t-115.5 -115.5
t-160 -42.5t-160 42.5t-115.5 115.5t-42.5 160h210z" />
    <glyph glyph-name="Gdotaccent" unicode="&#x120;" horiz-adv-x="1482" 
d="M399 57.5q-155 87.5 -247 257t-92 405.5q0 232 90 402t245 259t345 89q272 0 433.5 -126.5t216.5 -367.5l-278 -40q-41 131 -132.5 204.5t-229.5 73.5q-132 0 -222 -61t-135 -172t-45 -261q0 -233 106.5 -363.5t313.5 -130.5q140 0 234.5 81.5t125.5 244.5h-228v210h518
q2 -20 3 -45.5t1 -38.5q0 -206 -84 -367t-238.5 -251t-359.5 -90q-186 0 -341 87.5zM626 1920h272v-272h-272v272z" />
    <glyph glyph-name="gdotaccent" unicode="&#x121;" horiz-adv-x="1248" 
d="M350 -446q-116 64 -178 170l252 122q25 -47 73.5 -72.5t106.5 -25.5q63 0 116.5 21t85.5 62t30 99v109q-110 -69 -258 -69q-146 0 -259.5 74.5t-176 204.5t-62.5 291q0 164 63.5 294t180 203t268.5 73q163 0 278 -90v60h238v-1154q0 -85 -16 -146q-38 -143 -170.5 -216.5
t-319.5 -73.5q-136 0 -252 64zM432 303.5q64 -91.5 190 -91.5q248 0 248 328q0 154 -57.5 241t-180.5 87q-88 0 -147 -43.5t-88 -117.5t-29 -167q0 -145 64 -236.5zM536 1560h272v-272h-272v272z" />
    <glyph glyph-name="uni0122" unicode="&#x122;" horiz-adv-x="1482" 
d="M399 57.5q-155 87.5 -247 257t-92 405.5q0 232 90 402t245 259t345 89q272 0 433.5 -126.5t216.5 -367.5l-278 -40q-41 131 -132.5 204.5t-229.5 73.5q-132 0 -222 -61t-135 -172t-45 -261q0 -233 106.5 -363.5t313.5 -130.5q140 0 234.5 81.5t125.5 244.5h-228v210h518
q2 -20 3 -45.5t1 -38.5q0 -206 -84 -367t-238.5 -251t-359.5 -90q-186 0 -341 87.5zM652 -516q46 0 94 23t48 87h-142v256h256v-256q0 -65 -32.5 -116t-90.5 -79.5t-133 -28.5v114z" />
    <glyph glyph-name="uni0123" unicode="&#x123;" horiz-adv-x="1248" 
d="M350 -446q-116 64 -178 170l252 122q25 -47 73.5 -72.5t106.5 -25.5q63 0 116.5 21t85.5 62t30 99v109q-110 -69 -258 -69q-146 0 -259.5 74.5t-176 204.5t-62.5 291q0 164 63.5 294t180 203t268.5 73q163 0 278 -90v60h238v-1154q0 -85 -16 -146q-38 -143 -170.5 -216.5
t-319.5 -73.5q-136 0 -252 64zM432 303.5q64 -91.5 190 -91.5q248 0 248 328q0 154 -57.5 241t-180.5 87q-88 0 -147 -43.5t-88 -117.5t-29 -167q0 -145 64 -236.5zM518 1544q0 65 32.5 116t90.5 79.5t133 28.5v-114q-46 0 -94 -23t-48 -87h142v-256h-256v256z" />
    <glyph glyph-name="Hcircumflex" unicode="&#x124;" horiz-adv-x="1468" 
d="M140 1440h272v-592h644v592h272v-1440h-272v594h-644v-594h-272v1440zM618 1920h224l288 -330h-250l-150 180l-150 -180h-250z" />
    <glyph glyph-name="hcircumflex" unicode="&#x125;" 
d="M864 664q-12 72 -63.5 132t-156.5 60q-94 0 -162 -64.5t-68 -243.5v-548h-276v1440h242v-471q61 68 149 105.5t201 37.5q190 0 283.5 -97t116 -205t22.5 -204v-606h-276v510q0 82 -12 154zM143 1920h224l288 -330h-250l-150 180l-150 -180h-250z" />
    <glyph glyph-name="Hbar" unicode="&#x126;" horiz-adv-x="1508" 
d="M160 988h-140v254h140v198h272v-198h644v198h272v-198h140v-254h-140v-988h-272v594h-644v-594h-272v988zM1076 848v140h-644v-140h644z" />
    <glyph glyph-name="hbar" unicode="&#x127;" 
d="M864 664q-12 72 -63.5 132t-156.5 60q-94 0 -162 -64.5t-68 -243.5v-548h-276v1160h-102v208h102v72h242v-72h200v-208h-200v-191q61 68 149 105.5t201 37.5q190 0 283.5 -97t116 -205t22.5 -204v-606h-276v510q0 82 -12 154z" />
    <glyph glyph-name="Itilde" unicode="&#x128;" horiz-adv-x="592" 
d="M160 1440h272v-1440h-272v1440zM-71 1730q0 95 49.5 151.5t145.5 56.5q48 0 92.5 -22.5t106.5 -65.5q43 -31 69.5 -45.5t49.5 -14.5q22 0 34.5 18.5t12.5 50.5q0 24 -7 49h168q13 -53 13 -104q0 -95 -49.5 -151.5t-145.5 -56.5q-48 0 -92.5 22.5t-106.5 65.5
q-43 31 -69.5 45.5t-49.5 14.5q-22 0 -34.5 -18.5t-12.5 -50.5q0 -24 7 -49h-168q-13 53 -13 104z" />
    <glyph glyph-name="itilde" unicode="&#x129;" horiz-adv-x="592" 
d="M160 1080h272v-1080h-272v1080zM-71 1370q0 95 49.5 151.5t145.5 56.5q48 0 92.5 -22.5t106.5 -65.5q43 -31 69.5 -45.5t49.5 -14.5q22 0 34.5 18.5t12.5 50.5q0 24 -7 49h168q13 -53 13 -104q0 -95 -49.5 -151.5t-145.5 -56.5q-48 0 -92.5 22.5t-106.5 65.5
q-43 31 -69.5 45.5t-49.5 14.5q-22 0 -34.5 -18.5t-12.5 -50.5q0 -24 7 -49h-168q-13 53 -13 104z" />
    <glyph glyph-name="Imacron" unicode="&#x12a;" horiz-adv-x="592" 
d="M160 1440h272v-1440h-272v1440zM24 1888h544v-208h-544v208z" />
    <glyph glyph-name="imacron" unicode="&#x12b;" horiz-adv-x="592" 
d="M160 1080h272v-1080h-272v1080zM24 1528h544v-208h-544v208z" />
    <glyph glyph-name="Iogonek" unicode="&#x12e;" horiz-adv-x="592" 
d="M111.5 -446.5q-50.5 31.5 -79 83.5t-28.5 111q0 73 42 148.5t114 137.5v1406h272v-1440q-60 -30 -110.5 -72.5t-80 -84.5t-29.5 -73q0 -21 15 -35.5t37 -14.5q32 0 68 30l94 -124q-36 -49 -89 -76.5t-111 -27.5q-64 0 -114.5 31.5z" />
    <glyph glyph-name="iogonek" unicode="&#x12f;" horiz-adv-x="592" 
d="M160 1470h272v-240h-272v240zM46 -103.5q42 75.5 114 137.5v1046h272v-1080q-60 -30 -110.5 -72.5t-80 -84.5t-29.5 -73q0 -21 15 -35.5t37 -14.5q32 0 68 30l94 -124q-36 -49 -89 -76.5t-111 -27.5q-64 0 -114.5 31.5t-79 83.5t-28.5 111q0 73 42 148.5z" />
    <glyph glyph-name="Idotaccent" unicode="&#x130;" horiz-adv-x="592" 
d="M160 1440h272v-1440h-272v1440zM160 1920h272v-272h-272v272z" />
    <glyph glyph-name="dotlessi" unicode="&#x131;" horiz-adv-x="592" 
d="M160 1080h272v-1080h-272v1080z" />
    <glyph glyph-name="Jcircumflex" unicode="&#x134;" horiz-adv-x="1026" 
d="M160.5 56q-112.5 86 -160.5 240l268 64q6 -36 30.5 -67.5t60 -50t71.5 -18.5q42 0 84 22.5t60 65.5q11 26 13.5 62.5t2.5 105.5v960h276v-960v-83q0 -76 -9 -124.5t-39 -100.5q-60 -103 -156.5 -152.5t-219.5 -49.5q-169 0 -281.5 86zM612 1920h224l288 -330h-250
l-150 180l-150 -180h-250z" />
    <glyph glyph-name="jcircumflex" unicode="&#x135;" horiz-adv-x="602" 
d="M-20 -226h48q89 0 125.5 40t36.5 122v1144h272v-1276q0 -85 -36.5 -149.5t-104 -99.5t-157.5 -35h-184v254zM209 1560h224l288 -330h-250l-150 180l-150 -180h-250z" />
    <glyph glyph-name="uni0136" unicode="&#x136;" horiz-adv-x="1330" 
d="M140 1440h272v-664l548 664h332l-602 -710l640 -730h-344l-574 656v-656h-272v1440zM586 -516q46 0 94 23t48 87h-142v256h256v-256q0 -65 -32.5 -116t-90.5 -79.5t-133 -28.5v114z" />
    <glyph glyph-name="uni0137" unicode="&#x137;" horiz-adv-x="1104" 
d="M140 1440h276v-880l366 520h336l-390 -540l416 -540h-354l-374 520v-520h-278zM488 -516q46 0 94 23t48 87h-142v256h256v-256q0 -65 -32.5 -116t-90.5 -79.5t-133 -28.5v114z" />
    <glyph glyph-name="Lacute" unicode="&#x139;" horiz-adv-x="1082" 
d="M160 1440h272v-1186h620v-254h-892v1440zM365 1980h202l-166 -390h-202z" />
    <glyph glyph-name="lacute" unicode="&#x13a;" horiz-adv-x="592" 
d="M160 1440h272v-1440h-272v1440zM365 1980h202l-166 -390h-202z" />
    <glyph glyph-name="uni013B" unicode="&#x13b;" horiz-adv-x="1082" 
d="M160 1440h272v-1186h620v-254h-892v1440zM478 -516q46 0 94 23t48 87h-142v256h256v-256q0 -65 -32.5 -116t-90.5 -79.5t-133 -28.5v114z" />
    <glyph glyph-name="uni013C" unicode="&#x13c;" horiz-adv-x="592" 
d="M160 1440h272v-1440h-272v1440zM168 -516q46 0 94 23t48 87h-142v256h256v-256q0 -65 -32.5 -116t-90.5 -79.5t-133 -28.5v114z" />
    <glyph glyph-name="Lcaron" unicode="&#x13d;" horiz-adv-x="1082" 
d="M160 1440h272v-1186h620v-254h-892v1440zM850 1620h202l-166 -390h-202z" />
    <glyph glyph-name="lcaron" unicode="&#x13e;" horiz-adv-x="592" 
d="M160 1440h272v-1440h-272v1440zM691 1620h202l-166 -390h-202z" />
    <glyph glyph-name="Lslash" unicode="&#x141;" horiz-adv-x="1122" 
d="M200 404l-144 -82v293l144 83v742h272v-586l304 174v-294l-304 -174v-306h620v-254h-892v404z" />
    <glyph glyph-name="lslash" unicode="&#x142;" horiz-adv-x="812" 
d="M270 510l-224 -128v293l224 128v637h272v-480l224 128v-294l-224 -128v-666h-272v510z" />
    <glyph glyph-name="Nacute" unicode="&#x143;" horiz-adv-x="1458" 
d="M140 1440h276l626 -960v960h276v-1440h-276l-626 960v-960h-276v1440zM807 1980h202l-166 -390h-202z" />
    <glyph glyph-name="nacute" unicode="&#x144;" 
d="M864 664q-12 72 -63.5 132t-156.5 60q-94 0 -162 -64.5t-68 -243.5v-548h-276v1080h242v-111q61 68 149 105.5t201 37.5q190 0 283.5 -97t116 -205t22.5 -204v-606h-276v510q0 82 -12 154zM708 1620h202l-166 -390h-202z" />
    <glyph glyph-name="uni0145" unicode="&#x145;" horiz-adv-x="1458" 
d="M140 1440h276l626 -960v960h276v-1440h-276l-626 960v-960h-276v1440zM622 -516q46 0 94 23t48 87h-142v256h256v-256q0 -65 -32.5 -116t-90.5 -79.5t-133 -28.5v114z" />
    <glyph glyph-name="uni0146" unicode="&#x146;" 
d="M864 664q-12 72 -63.5 132t-156.5 60q-94 0 -162 -64.5t-68 -243.5v-548h-276v1080h242v-111q61 68 149 105.5t201 37.5q190 0 283.5 -97t116 -205t22.5 -204v-606h-276v510q0 82 -12 154zM524 -516q46 0 94 23t48 87h-142v256h256v-256q0 -65 -32.5 -116t-90.5 -79.5
t-133 -28.5v114z" />
    <glyph glyph-name="Ncaron" unicode="&#x147;" horiz-adv-x="1458" 
d="M140 1440h276l626 -960v960h276v-1440h-276l-626 960v-960h-276v1440zM596 1920l150 -180l150 180h250l-288 -330h-224l-288 330h250z" />
    <glyph glyph-name="ncaron" unicode="&#x148;" 
d="M864 664q-12 72 -63.5 132t-156.5 60q-94 0 -162 -64.5t-68 -243.5v-548h-276v1080h242v-111q61 68 149 105.5t201 37.5q190 0 283.5 -97t116 -205t22.5 -204v-606h-276v510q0 82 -12 154zM482 1560l150 -180l150 180h250l-288 -330h-224l-288 330h250z" />
    <glyph glyph-name="Eng" unicode="&#x14a;" horiz-adv-x="1458" 
d="M1318 1440v-1616q0 -152 -74.5 -227t-225.5 -75q-89 0 -160 20v200l37 -3q33 -3 47 -3q75 0 113.5 27t38.5 79q0 43 -24.5 96.5t-93.5 163.5l-560 858v-960h-276v1440h276l626 -960v960h276z" />
    <glyph glyph-name="eng" unicode="&#x14b;" 
d="M841 -478q-65 0 -149 20v190q48 -3 56 -3q56 0 92 28.5t36 110.5v642q0 82 -12 154t-63.5 132t-156.5 60q-94 0 -162 -64.5t-68 -243.5v-548h-276v1080h242v-111q61 68 149 105.5t201 37.5q190 0 283.5 -97t116 -205t22.5 -204v-782q0 -118 -55.5 -195t-154.5 -97
q-51 -10 -101 -10z" />
    <glyph glyph-name="Omacron" unicode="&#x14c;" horiz-adv-x="1516" 
d="M387 63.5q-158 93.5 -242.5 263.5t-84.5 393t84.5 393t242.5 263.5t371 93.5t371 -93.5t242.5 -263.5t84.5 -393t-84.5 -393t-242.5 -263.5t-371 -93.5t-371 93.5zM454 357q106 -131 312 -131q132 0 222 61t135 172t45 261q0 232 -106 363t-312 131q-132 0 -222 -61
t-135 -172t-45 -261q0 -232 106 -363zM486 1888h544v-208h-544v208z" />
    <glyph glyph-name="omacron" unicode="&#x14d;" horiz-adv-x="1254" 
d="M341 42.5q-124 72.5 -192.5 202t-68.5 295.5q0 167 69.5 296.5t194 201.5t282.5 72q161 0 285.5 -72.5t193.5 -202.5t69 -295q0 -166 -69.5 -295.5t-194 -202t-284.5 -72.5q-161 0 -285 72.5zM356 1528h544v-208h-544v208zM434.5 308q66.5 -84 191.5 -84q127 0 193.5 86
t66.5 230q0 147 -67 231.5t-193 84.5q-129 0 -193.5 -84.5t-64.5 -231.5q0 -148 66.5 -232z" />
    <glyph glyph-name="Ohungarumlaut" unicode="&#x150;" horiz-adv-x="1516" 
d="M387 63.5q-158 93.5 -242.5 263.5t-84.5 393t84.5 393t242.5 263.5t371 93.5t371 -93.5t242.5 -263.5t84.5 -393t-84.5 -393t-242.5 -263.5t-371 -93.5t-371 93.5zM454 357q106 -131 312 -131q132 0 222 61t135 172t45 261q0 232 -106 363t-312 131q-132 0 -222 -61
t-135 -172t-45 -261q0 -232 106 -363zM850 1590l166 390h202l-166 -390h-202zM426 1590l166 390h202l-166 -390h-202z" />
    <glyph glyph-name="ohungarumlaut" unicode="&#x151;" horiz-adv-x="1254" 
d="M341 42.5q-124 72.5 -192.5 202t-68.5 295.5q0 167 69.5 296.5t194 201.5t282.5 72q161 0 285.5 -72.5t193.5 -202.5t69 -295q0 -166 -69.5 -295.5t-194 -202t-284.5 -72.5q-161 0 -285 72.5zM434.5 308q66.5 -84 191.5 -84q127 0 193.5 86t66.5 230q0 147 -67 231.5
t-193 84.5q-129 0 -193.5 -84.5t-64.5 -231.5q0 -148 66.5 -232zM714 1230l166 390h202l-166 -390h-202zM290 1230l166 390h202l-166 -390h-202z" />
    <glyph glyph-name="OE" unicode="&#x152;" horiz-adv-x="2222" 
d="M387 63.5q-158 93.5 -242.5 263.5t-84.5 393t84.5 393t242.5 263.5t371 93.5q125 0 232 -33t192 -96v99h940v-254h-668v-308h548v-254h-548v-370h668v-254h-940v99q-85 -63 -192 -96t-232 -33q-213 0 -371 93.5zM454 357q106 -131 312 -131q132 0 222 61t135 172t45 261
q0 232 -106 363t-312 131q-132 0 -222 -61t-135 -172t-45 -261q0 -232 106 -363z" />
    <glyph glyph-name="oe" unicode="&#x153;" horiz-adv-x="2022" 
d="M1213 14q-107 44 -182 125q-74 -81 -177.5 -125t-227.5 -44q-161 0 -285 72.5t-192.5 202t-68.5 295.5q0 167 69.5 296.5t194 201.5t282.5 72q124 0 227.5 -44t176.5 -125q73 82 176 125.5t226 43.5q156 0 271 -69t176.5 -196t61.5 -298q0 -27 -4 -83h-758
q15 -116 79.5 -178t173.5 -62q79 0 136.5 35t87.5 101l272 -78q-40 -97 -113 -167.5t-168 -107.5t-199 -37q-128 0 -235 44zM434.5 308q66.5 -84 191.5 -84q127 0 193.5 86t66.5 230q0 147 -67 231.5t-193 84.5q-129 0 -193.5 -84.5t-64.5 -231.5q0 -148 66.5 -232z
M1662 666q-14 109 -66.5 158.5t-151.5 49.5q-215 0 -258 -208h476z" />
    <glyph glyph-name="Racute" unicode="&#x154;" horiz-adv-x="1340" 
d="M140 1440h608q69 0 120 -8q187 -29 279.5 -153.5t92.5 -314.5q0 -151 -60 -263t-180 -167l260 -534h-308l-237 488h-303v-488h-272v1440zM736 742q57 0 92 10q75 20 106.5 80.5t31.5 131.5t-31.5 131.5t-106.5 80.5q-35 10 -92 10h-324v-444h324zM711 1980h202l-166 -390
h-202z" />
    <glyph glyph-name="racute" unicode="&#x155;" horiz-adv-x="824" 
d="M140 1080h240v-174q45 81 116 122q91 56 216 56q34 0 62 -4v-254q-31 10 -77 10q-76 0 -135 -28q-72 -33 -110 -98t-38 -158v-552h-274v1080zM465 1620h202l-166 -390h-202z" />
    <glyph glyph-name="uni0156" unicode="&#x156;" horiz-adv-x="1340" 
d="M140 1440h608q69 0 120 -8q187 -29 279.5 -153.5t92.5 -314.5q0 -151 -60 -263t-180 -167l260 -534h-308l-237 488h-303v-488h-272v1440zM736 742q57 0 92 10q75 20 106.5 80.5t31.5 131.5t-31.5 131.5t-106.5 80.5q-35 10 -92 10h-324v-444h324zM542 -516q46 0 94 23
t48 87h-142v256h256v-256q0 -65 -32.5 -116t-90.5 -79.5t-133 -28.5v114z" />
    <glyph glyph-name="uni0157" unicode="&#x157;" horiz-adv-x="824" 
d="M140 1080h240v-174q45 81 116 122q91 56 216 56q34 0 62 -4v-254q-31 10 -77 10q-76 0 -135 -28q-72 -33 -110 -98t-38 -158v-552h-274v1080zM150 -516q46 0 94 23t48 87h-142v256h256v-256q0 -65 -32.5 -116t-90.5 -79.5t-133 -28.5v114z" />
    <glyph glyph-name="Rcaron" unicode="&#x158;" horiz-adv-x="1340" 
d="M140 1440h608q69 0 120 -8q187 -29 279.5 -153.5t92.5 -314.5q0 -151 -60 -263t-180 -167l260 -534h-308l-237 488h-303v-488h-272v1440zM472 1920l150 -180l150 180h250l-288 -330h-224l-288 330h250zM736 742q57 0 92 10q75 20 106.5 80.5t31.5 131.5t-31.5 131.5
t-106.5 80.5q-35 10 -92 10h-324v-444h324z" />
    <glyph glyph-name="rcaron" unicode="&#x159;" horiz-adv-x="824" 
d="M140 1080h240v-174q45 81 116 122q91 56 216 56q34 0 62 -4v-254q-31 10 -77 10q-76 0 -135 -28q-72 -33 -110 -98t-38 -158v-552h-274v1080zM304 1560l150 -180l150 180h250l-288 -330h-224l-288 330h250z" />
    <glyph glyph-name="Sacute" unicode="&#x15a;" horiz-adv-x="1342" 
d="M395.5 27q-129.5 57 -211.5 163t-104 250l284 42q20 -81 69 -139.5t118.5 -88.5t150.5 -30q69 0 132 21.5t102.5 63.5t39.5 99q0 48 -31 84t-109 60l-374 110q-82 23 -150.5 59t-122 114t-53.5 203q0 139 70.5 236t191 145.5t270.5 48.5q226 0 377.5 -109.5t204.5 -312.5
l-294 -50q-16 70 -60.5 119t-106 74t-130.5 25q-63 0 -117 -20t-87 -57t-33 -85q0 -63 52 -97t140 -57l250 -68q107 -29 189.5 -67t145.5 -120t63 -215q0 -148 -80.5 -251.5t-212.5 -155t-285 -51.5q-159 0 -288.5 57zM749 1980h202l-166 -390h-202z" />
    <glyph glyph-name="sacute" unicode="&#x15b;" horiz-adv-x="1094" 
d="M232.5 62q-125.5 92 -152.5 262l278 42q17 -77 75.5 -119.5t148.5 -42.5q73 0 113.5 28.5t40.5 79.5q0 34 -16.5 52.5t-68 36.5t-175.5 51q-134 34 -212 76t-113 100t-35 142q0 103 53 180t150 118.5t227 41.5q126 0 224.5 -39t159 -111.5t74.5 -169.5l-278 -50
q-7 60 -52 95t-122 41l-21 1q-66 0 -105.5 -25t-39.5 -68q0 -29 20 -47.5t78 -38t190 -52.5q124 -32 198 -74.5t108 -101.5t34 -144q0 -110 -54 -190.5t-156 -123t-242 -42.5q-204 0 -329.5 92zM610 1620h202l-166 -390h-202z" />
    <glyph glyph-name="Scircumflex" unicode="&#x15c;" horiz-adv-x="1342" 
d="M395.5 27q-129.5 57 -211.5 163t-104 250l284 42q20 -81 69 -139.5t118.5 -88.5t150.5 -30q69 0 132 21.5t102.5 63.5t39.5 99q0 48 -31 84t-109 60l-374 110q-82 23 -150.5 59t-122 114t-53.5 203q0 139 70.5 236t191 145.5t270.5 48.5q226 0 377.5 -109.5t204.5 -312.5
l-294 -50q-16 70 -60.5 119t-106 74t-130.5 25q-63 0 -117 -20t-87 -57t-33 -85q0 -63 52 -97t140 -57l250 -68q107 -29 189.5 -67t145.5 -120t63 -215q0 -148 -80.5 -251.5t-212.5 -155t-285 -51.5q-159 0 -288.5 57zM575 1920h224l288 -330h-250l-150 180l-150 -180h-250z
" />
    <glyph glyph-name="scircumflex" unicode="&#x15d;" horiz-adv-x="1094" 
d="M232.5 62q-125.5 92 -152.5 262l278 42q17 -77 75.5 -119.5t148.5 -42.5q73 0 113.5 28.5t40.5 79.5q0 34 -16.5 52.5t-68 36.5t-175.5 51q-134 34 -212 76t-113 100t-35 142q0 103 53 180t150 118.5t227 41.5q126 0 224.5 -39t159 -111.5t74.5 -169.5l-278 -50
q-7 60 -52 95t-122 41l-21 1q-66 0 -105.5 -25t-39.5 -68q0 -29 20 -47.5t78 -38t190 -52.5q124 -32 198 -74.5t108 -101.5t34 -144q0 -110 -54 -190.5t-156 -123t-242 -42.5q-204 0 -329.5 92zM451 1560h224l288 -330h-250l-150 180l-150 -180h-250z" />
    <glyph glyph-name="Scedilla" unicode="&#x15e;" horiz-adv-x="1342" 
d="M552 -446l58 156q39 -12 60 -12q25 0 40.5 14t15.5 32q0 32 -31.5 49.5t-98.5 36.5l48 141q-150 7 -270 65.5t-196.5 162t-97.5 241.5l284 42q20 -81 69 -139.5t118.5 -88.5t150.5 -30q69 0 132 21.5t102.5 63.5t39.5 99q0 48 -31 84t-109 60l-374 110q-82 23 -150.5 59
t-122 114t-53.5 203q0 139 70.5 236t191 145.5t270.5 48.5q226 0 377.5 -109.5t204.5 -312.5l-294 -50q-16 70 -60.5 119t-106 74t-130.5 25q-63 0 -117 -20t-87 -57t-33 -85q0 -63 52 -97t140 -57l250 -68q107 -29 189.5 -67t145.5 -120t63 -215q0 -128 -61 -223
t-164.5 -151.5t-231.5 -74.5l-17 -51q59 -30 90.5 -78t31.5 -112t-29.5 -115t-79 -79t-107.5 -28q-73 0 -142 38z" />
    <glyph glyph-name="scedilla" unicode="&#x15f;" horiz-adv-x="1094" 
d="M390 -446l58 156q39 -12 60 -12q25 0 40.5 14t15.5 32q0 32 -31.5 49.5t-98.5 36.5l49 144q-170 17 -274.5 107.5t-128.5 242.5l278 42q17 -77 75.5 -119.5t148.5 -42.5q73 0 113.5 28.5t40.5 79.5q0 34 -16.5 52.5t-68 36.5t-175.5 51q-134 34 -212 76t-113 100t-35 142
q0 103 53 180t150 118.5t227 41.5q126 0 224.5 -39t159 -111.5t74.5 -169.5l-278 -50q-7 60 -52 95t-122 41l-21 1q-66 0 -105.5 -25t-39.5 -68q0 -29 20 -47.5t78 -38t190 -52.5q124 -32 198 -74.5t108 -101.5t34 -144q0 -150 -98 -242.5t-275 -109.5l-15 -46
q59 -30 90.5 -78t31.5 -112t-29.5 -115t-79 -79t-107.5 -28q-73 0 -142 38z" />
    <glyph glyph-name="Scaron" unicode="&#x160;" horiz-adv-x="1342" 
d="M395.5 27q-129.5 57 -211.5 163t-104 250l284 42q20 -81 69 -139.5t118.5 -88.5t150.5 -30q69 0 132 21.5t102.5 63.5t39.5 99q0 48 -31 84t-109 60l-374 110q-82 23 -150.5 59t-122 114t-53.5 203q0 139 70.5 236t191 145.5t270.5 48.5q226 0 377.5 -109.5t204.5 -312.5
l-294 -50q-16 70 -60.5 119t-106 74t-130.5 25q-63 0 -117 -20t-87 -57t-33 -85q0 -63 52 -97t140 -57l250 -68q107 -29 189.5 -67t145.5 -120t63 -215q0 -148 -80.5 -251.5t-212.5 -155t-285 -51.5q-159 0 -288.5 57zM544 1920l150 -180l150 180h250l-288 -330h-224
l-288 330h250z" />
    <glyph glyph-name="scaron" unicode="&#x161;" horiz-adv-x="1094" 
d="M232.5 62q-125.5 92 -152.5 262l278 42q17 -77 75.5 -119.5t148.5 -42.5q73 0 113.5 28.5t40.5 79.5q0 34 -16.5 52.5t-68 36.5t-175.5 51q-134 34 -212 76t-113 100t-35 142q0 103 53 180t150 118.5t227 41.5q126 0 224.5 -39t159 -111.5t74.5 -169.5l-278 -50
q-7 60 -52 95t-122 41l-21 1q-66 0 -105.5 -25t-39.5 -68q0 -29 20 -47.5t78 -38t190 -52.5q124 -32 198 -74.5t108 -101.5t34 -144q0 -110 -54 -190.5t-156 -123t-242 -42.5q-204 0 -329.5 92zM408 1560l150 -180l150 180h250l-288 -330h-224l-288 330h250z" />
    <glyph glyph-name="uni0162" unicode="&#x162;" horiz-adv-x="1220" 
d="M474 1186h-454v254h1180v-254h-454v-1186h-62l-24 -72q59 -30 90.5 -78t31.5 -112t-29.5 -115t-79 -79t-107.5 -28q-73 0 -142 38l58 156q39 -12 60 -12q25 0 40.5 14t15.5 32q0 32 -31.5 49.5t-98.5 36.5l58 170h-52v1186z" />
    <glyph glyph-name="uni0163" unicode="&#x163;" horiz-adv-x="888" 
d="M584 -19l-18 -53q59 -30 90.5 -78t31.5 -112t-29.5 -115t-79 -79t-107.5 -28q-73 0 -142 38l58 156q39 -12 60 -12q25 0 40.5 14t15.5 32q0 32 -31.5 49.5t-98.5 36.5l58 170q-128 35 -184 134q-27 50 -36 102t-9 123l1 99v412h-184v210h184v300h272v-300h312v-210h-312
v-396v-57q0 -52 4 -84t18 -53q41 -65 162 -65q46 0 128 11v-226q-109 -20 -204 -19z" />
    <glyph glyph-name="Tcaron" unicode="&#x164;" horiz-adv-x="1220" 
d="M474 1186h-454v254h1180v-254h-454v-1186h-272v1186zM456 1920l150 -180l150 180h250l-288 -330h-224l-288 330h250z" />
    <glyph glyph-name="tcaron" unicode="&#x165;" horiz-adv-x="888" 
d="M594 -19q-122 0 -212 36.5t-134 116.5q-27 50 -36 102t-9 123l1 99v412h-184v210h184v300h272v-300h312v-210h-312v-396v-57q0 -52 4 -84t18 -53q41 -65 162 -65q46 0 128 11v-226q-104 -19 -194 -19zM751 1620h202l-166 -390h-202z" />
    <glyph glyph-name="Tbar" unicode="&#x166;" horiz-adv-x="1220" 
d="M130 856h344v330h-454v254h1180v-254h-454v-330h344v-272h-344v-584h-272v584h-344v272z" />
    <glyph glyph-name="tbar" unicode="&#x167;" horiz-adv-x="928" 
d="M20 666h184v204h-184v210h184v300h272v-300h312v-210h-312v-204h352v-210h-352v-32q0 -56 4 -89t18 -55q41 -65 162 -65q46 0 128 11v-226q-104 -19 -194 -19q-122 0 -212 36.5t-134 116.5q-27 49 -36 101t-9 123l1 98h-184v210z" />
    <glyph glyph-name="Utilde" unicode="&#x168;" horiz-adv-x="1452" 
d="M420 40.5q-133 70.5 -206.5 199.5t-73.5 300v898l276 2v-898q0 -93 41 -165t112 -111.5t157 -39.5q87 0 158 40.5t111.5 112.5t40.5 163v898h276v-900q0 -171 -73.5 -300t-206.5 -199.5t-306 -70.5t-306 70.5zM824.5 1618.5q-44.5 22.5 -106.5 65.5q-43 31 -69.5 45.5
t-49.5 14.5q-22 0 -34.5 -18.5t-12.5 -50.5q0 -24 7 -49h-168q-13 53 -13 104q0 95 49.5 151.5t145.5 56.5q48 0 92.5 -22.5t106.5 -65.5q43 -31 69.5 -45.5t49.5 -14.5q22 0 34.5 18.5t12.5 50.5q0 24 -7 49h168q13 -53 13 -104q0 -95 -49.5 -151.5t-145.5 -56.5
q-48 0 -92.5 22.5z" />
    <glyph glyph-name="utilde" unicode="&#x169;" 
d="M258.5 65q-93.5 97 -116 205t-22.5 204v606h276v-510q0 -82 12 -154t63.5 -132t156.5 -60q94 0 162 64.5t68 243.5v548h274v-1080h-240v111q-61 -68 -149 -105.5t-201 -37.5q-190 0 -283.5 97zM725.5 1258.5q-44.5 22.5 -106.5 65.5q-43 31 -69.5 45.5t-49.5 14.5
q-22 0 -34.5 -18.5t-12.5 -50.5q0 -24 7 -49h-168q-13 53 -13 104q0 95 49.5 151.5t145.5 56.5q48 0 92.5 -22.5t106.5 -65.5q43 -31 69.5 -45.5t49.5 -14.5q22 0 34.5 18.5t12.5 50.5q0 24 -7 49h168q13 -53 13 -104q0 -95 -49.5 -151.5t-145.5 -56.5q-48 0 -92.5 22.5z
" />
    <glyph glyph-name="Umacron" unicode="&#x16a;" horiz-adv-x="1452" 
d="M420 40.5q-133 70.5 -206.5 199.5t-73.5 300v898l276 2v-898q0 -93 41 -165t112 -111.5t157 -39.5q87 0 158 40.5t111.5 112.5t40.5 163v898h276v-900q0 -171 -73.5 -300t-206.5 -199.5t-306 -70.5t-306 70.5zM454 1888h544v-208h-544v208z" />
    <glyph glyph-name="umacron" unicode="&#x16b;" 
d="M258.5 65q-93.5 97 -116 205t-22.5 204v606h276v-510q0 -82 12 -154t63.5 -132t156.5 -60q94 0 162 64.5t68 243.5v548h274v-1080h-240v111q-61 -68 -149 -105.5t-201 -37.5q-190 0 -283.5 97zM354 1528h544v-208h-544v208z" />
    <glyph glyph-name="Ubreve" unicode="&#x16c;" horiz-adv-x="1452" 
d="M420 40.5q-133 70.5 -206.5 199.5t-73.5 300v898l276 2v-898q0 -93 41 -165t112 -111.5t157 -39.5q87 0 158 40.5t111.5 112.5t40.5 163v898h276v-900q0 -171 -73.5 -300t-206.5 -199.5t-306 -70.5t-306 70.5zM618 1878q0 -45 31.5 -76.5t76.5 -31.5t76.5 31.5t31.5 76.5
h210q0 -87 -42.5 -160t-115.5 -115.5t-160 -42.5t-160 42.5t-115.5 115.5t-42.5 160h210z" />
    <glyph glyph-name="ubreve" unicode="&#x16d;" 
d="M258.5 65q-93.5 97 -116 205t-22.5 204v606h276v-510q0 -82 12 -154t63.5 -132t156.5 -60q94 0 162 64.5t68 243.5v548h274v-1080h-240v111q-61 -68 -149 -105.5t-201 -37.5q-190 0 -283.5 97zM518 1518q0 -45 31.5 -76.5t76.5 -31.5t76.5 31.5t31.5 76.5h210
q0 -87 -42.5 -160t-115.5 -115.5t-160 -42.5t-160 42.5t-115.5 115.5t-42.5 160h210z" />
    <glyph glyph-name="Uring" unicode="&#x16e;" horiz-adv-x="1452" 
d="M420 40.5q-133 70.5 -206.5 199.5t-73.5 300v898l276 2v-898q0 -93 41 -165t112 -111.5t157 -39.5q87 0 158 40.5t111.5 112.5t40.5 163v898h276v-900q0 -171 -73.5 -300t-206.5 -199.5t-306 -70.5t-306 70.5zM500.5 1955q36.5 62 98.5 98.5t135 36.5t135 -36.5
t98.5 -98.5t36.5 -135t-36.5 -135t-98.5 -98.5t-135 -36.5t-135 36.5t-98.5 98.5t-36.5 135t36.5 135zM656.5 1742.5q32.5 -32.5 77.5 -32.5q46 0 78 32.5t32 77.5q0 46 -32 78t-78 32q-45 0 -77.5 -32t-32.5 -78q0 -45 32.5 -77.5z" />
    <glyph glyph-name="uring" unicode="&#x16f;" 
d="M258.5 65q-93.5 97 -116 205t-22.5 204v606h276v-510q0 -82 12 -154t63.5 -132t156.5 -60q94 0 162 64.5t68 243.5v548h274v-1080h-240v111q-61 -68 -149 -105.5t-201 -37.5q-190 0 -283.5 97zM392.5 1595q36.5 62 98.5 98.5t135 36.5t135 -36.5t98.5 -98.5t36.5 -135
t-36.5 -135t-98.5 -98.5t-135 -36.5t-135 36.5t-98.5 98.5t-36.5 135t36.5 135zM548.5 1382.5q32.5 -32.5 77.5 -32.5q46 0 78 32.5t32 77.5q0 46 -32 78t-78 32q-45 0 -77.5 -32t-32.5 -78q0 -45 32.5 -77.5z" />
    <glyph glyph-name="Uhungarumlaut" unicode="&#x170;" horiz-adv-x="1452" 
d="M420 40.5q-133 70.5 -206.5 199.5t-73.5 300v898l276 2v-898q0 -93 41 -165t112 -111.5t157 -39.5q87 0 158 40.5t111.5 112.5t40.5 163v898h276v-900q0 -171 -73.5 -300t-206.5 -199.5t-306 -70.5t-306 70.5zM813 1590l166 390h202l-166 -390h-202zM389 1590l166 390
h202l-166 -390h-202z" />
    <glyph glyph-name="uhungarumlaut" unicode="&#x171;" 
d="M258.5 65q-93.5 97 -116 205t-22.5 204v606h276v-510q0 -82 12 -154t63.5 -132t156.5 -60q94 0 162 64.5t68 243.5v548h274v-1080h-240v111q-61 -68 -149 -105.5t-201 -37.5q-190 0 -283.5 97zM723 1230l166 390h202l-166 -390h-202zM299 1230l166 390h202l-166 -390
h-202z" />
    <glyph glyph-name="Uogonek" unicode="&#x172;" horiz-adv-x="1452" 
d="M745.5 -384.5q-50.5 31.5 -79 83.5t-28.5 111q0 79 49 161q-163 8 -286.5 80.5t-192 198.5t-68.5 290v898l276 2v-898q0 -93 41 -165t112 -111.5t157 -39.5q87 0 158 40.5t111.5 112.5t40.5 163v898h276v-900q0 -178 -80 -310.5t-222 -199.5q-71 -47 -117.5 -103
t-46.5 -95q0 -21 15 -35.5t37 -14.5q32 0 68 30l94 -124q-36 -49 -89 -76.5t-111 -27.5q-64 0 -114.5 31.5z" />
    <glyph glyph-name="uogonek" unicode="&#x173;" 
d="M258.5 65q-93.5 97 -116 205t-22.5 204v606h276v-510q0 -82 12 -154t63.5 -132t156.5 -60q94 0 162 64.5t68 243.5v548h274v-1080q-60 -30 -110.5 -72.5t-80 -84.5t-29.5 -73q0 -21 15 -35.5t37 -14.5q32 0 68 30l94 -124q-36 -49 -89 -76.5t-111 -27.5
q-64 0 -114.5 31.5t-79 83.5t-28.5 111q0 81 51 164t137 147v52q-61 -68 -149 -105.5t-201 -37.5q-190 0 -283.5 97z" />
    <glyph glyph-name="Wcircumflex" unicode="&#x174;" horiz-adv-x="1978" 
d="M20 1440h286l270 -990l270 988l286 2l270 -990l270 990h286l-422 -1440h-268l-279 972l-279 -972h-268zM874 1920h224l288 -330h-250l-150 180l-150 -180h-250z" />
    <glyph glyph-name="wcircumflex" unicode="&#x175;" horiz-adv-x="1628" 
d="M40 1082l266 -2l196 -644l199 644h226l199 -644l196 644h266l-330 -1080h-208l-236 704l-236 -704h-208zM698 1560h224l288 -330h-250l-150 180l-150 -180h-250z" />
    <glyph glyph-name="Ycircumflex" unicode="&#x176;" horiz-adv-x="1260" 
d="M492 586l-492 854h318l312 -542l312 542h318l-492 -854v-586h-276v586zM514 1920h224l288 -330h-250l-150 180l-150 -180h-250z" />
    <glyph glyph-name="ycircumflex" unicode="&#x177;" horiz-adv-x="1140" 
d="M456 9l-436 1071h282l284 -735l282 735h272l-610 -1560h-252zM470 1560h224l288 -330h-250l-150 180l-150 -180h-250z" />
    <glyph glyph-name="Ydieresis" unicode="&#x178;" horiz-adv-x="1260" 
d="M492 586l-492 854h318l312 -542l312 542h318l-492 -854v-586h-276v586zM298 1832h240v-240h-240v240zM722 1832h240v-240h-240v240z" />
    <glyph glyph-name="Zacute" unicode="&#x179;" horiz-adv-x="1360" 
d="M100 34l684 1152h-624v254h1100v-34l-680 -1150h660v-256h-1140v34zM758 1980h202l-166 -390h-202z" />
    <glyph glyph-name="zacute" unicode="&#x17a;" horiz-adv-x="1070" 
d="M40 34l530 810h-470v236h890v-34l-528 -810h508v-236h-930v34zM610 1620h202l-166 -390h-202z" />
    <glyph glyph-name="Zdotaccent" unicode="&#x17b;" horiz-adv-x="1360" 
d="M100 34l684 1152h-624v254h1100v-34l-680 -1150h660v-256h-1140v34zM574 1920h272v-272h-272v272z" />
    <glyph glyph-name="zdotaccent" unicode="&#x17c;" horiz-adv-x="1070" 
d="M40 34l530 810h-470v236h890v-34l-528 -810h508v-236h-930v34zM424 1560h272v-272h-272v272z" />
    <glyph glyph-name="Zcaron" unicode="&#x17d;" horiz-adv-x="1360" 
d="M100 34l684 1152h-624v254h1100v-34l-680 -1150h660v-256h-1140v34zM536 1920l150 -180l150 180h250l-288 -330h-224l-288 330h250z" />
    <glyph glyph-name="zcaron" unicode="&#x17e;" horiz-adv-x="1070" 
d="M40 34l530 810h-470v236h890v-34l-528 -810h508v-236h-930v34zM400 1560l150 -180l150 180h250l-288 -330h-224l-288 330h250z" />
    <glyph glyph-name="florin" unicode="&#x192;" horiz-adv-x="1412" 
d="M216.5 -13q-71.5 17 -136.5 45l114 228q27 -15 65.5 -24.5t70.5 -9.5q139 0 172 220l27 170h-267v210h301l29 182q17 105 53 202t133.5 178.5t269.5 81.5q146 0 284 -64l-124 -224q-2 3 -22 11t-49 14.5t-59 6.5q-71 0 -124.5 -37t-65.5 -105l-41 -246h341v-210h-376
l-34 -208q-34 -205 -141 -321.5t-283 -116.5q-66 0 -137.5 17z" />
    <glyph glyph-name="Ohorn" unicode="&#x1a0;" horiz-adv-x="1516" 
d="M387 63.5q-158 93.5 -242.5 263.5t-84.5 393t84.5 393t242.5 263.5t371 93.5q101 0 195 -23q53 -11 74 -11q23 0 44 9q31 14 45 39.5t16.5 53.5t2.5 78l202 1q5 -35 5 -78q0 -168 -114 -221l-11 -5q115 -99 177 -251t62 -342q0 -223 -84.5 -393t-242.5 -263.5t-371 -93.5
t-371 93.5zM454 357q106 -131 312 -131q132 0 222 61t135 172t45 261q0 232 -106 363t-312 131q-132 0 -222 -61t-135 -172t-45 -261q0 -232 106 -363z" />
    <glyph glyph-name="ohorn" unicode="&#x1a1;" horiz-adv-x="1254" 
d="M341 42.5q-124 72.5 -192.5 202t-68.5 295.5q0 167 69.5 296.5t194 201.5t282.5 72q71 0 143 -16q60 -15 89 -15q24 0 45 9q31 14 45 39.5t16.5 53.5t2.5 78l202 1q5 -35 5 -78q0 -168 -114 -221q-13 -6 -36 -13q72 -77 111 -181t39 -227q0 -166 -69.5 -295.5t-194 -202
t-284.5 -72.5q-161 0 -285 72.5zM434.5 308q66.5 -84 191.5 -84q127 0 193.5 86t66.5 230q0 147 -67 231.5t-193 84.5q-129 0 -193.5 -84.5t-64.5 -231.5q0 -148 66.5 -232z" />
    <glyph glyph-name="Uhorn" unicode="&#x1af;" horiz-adv-x="1452" 
d="M420 40.5q-133 70.5 -206.5 199.5t-73.5 300v898l276 2v-898q0 -93 41 -165t112 -111.5t157 -39.5q87 0 158 40.5t111.5 112.5t40.5 163v898h134q55 0 80 4q71 12 94.5 57t23.5 118l202 1q5 -43 5 -72q0 -160 -113 -222q-56 -32 -150 -37v-749q0 -171 -73.5 -300
t-206.5 -199.5t-306 -70.5t-306 70.5z" />
    <glyph glyph-name="uhorn" unicode="&#x1b0;" 
d="M258.5 65q-93.5 97 -116 205t-22.5 204v606h276v-510q0 -82 12 -154t63.5 -132t156.5 -60q94 0 162 64.5t68 243.5v548h72q55 0 80 4q71 12 94.5 57t23.5 118l202 1q5 -43 5 -72q0 -160 -113 -222q-40 -22 -90 -30v-936h-240v111q-61 -68 -149 -105.5t-201 -37.5
q-190 0 -283.5 97z" />
    <glyph glyph-name="uni0218" unicode="&#x218;" horiz-adv-x="1342" 
d="M395.5 27q-129.5 57 -211.5 163t-104 250l284 42q20 -81 69 -139.5t118.5 -88.5t150.5 -30q69 0 132 21.5t102.5 63.5t39.5 99q0 48 -31 84t-109 60l-374 110q-82 23 -150.5 59t-122 114t-53.5 203q0 139 70.5 236t191 145.5t270.5 48.5q226 0 377.5 -109.5t204.5 -312.5
l-294 -50q-16 70 -60.5 119t-106 74t-130.5 25q-63 0 -117 -20t-87 -57t-33 -85q0 -63 52 -97t140 -57l250 -68q107 -29 189.5 -67t145.5 -120t63 -215q0 -148 -80.5 -251.5t-212.5 -155t-285 -51.5q-159 0 -288.5 57zM586 -516q46 0 94 23t48 87h-142v256h256v-256
q0 -65 -32.5 -116t-90.5 -79.5t-133 -28.5v114z" />
    <glyph glyph-name="uni0219" unicode="&#x219;" horiz-adv-x="1094" 
d="M232.5 62q-125.5 92 -152.5 262l278 42q17 -77 75.5 -119.5t148.5 -42.5q73 0 113.5 28.5t40.5 79.5q0 34 -16.5 52.5t-68 36.5t-175.5 51q-134 34 -212 76t-113 100t-35 142q0 103 53 180t150 118.5t227 41.5q126 0 224.5 -39t159 -111.5t74.5 -169.5l-278 -50
q-7 60 -52 95t-122 41l-21 1q-66 0 -105.5 -25t-39.5 -68q0 -29 20 -47.5t78 -38t190 -52.5q124 -32 198 -74.5t108 -101.5t34 -144q0 -110 -54 -190.5t-156 -123t-242 -42.5q-204 0 -329.5 92zM434 -516q46 0 94 23t48 87h-142v256h256v-256q0 -65 -32.5 -116t-90.5 -79.5
t-133 -28.5v114z" />
    <glyph glyph-name="uni021A" unicode="&#x21a;" horiz-adv-x="1220" 
d="M474 1186h-454v254h1180v-254h-454v-1186h-272v1186zM482 -516q46 0 94 23t48 87h-142v256h256v-256q0 -65 -32.5 -116t-90.5 -79.5t-133 -28.5v114z" />
    <glyph glyph-name="uni021B" unicode="&#x21b;" horiz-adv-x="888" 
d="M594 -19q-122 0 -212 36.5t-134 116.5q-27 50 -36 102t-9 123l1 99v412h-184v210h184v300h272v-300h312v-210h-312v-396v-57q0 -52 4 -84t18 -53q41 -65 162 -65q46 0 128 11v-226q-104 -19 -194 -19zM372 -516q46 0 94 23t48 87h-142v256h256v-256q0 -65 -32.5 -116
t-90.5 -79.5t-133 -28.5v114z" />
    <glyph glyph-name="uni0259" unicode="&#x259;" horiz-adv-x="1216" 
d="M865.5 1039q127.5 -71 199 -198t71.5 -287q0 -174 -69.5 -306.5t-193.5 -205t-283 -72.5q-156 0 -271 69t-176.5 196t-61.5 298q0 27 4 83h758q-15 116 -79.5 178t-173.5 62q-79 0 -136.5 -35t-87.5 -101l-272 78q40 97 113 167.5t168 107.5t199 37q164 0 291.5 -71z
M426.5 255.5q52.5 -49.5 151.5 -49.5q215 0 258 208h-476q14 -109 66.5 -158.5z" />
    <glyph glyph-name="uni02BC" unicode="&#x2bc;" horiz-adv-x="610" 
d="M211 1011q54 0 83 33.5t29 89.5q0 16 -3 34h-140v272h272v-272q0 -131 -54 -203t-160 -72q-25 0 -58 5l16 114z" />
    <glyph glyph-name="circumflex" unicode="&#x2c6;" horiz-adv-x="1200" 
d="M484 1920h224l288 -330h-250l-150 180l-150 -180h-250z" />
    <glyph glyph-name="caron" unicode="&#x2c7;" horiz-adv-x="1200" 
d="M446 1920l150 -180l150 180h250l-288 -330h-224l-288 330h250z" />
    <glyph glyph-name="breve" unicode="&#x2d8;" horiz-adv-x="1116" 
d="M398 1602.5q-73 42.5 -115.5 115.5t-42.5 160h210q0 -45 31.5 -76.5t76.5 -31.5t76.5 31.5t31.5 76.5h210q0 -87 -42.5 -160t-115.5 -115.5t-160 -42.5t-160 42.5z" />
    <glyph glyph-name="dotaccent" unicode="&#x2d9;" horiz-adv-x="752" 
d="M240 1920h272v-272h-272v272z" />
    <glyph glyph-name="ring" unicode="&#x2da;" horiz-adv-x="1140" 
d="M435 1586.5q-62 36.5 -98.5 98.5t-36.5 135t36.5 135t98.5 98.5t135 36.5t135 -36.5t98.5 -98.5t36.5 -135t-36.5 -135t-98.5 -98.5t-135 -36.5t-135 36.5zM492.5 1742.5q32.5 -32.5 77.5 -32.5q46 0 78 32.5t32 77.5q0 46 -32 78t-78 32q-45 0 -77.5 -32t-32.5 -78
q0 -45 32.5 -77.5z" />
    <glyph glyph-name="ogonek" unicode="&#x2db;" horiz-adv-x="902" 
d="M345.5 -446.5q-50.5 31.5 -79 83.5t-28.5 111q0 73 41 147.5t113 136.5t160 100l114 -132q-60 -30 -110.5 -72.5t-80 -84.5t-29.5 -73q0 -21 15 -35.5t37 -14.5q32 0 68 30l94 -124q-36 -49 -89 -76.5t-111 -27.5q-64 0 -114.5 31.5z" />
    <glyph glyph-name="tilde" unicode="&#x2dc;" horiz-adv-x="1180" 
d="M669.5 1618.5q-44.5 22.5 -106.5 65.5q-43 31 -69.5 45.5t-49.5 14.5q-22 0 -34.5 -18.5t-12.5 -50.5q0 -24 7 -49h-168q-13 53 -13 104q0 95 49.5 151.5t145.5 56.5q48 0 92.5 -22.5t106.5 -65.5q43 -31 69.5 -45.5t49.5 -14.5q22 0 34.5 18.5t12.5 50.5q0 24 -7 49h168
q13 -53 13 -104q0 -95 -49.5 -151.5t-145.5 -56.5q-48 0 -92.5 22.5z" />
    <glyph glyph-name="hungarumlaut" unicode="&#x2dd;" horiz-adv-x="1196" 
d="M624 1590l166 390h202l-166 -390h-202zM200 1590l166 390h202l-166 -390h-202z" />
    <glyph glyph-name="uni0374" unicode="&#x374;" horiz-adv-x="648" 
d="M120 1050l166 390h202l-166 -390h-202z" />
    <glyph glyph-name="uni0375" unicode="&#x375;" horiz-adv-x="648" 
d="M120 -522l166 390h202l-166 -390h-202z" />
    <glyph glyph-name="uni037E" unicode="&#x37e;" horiz-adv-x="712" 
d="M251 -157q54 0 83 33.5t29 89.5q0 16 -3 34h-140v272h272v-272q0 -131 -54 -203t-160 -72q-25 0 -58 5l16 114zM220 1080h272v-272h-272v272z" />
    <glyph glyph-name="tonos" unicode="&#x384;" horiz-adv-x="1200" 
d="M404 1050l166 390h202l-166 -390h-202z" />
    <glyph glyph-name="dieresistonos" unicode="&#x385;" horiz-adv-x="1200" 
d="M832 1470h210v-240h-210v240zM158 1470h210v-240h-210v240zM616 1620h202l-166 -390h-202z" />
    <glyph glyph-name="Alphatonos" unicode="&#x386;" horiz-adv-x="1400" 
d="M514 1440h406l440 -1440h-280l-93 300h-542l-91 -300h-280zM909 554l-195 631l-192 -631h387zM40 1050l166 390h202l-166 -390h-202z" />
    <glyph glyph-name="anoteleia" unicode="&#x387;" horiz-adv-x="1200" 
d="M201 491q-38 21 -59.5 57.5t-21.5 81.5t21.5 81.5t59.5 57.5t83 21q42 0 77.5 -21t57 -57.5t21.5 -81.5t-21.5 -81.5t-57 -57.5t-77.5 -21q-45 0 -83 21z" />
    <glyph glyph-name="Epsilontonos" unicode="&#x388;" horiz-adv-x="1528" 
d="M488 1440h940v-254h-668v-308h548v-254h-548v-370h668v-254h-940v1440zM32 1050l166 390h202l-166 -390h-202z" />
    <glyph glyph-name="Etatonos" unicode="&#x389;" horiz-adv-x="1788" 
d="M460 1440h272v-592h644v592h272v-1440h-272v594h-644v-594h-272v1440zM10 1050l166 390h202l-166 -390h-202z" />
    <glyph glyph-name="Iotatonos" unicode="&#x38a;" horiz-adv-x="870" 
d="M458 1440h272v-1440h-272v1440zM10 1050l166 390h202l-166 -390h-202z" />
    <glyph glyph-name="Omicrontonos" unicode="&#x38c;" horiz-adv-x="1744" 
d="M615 63.5q-158 93.5 -242.5 263.5t-84.5 393t84.5 393t242.5 263.5t371 93.5t371 -93.5t242.5 -263.5t84.5 -393t-84.5 -393t-242.5 -263.5t-371 -93.5t-371 93.5zM682 357q106 -131 312 -131q132 0 222 61t135 172t45 261q0 232 -106 363t-312 131q-132 0 -222 -61
t-135 -172t-45 -261q0 -232 106 -363zM14 1050l166 390h202l-166 -390h-202z" />
    <glyph glyph-name="Upsilontonos" unicode="&#x38e;" horiz-adv-x="1728" 
d="M960 586l-492 854h318l312 -542l312 542h318l-492 -854v-586h-276v586zM32 1050l166 390h202l-166 -390h-202z" />
    <glyph glyph-name="Omegatonos" unicode="&#x38f;" horiz-adv-x="1766" 
d="M330 254h186q-98 91 -152 223t-54 287q0 198 88 359t246.5 254t363.5 93t363.5 -93t246.5 -254t88 -359q0 -155 -54 -287t-152 -223h186v-254h-512v254q64 32 119.5 99t90 163t34.5 210q0 137 -50 248t-143 175.5t-217 64.5t-217 -64.5t-143 -175t-50 -246.5
q0 -118 36.5 -214t93.5 -161.5t122 -98.5v-254h-520v254zM32 1050l166 390h202l-166 -390h-202z" />
    <glyph glyph-name="iotadieresistonos" unicode="&#x390;" horiz-adv-x="1042" 
d="M503 34q-54 29 -96 94q-30 47 -39.5 96t-9.5 121l1 113v622h272v-606v-58q0 -52 4 -83t18 -53q34 -54 114 -62q28 -2 44 -2q62 0 132 10v-226q-62 -18 -174 -18q-80 0 -142 10q-70 13 -124 42zM756 1470h210v-240h-210v240zM82 1470h210v-240h-210v240zM540 1620h202
l-166 -390h-202z" />
    <glyph glyph-name="Alpha" unicode="&#x391;" horiz-adv-x="1366" 
d="M480 1440h406l440 -1440h-280l-93 300h-542l-91 -300h-280zM875 554l-195 631l-192 -631h387z" />
    <glyph glyph-name="Beta" unicode="&#x392;" horiz-adv-x="1274" 
d="M140 1440h576q146 0 243 -59t143 -151t46 -194q0 -97 -35.5 -168t-100.5 -111q98 -41 150 -127.5t52 -193.5q0 -131 -48.5 -229t-146 -152.5t-241.5 -54.5h-638v1440zM750 256q55 0 98 23.5t67.5 66.5t24.5 100q0 80 -49 129t-141 49h-334v-368h334zM712 878
q73 0 116.5 38t43.5 114q0 68 -42 112t-118 44h-296v-308h296z" />
    <glyph glyph-name="Gamma" unicode="&#x393;" horiz-adv-x="1100" 
d="M140 1440h940v-254h-668v-1186h-272v1440z" />
    <glyph glyph-name="uni0394" unicode="&#x394;" horiz-adv-x="1366" 
d="M480 1440h406l440 -1440h-1286zM967 254l-287 930l-283 -930h570z" />
    <glyph glyph-name="Epsilon" unicode="&#x395;" horiz-adv-x="1180" 
d="M140 1440h940v-254h-668v-308h548v-254h-548v-370h668v-254h-940v1440z" />
    <glyph glyph-name="Zeta" unicode="&#x396;" horiz-adv-x="1360" 
d="M100 34l684 1152h-624v254h1100v-34l-680 -1150h660v-256h-1140v34z" />
    <glyph glyph-name="Eta" unicode="&#x397;" horiz-adv-x="1468" 
d="M140 1440h272v-592h644v592h272v-1440h-272v594h-644v-594h-272v1440z" />
    <glyph glyph-name="Theta" unicode="&#x398;" horiz-adv-x="1516" 
d="M387 63.5q-158 93.5 -242.5 263.5t-84.5 393t84.5 393t242.5 263.5t371 93.5t371 -93.5t242.5 -263.5t84.5 -393t-84.5 -393t-242.5 -263.5t-371 -93.5t-371 93.5zM454 357q106 -131 312 -131q132 0 222 61t135 172t45 261q0 232 -106 363t-312 131q-132 0 -222 -61
t-135 -172t-45 -261q0 -232 106 -363zM486 824h544v-208h-544v208z" />
    <glyph glyph-name="Iota" unicode="&#x399;" horiz-adv-x="592" 
d="M160 1440h272v-1440h-272v1440z" />
    <glyph glyph-name="Kappa" unicode="&#x39a;" horiz-adv-x="1330" 
d="M140 1440h272v-664l548 664h332l-602 -710l640 -730h-344l-574 656v-656h-272v1440z" />
    <glyph glyph-name="Lambda" unicode="&#x39b;" horiz-adv-x="1306" 
d="M856 1440l440 -1440h-280l-366 1184l-360 -1184h-280l440 1440h406z" />
    <glyph glyph-name="Mu" unicode="&#x39c;" horiz-adv-x="1720" 
d="M140 1440h244l476 -956l476 956h244v-1440h-254v860l-418 -860h-96l-418 860v-860h-254v1440z" />
    <glyph glyph-name="Nu" unicode="&#x39d;" horiz-adv-x="1458" 
d="M140 1440h276l626 -960v960h276v-1440h-276l-626 960v-960h-276v1440z" />
    <glyph glyph-name="Xi" unicode="&#x39e;" horiz-adv-x="1468" 
d="M140 1440h1188v-254h-1188v254zM140 254h1188v-254h-1188v254zM240 848h988v-254h-988v254z" />
    <glyph glyph-name="Omicron" unicode="&#x39f;" horiz-adv-x="1516" 
d="M387 63.5q-158 93.5 -242.5 263.5t-84.5 393t84.5 393t242.5 263.5t371 93.5t371 -93.5t242.5 -263.5t84.5 -393t-84.5 -393t-242.5 -263.5t-371 -93.5t-371 93.5zM454 357q106 -131 312 -131q132 0 222 61t135 172t45 261q0 232 -106 363t-312 131q-132 0 -222 -61
t-135 -172t-45 -261q0 -232 106 -363z" />
    <glyph glyph-name="Pi" unicode="&#x3a0;" horiz-adv-x="1468" 
d="M140 1440h1188v-1440h-272v1186h-644v-1186h-272v1440z" />
    <glyph glyph-name="Rho" unicode="&#x3a1;" horiz-adv-x="1300" 
d="M140 1440h608q69 0 120 -8q187 -29 279.5 -153.5t92.5 -314.5q0 -189 -93 -314t-279 -154q-51 -8 -120 -8h-336v-488h-272v1440zM736 742q57 0 92 10q75 20 106.5 80.5t31.5 131.5t-31.5 131.5t-106.5 80.5q-35 10 -92 10h-324v-444h324z" />
    <glyph glyph-name="Sigma" unicode="&#x3a3;" horiz-adv-x="1260" 
d="M140 244l468 476l-468 476v244h980v-254h-644l440 -448v-36l-440 -448h644v-254h-980v244z" />
    <glyph glyph-name="Tau" unicode="&#x3a4;" horiz-adv-x="1220" 
d="M474 1186h-454v254h1180v-254h-454v-1186h-272v1186z" />
    <glyph glyph-name="Upsilon" unicode="&#x3a5;" horiz-adv-x="1260" 
d="M492 586l-492 854h318l312 -542l312 542h318l-492 -854v-586h-276v586z" />
    <glyph glyph-name="Phi" unicode="&#x3a6;" horiz-adv-x="1496" 
d="M524 202q-130 0 -235.5 65.5t-167 191.5t-61.5 301t62 303.5t168.5 196t236.5 67.5q44 0 85 -7v120h270v-120q41 7 85 7q131 0 238 -67.5t169 -196t62 -303.5t-62 -301t-168 -191.5t-236 -65.5q-40 0 -88 8v-210h-270v210q-48 -8 -88 -8zM384.5 540.5
q48.5 -87.5 171.5 -87.5q23 0 56 5v618q-25 4 -53 4q-124 0 -173.5 -92.5t-49.5 -227.5q0 -132 48.5 -219.5zM938 453q122 0 172 87t50 212q0 80 -20.5 154t-71.5 124t-137 50q-26 0 -49 -4v-618q33 -5 56 -5z" />
    <glyph glyph-name="Chi" unicode="&#x3a7;" horiz-adv-x="1344" 
d="M504 728l-470 712h334l306 -480l302 480h336l-470 -712l482 -728h-334l-316 496l-318 -496h-336z" />
    <glyph glyph-name="Psi" unicode="&#x3a8;" horiz-adv-x="1532" 
d="M317.5 391q-126.5 81 -163.5 255q-7 32 -10.5 72t-3.5 72v650h254v-624q0 -60 12 -106q24 -90 79 -122t145 -34v886h272v-886q92 3 151 42t77 130q8 40 8 90v624h254v-650q0 -76 -14 -140q-73 -326 -476 -348v-302h-272v302q-186 8 -312.5 89z" />
    <glyph glyph-name="uni03A9" unicode="&#x3a9;" horiz-adv-x="1516" 
d="M80 254h186q-98 91 -152 223t-54 287q0 198 88 359t246.5 254t363.5 93t363.5 -93t246.5 -254t88 -359q0 -155 -54 -287t-152 -223h186v-254h-512v254q64 32 119.5 99t90 163t34.5 210q0 137 -50 248t-143 175.5t-217 64.5t-217 -64.5t-143 -175t-50 -246.5
q0 -118 36.5 -214t93.5 -161.5t122 -98.5v-254h-520v254z" />
    <glyph glyph-name="Iotadieresis" unicode="&#x3aa;" horiz-adv-x="592" 
d="M160 1440h272v-1440h-272v1440zM-36 1832h240v-240h-240v240zM388 1832h240v-240h-240v240z" />
    <glyph glyph-name="Upsilondieresis" unicode="&#x3ab;" horiz-adv-x="1260" 
d="M492 586l-492 854h318l312 -542l312 542h318l-492 -854v-586h-276v586zM298 1832h240v-240h-240v240zM722 1832h240v-240h-240v240z" />
    <glyph glyph-name="alphatonos" unicode="&#x3ac;" horiz-adv-x="1270" 
d="M319.5 44.5q-114.5 74.5 -177 204t-62.5 291.5q0 164 63.5 294t180 203t268.5 73q90 0 165 -27t133 -79v76h240v-1080h-240v78q-59 -52 -137.5 -80t-168.5 -28q-150 0 -264.5 74.5zM432.5 303q64.5 -91 195.5 -91q125 0 183.5 86.5t58.5 241.5q0 154 -57.5 241t-180.5 87
q-81 0 -140.5 -39.5t-91.5 -114t-32 -176.5q0 -144 64.5 -235zM695 1620h202l-166 -390h-202z" />
    <glyph glyph-name="epsilontonos" unicode="&#x3ad;" horiz-adv-x="1050" 
d="M303 11q-102 41 -162.5 121t-60.5 192q0 76 29.5 138.5t82.5 105.5q-76 99 -76 216q0 104 56 178t148.5 111t199.5 37q119 0 232 -45t208 -125l-150 -186q-66 46 -138 75t-140 29q-60 0 -98 -24t-38 -76q0 -43 25.5 -63.5t67.5 -26.5t109 -6h64v-212h-64l-68 1
q-83 0 -127.5 -19t-44.5 -80q0 -59 46 -93.5t126 -34.5q145 0 266 124l214 -144q-73 -109 -201.5 -171.5t-280.5 -62.5q-123 0 -225 41zM552 1620h202l-166 -390h-202z" />
    <glyph glyph-name="etatonos" unicode="&#x3ae;" 
d="M864 664q-12 72 -63.5 132t-156.5 60q-94 0 -162 -64.5t-68 -243.5v-548h-276v1080h242v-111q61 68 149 105.5t201 37.5q190 0 283.5 -97t116 -205t22.5 -204v-606h-276v510q0 82 -12 154zM708 1620h202l-166 -390h-202z" />
    <glyph glyph-name="iotatonos" unicode="&#x3af;" horiz-adv-x="845" 
d="M305 34q-54 29 -96 94q-30 47 -39.5 96t-9.5 121l1 113v622h272v-606v-58q0 -52 4 -83t18 -53q34 -54 114 -62q28 -2 44 -2q62 0 132 10v-226q-62 -18 -174 -18q-80 0 -142 10q-70 13 -124 42zM364 1620h202l-166 -390h-202z" />
    <glyph glyph-name="upsilondieresistonos" unicode="&#x3b0;" horiz-adv-x="1256" 
d="M120 1080h276v-510q0 -82 12 -154t63.5 -132t156.5 -60t156.5 60t63.5 132t12 154v510h276v-586q0 -135 -27.5 -244t-139 -195.5t-341.5 -86.5t-341.5 86.5t-139 195.5t-27.5 244v586zM860 1470h210v-240h-210v240zM186 1470h210v-240h-210v240zM644 1620h202l-166 -390
h-202z" />
    <glyph glyph-name="alpha" unicode="&#x3b1;" horiz-adv-x="1270" 
d="M319.5 44.5q-114.5 74.5 -177 204t-62.5 291.5q0 164 63.5 294t180 203t268.5 73q90 0 165 -27t133 -79v76h240v-1080h-240v78q-59 -52 -137.5 -80t-168.5 -28q-150 0 -264.5 74.5zM432.5 303q64.5 -91 195.5 -91q125 0 183.5 86.5t58.5 241.5q0 154 -57.5 241t-180.5 87
q-81 0 -140.5 -39.5t-91.5 -114t-32 -176.5q0 -144 64.5 -235z" />
    <glyph glyph-name="beta" unicode="&#x3b2;" horiz-adv-x="1232" 
d="M154 1188q28 95 94.5 158.5t155 93.5t184.5 30q133 0 240.5 -54.5t168.5 -150t61 -213.5q0 -74 -25.5 -139t-78.5 -115q104 -43 161 -142.5t57 -231.5q0 -143 -66.5 -245t-187 -155.5t-280.5 -53.5q-130 0 -226 34v-484h-274v1560q0 49 16 108zM426 334q21 -57 85 -84.5
t139 -27.5q74 0 130.5 26t88 74.5t31.5 113.5q0 105 -81 156.5t-221 51.5v236q90 6 138 50t48 116q0 54 -26.5 92.5t-70 58t-93.5 19.5q-48 0 -90.5 -19.5t-65.5 -64.5q-26 -52 -26 -146v-536q0 -78 14 -116z" />
    <glyph glyph-name="gamma" unicode="&#x3b3;" horiz-adv-x="1136" 
d="M432 0l-392 1080h272l256 -748l256 748h272l-392 -1080v-360h-272v360z" />
    <glyph glyph-name="delta" unicode="&#x3b4;" horiz-adv-x="1254" 
d="M339.5 31.5q-122.5 61.5 -191 174t-68.5 260.5q0 111 39 203.5t114 155t178 82.5q-81 47 -126 113t-45 158q0 63 23.5 123.5t81.5 106.5t155 58q22 3 53 3.5t77 0.5h312v-220h-250q-43 0 -66.5 -1.5t-43.5 -6.5q-70 -21 -70 -78q0 -36 29.5 -63t74 -46.5t122.5 -46.5
q88 -31 136 -52q140 -60 220 -183.5t80 -284.5q0 -151 -69.5 -268.5t-195 -183.5t-289.5 -66q-158 0 -280.5 61.5zM454.5 292.5q60.5 -68.5 173.5 -68.5t173.5 70.5t60.5 193.5q0 124 -61 194t-173 70q-114 0 -174 -69.5t-60 -194.5q0 -127 60.5 -195.5z" />
    <glyph glyph-name="epsilon" unicode="&#x3b5;" horiz-adv-x="1050" 
d="M303 11q-102 41 -162.5 121t-60.5 192q0 76 29.5 138.5t82.5 105.5q-76 99 -76 216q0 104 56 178t148.5 111t199.5 37q119 0 232 -45t208 -125l-150 -186q-66 46 -138 75t-140 29q-60 0 -98 -24t-38 -76q0 -43 25.5 -63.5t67.5 -26.5t109 -6h64v-212h-64l-68 1
q-83 0 -127.5 -19t-44.5 -80q0 -59 46 -93.5t126 -34.5q145 0 266 124l214 -144q-73 -109 -201.5 -171.5t-280.5 -62.5q-123 0 -225 41z" />
    <glyph glyph-name="zeta" unicode="&#x3b6;" horiz-adv-x="1066" 
d="M774.5 -73.5q-39.5 52.5 -95 63t-153.5 10.5q-446 0 -446 406q0 93 26 174.5t87.5 169.5t170.5 198q77 77 133 126.5t147 125.5h-504v240h926v-196l-49 -44q-263 -239 -397 -362q-135 -123 -193.5 -218t-58.5 -188q0 -80 38.5 -118.5t100.5 -49t165 -10.5q126 0 202 -30
q89 -35 138 -123t49 -216q0 -56 -11 -125h-236q0 114 -39.5 166.5z" />
    <glyph glyph-name="eta" unicode="&#x3b7;" 
d="M864 664q-12 72 -63.5 132t-156.5 60q-94 0 -162 -64.5t-68 -243.5v-548h-276v1080h242v-111q61 68 149 105.5t201 37.5q190 0 283.5 -97t116 -205t22.5 -204v-606h-276v510q0 82 -12 154z" />
    <glyph glyph-name="theta" unicode="&#x3b8;" horiz-adv-x="1392" 
d="M367 60q-139 90 -213 259t-74 401t74 401t213 259t329 90t329 -90t213 -259t74 -401t-74 -401t-213 -259t-329 -90t-329 90zM471.5 329.5q81.5 -103.5 224.5 -103.5t224.5 103.5t98.5 286.5h-646q17 -183 98.5 -286.5zM1019 824q-17 183 -98.5 286.5t-224.5 103.5
t-224.5 -103.5t-98.5 -286.5h646z" />
    <glyph glyph-name="iota" unicode="&#x3b9;" horiz-adv-x="845" 
d="M305 34q-54 29 -96 94q-30 47 -39.5 96t-9.5 121l1 113v622h272v-606v-58q0 -52 4 -83t18 -53q34 -54 114 -62q28 -2 44 -2q62 0 132 10v-226q-62 -18 -174 -18q-80 0 -142 10q-70 13 -124 42z" />
    <glyph glyph-name="kappa" unicode="&#x3ba;" horiz-adv-x="1104" 
d="M140 1080h276v-520l366 520h336l-390 -540l416 -540h-354l-374 520v-520h-278z" />
    <glyph glyph-name="lambda" unicode="&#x3bb;" horiz-adv-x="1176" 
d="M419 1170q-29 33 -71.5 47.5t-109.5 14.5h-52v238h78q108 0 176 -16q84 -20 140 -73t90.5 -123t73.5 -178l392 -1080h-272l-256 748l-256 -748h-272l392 1080q-24 57 -53 90z" />
    <glyph glyph-name="uni03BC" unicode="&#x3bc;" horiz-adv-x="1290" 
d="M138 1080h276v-510q0 -82 12 -154t63.5 -132t156.5 -60q94 0 162 64.5t68 243.5v548h274v-1080h-240v112q-61 -69 -149 -106.5t-201 -37.5q-102 0 -182 32v-480h-240v1560z" />
    <glyph glyph-name="nu" unicode="&#x3bd;" horiz-adv-x="1136" 
d="M40 1080h272l256 -748l256 748h272l-392 -1080h-272z" />
    <glyph glyph-name="xi" unicode="&#x3be;" horiz-adv-x="1160" 
d="M910 -197q0 89 -34.5 131.5t-93 54t-162.5 11.5q-270 0 -405 114.5t-135 317.5q0 117 45.5 204.5t142.5 127.5q-128 128 -128 308q0 137 72 226t187 130.5t247 41.5q152 0 277.5 -51.5t210.5 -138.5l-186 -200q-45 61 -122 98.5t-180 37.5q-99 0 -158.5 -38t-59.5 -114
q0 -82 66.5 -123.5t179.5 -46.5q34 -2 134 -2v-256q-22 0 -160 -4q-140 -5 -210 -45.5t-70 -134.5q0 -109 90 -152t252 -46q90 -2 141.5 -7t98.5 -23q96 -35 153.5 -119t57.5 -208q0 -61 -17 -137h-236q2 30 2 43z" />
    <glyph glyph-name="omicron" unicode="&#x3bf;" horiz-adv-x="1254" 
d="M341 42.5q-124 72.5 -192.5 202t-68.5 295.5q0 167 69.5 296.5t194 201.5t282.5 72q161 0 285.5 -72.5t193.5 -202.5t69 -295q0 -166 -69.5 -295.5t-194 -202t-284.5 -72.5q-161 0 -285 72.5zM434.5 308q66.5 -84 191.5 -84q127 0 193.5 86t66.5 230q0 147 -67 231.5
t-193 84.5q-129 0 -193.5 -84.5t-64.5 -231.5q0 -148 66.5 -232z" />
    <glyph glyph-name="pi" unicode="&#x3c0;" horiz-adv-x="1364" 
d="M240 840h-160v240h1204v-240h-160v-840h-272v840h-340v-840h-272v840z" />
    <glyph glyph-name="rho" unicode="&#x3c1;" horiz-adv-x="1296" 
d="M140.5 582q2.5 49 11.5 98q24 129 94.5 226t182 150.5t253.5 53.5q166 0 286.5 -72.5t184 -201t63.5 -292.5t-62.5 -295t-177 -205t-264.5 -74q-88 0 -166.5 26t-133.5 72v-548h-274v940q0 73 2.5 122zM478 299q68 -87 198 -87q131 0 199.5 89t68.5 241
q0 153 -68.5 239.5t-199.5 86.5q-134 0 -200 -87.5t-66 -240.5q0 -154 68 -241z" />
    <glyph glyph-name="uni03C2" unicode="&#x3c2;" horiz-adv-x="1166" 
d="M816 -79q-38 51 -96.5 63t-173.5 16q-130 4 -235 59t-168 170t-63 291q0 178 66 311.5t188.5 206t285.5 72.5q126 0 227.5 -43.5t168 -125t90.5 -191.5l-272 -72q-26 85 -84 131.5t-142 46.5q-115 0 -167.5 -86t-52.5 -236q0 -95 24 -155.5t86.5 -92.5t176.5 -32
q157 0 237 -30q91 -35 140 -124t49 -216q0 -56 -11 -124h-236q0 110 -38 161z" />
    <glyph glyph-name="sigma" unicode="&#x3c3;" horiz-adv-x="1294" 
d="M342.5 43.5q-124.5 73.5 -193.5 201t-69 281.5q0 131 49 241.5t139 187t210 107.5q50 12 116 15t192 3h448v-240h-149q41 -67 65 -148t24 -166q0 -155 -69.5 -282t-194.5 -200.5t-284 -73.5t-283.5 73.5zM435 306.5q67 -82.5 191 -82.5q84 0 142.5 39.5t88 107.5
t29.5 155q0 86 -29.5 154t-88.5 107t-142 39q-86 0 -144 -40t-86 -108t-28 -152q0 -137 67 -219.5z" />
    <glyph glyph-name="tau" unicode="&#x3c4;" horiz-adv-x="1130" 
d="M548 34q-54 29 -96 94q-30 47 -39.5 96t-9.5 121l1 113v382h-354v240h980v-240h-354v-366v-58q0 -52 4 -83t18 -53q34 -54 114 -62q28 -2 44 -2q62 0 132 10v-226q-62 -18 -174 -18q-80 0 -142 10q-70 13 -124 42z" />
    <glyph glyph-name="upsilon" unicode="&#x3c5;" horiz-adv-x="1256" 
d="M120 1080h276v-510q0 -82 12 -154t63.5 -132t156.5 -60t156.5 60t63.5 132t12 154v510h276v-586q0 -135 -27.5 -244t-139 -195.5t-341.5 -86.5t-341.5 86.5t-139 195.5t-27.5 244v586z" />
    <glyph glyph-name="phi" unicode="&#x3c6;" horiz-adv-x="1528" 
d="M553 -25q-137 0 -244 66.5t-168 194.5t-61 304t61 304t168 194.5t244 66.5q48 0 91 -7v322h240v-322q43 7 91 7q137 0 244 -66.5t168 -194.5t61 -304t-61 -304t-168 -194.5t-244 -66.5q-48 0 -91 7v-432h-240v432q-43 -7 -91 -7zM412.5 305.5q56.5 -86.5 174.5 -86.5
q24 0 57 5v630q-33 6 -63 6q-119 0 -172 -85.5t-53 -234.5q0 -148 56.5 -234.5zM943 219q117 0 173 85.5t56 235.5q0 152 -52.5 236t-171.5 84q-29 0 -64 -6v-630q35 -5 59 -5z" />
    <glyph glyph-name="chi" unicode="&#x3c7;" horiz-adv-x="1126" 
d="M406 546l-378 534h320l216 -320l212 320h320l-378 -534l388 -546h-320l-222 332l-224 -332h-320z" />
    <glyph glyph-name="psi" unicode="&#x3c8;" horiz-adv-x="1492" 
d="M134 286q-7 32 -10.5 72t-3.5 72v650h254v-624q0 -60 12 -106q16 -63 49 -96.5t77 -46t104 -13.5v886h260v-886q93 2 154.5 41t79.5 131q8 40 8 90v624h254v-650q0 -76 -14 -140q-39 -177 -167 -258.5t-315 -89.5v-392h-260v392q-414 18 -482 344z" />
    <glyph glyph-name="omega" unicode="&#x3c9;" horiz-adv-x="1610" 
d="M279 44q-98 74 -148.5 198.5t-50.5 275.5q0 186 76 344.5t210 247.5l188 -214q-100 -86 -143 -168.5t-43 -199.5q0 -87 21.5 -155.5t62.5 -107.5t98 -39q62 0 90 47t34 119.5t6 211.5v80h250v-80q0 -139 6.5 -212.5t34.5 -119.5t89 -46q58 0 99 40t62 108.5t21 153.5
q0 82 -20 144t-60 114.5t-106 109.5l188 214q136 -90 211 -249.5t75 -344.5q0 -152 -51 -276.5t-149 -197t-232 -72.5q-96 0 -173 41t-120 133q-43 -92 -120 -133t-173 -41q-135 0 -233 74z" />
    <glyph glyph-name="iotadieresis" unicode="&#x3ca;" horiz-adv-x="845" 
d="M305 34q-54 29 -96 94q-30 47 -39.5 96t-9.5 121l1 113v622h272v-606v-58q0 -52 4 -83t18 -53q34 -54 114 -62q28 -2 44 -2q62 0 132 10v-226q-62 -18 -174 -18q-80 0 -142 10q-70 13 -124 42zM-36 1472h240v-240h-240v240zM388 1472h240v-240h-240v240z" />
    <glyph glyph-name="upsilondieresis" unicode="&#x3cb;" horiz-adv-x="1256" 
d="M120 1080h276v-510q0 -82 12 -154t63.5 -132t156.5 -60t156.5 60t63.5 132t12 154v510h276v-586q0 -135 -27.5 -244t-139 -195.5t-341.5 -86.5t-341.5 86.5t-139 195.5t-27.5 244v586zM296 1472h240v-240h-240v240zM720 1472h240v-240h-240v240z" />
    <glyph glyph-name="omicrontonos" unicode="&#x3cc;" horiz-adv-x="1254" 
d="M341 42.5q-124 72.5 -192.5 202t-68.5 295.5q0 167 69.5 296.5t194 201.5t282.5 72q161 0 285.5 -72.5t193.5 -202.5t69 -295q0 -166 -69.5 -295.5t-194 -202t-284.5 -72.5q-161 0 -285 72.5zM434.5 308q66.5 -84 191.5 -84q127 0 193.5 86t66.5 230q0 147 -67 231.5
t-193 84.5q-129 0 -193.5 -84.5t-64.5 -231.5q0 -148 66.5 -232zM695 1620h202l-166 -390h-202z" />
    <glyph glyph-name="upsilontonos" unicode="&#x3cd;" horiz-adv-x="1256" 
d="M120 1080h276v-510q0 -82 12 -154t63.5 -132t156.5 -60t156.5 60t63.5 132t12 154v510h276v-586q0 -135 -27.5 -244t-139 -195.5t-341.5 -86.5t-341.5 86.5t-139 195.5t-27.5 244v586zM663 1620h202l-166 -390h-202z" />
    <glyph glyph-name="omegatonos" unicode="&#x3ce;" horiz-adv-x="1610" 
d="M279 44q-98 74 -148.5 198.5t-50.5 275.5q0 186 76 344.5t210 247.5l188 -214q-100 -86 -143 -168.5t-43 -199.5q0 -87 21.5 -155.5t62.5 -107.5t98 -39q62 0 90 47t34 119.5t6 211.5v80h250v-80q0 -139 6.5 -212.5t34.5 -119.5t89 -46q58 0 99 40t62 108.5t21 153.5
q0 82 -20 144t-60 114.5t-106 109.5l188 214q136 -90 211 -249.5t75 -344.5q0 -152 -51 -276.5t-149 -197t-232 -72.5q-96 0 -173 41t-120 133q-43 -92 -120 -133t-173 -41q-135 0 -233 74zM808 1620h202l-166 -390h-202z" />
    <glyph glyph-name="uni0400" unicode="&#x400;" horiz-adv-x="1180" 
d="M140 1440h940v-254h-668v-308h548v-254h-548v-370h668v-254h-940v1440zM562 1980l166 -390h-202l-166 390h202z" />
    <glyph glyph-name="uni0401" unicode="&#x401;" horiz-adv-x="1180" 
d="M140 1440h940v-254h-668v-308h548v-254h-548v-370h668v-254h-940v1440zM276 1832h240v-240h-240v240zM700 1832h240v-240h-240v240z" />
    <glyph glyph-name="uni0402" unicode="&#x402;" horiz-adv-x="1372" 
d="M160 1200h-160v240h720v-240h-320v-212q140 122 374 122q250 0 384 -141.5t134 -410.5q0 -265 -134.5 -411.5t-411.5 -146.5v276q270 0 270 280q0 154 -76.5 223t-205.5 69q-113 0 -184.5 -45.5t-95.5 -120.5q-10 -31 -15 -75.5t-5 -88.5v-518h-274v1200z" />
    <glyph glyph-name="uni0403" unicode="&#x403;" horiz-adv-x="1100" 
d="M140 1440h940v-254h-668v-1186h-272v1440zM588 1980h202l-166 -390h-202z" />
    <glyph glyph-name="uni0404" unicode="&#x404;" horiz-adv-x="1450" 
d="M379 68.5q-154 98.5 -236.5 269.5t-82.5 382q0 222 83 392t237 264t360 94q171 0 304.5 -58t221.5 -169t124 -267l-272 -38q-37 128 -134.5 202t-234.5 74q-163 0 -265 -99t-130 -267h506v-254h-504q20 -137 88 -224q52 -71 136.5 -107.5t182.5 -36.5q126 0 219 73
t132 191l266 -66q-68 -227 -231 -340.5t-409 -113.5q-207 0 -361 98.5z" />
    <glyph glyph-name="uni0405" unicode="&#x405;" horiz-adv-x="1342" 
d="M395.5 27q-129.5 57 -211.5 163t-104 250l284 42q20 -81 69 -139.5t118.5 -88.5t150.5 -30q69 0 132 21.5t102.5 63.5t39.5 99q0 48 -31 84t-109 60l-374 110q-82 23 -150.5 59t-122 114t-53.5 203q0 139 70.5 236t191 145.5t270.5 48.5q226 0 377.5 -109.5t204.5 -312.5
l-294 -50q-16 70 -60.5 119t-106 74t-130.5 25q-63 0 -117 -20t-87 -57t-33 -85q0 -63 52 -97t140 -57l250 -68q107 -29 189.5 -67t145.5 -120t63 -215q0 -148 -80.5 -251.5t-212.5 -155t-285 -51.5q-159 0 -288.5 57z" />
    <glyph glyph-name="uni0406" unicode="&#x406;" horiz-adv-x="592" 
d="M160 1440h272v-1440h-272v1440z" />
    <glyph glyph-name="uni0407" unicode="&#x407;" horiz-adv-x="592" 
d="M160 1440h272v-1440h-272v1440zM-36 1832h240v-240h-240v240zM388 1832h240v-240h-240v240z" />
    <glyph glyph-name="uni0408" unicode="&#x408;" horiz-adv-x="1026" 
d="M160.5 56q-112.5 86 -160.5 240l268 64q6 -36 30.5 -67.5t60 -50t71.5 -18.5q42 0 84 22.5t60 65.5q11 26 13.5 62.5t2.5 105.5v960h276v-960v-83q0 -76 -9 -124.5t-39 -100.5q-60 -103 -156.5 -152.5t-219.5 -49.5q-169 0 -281.5 86z" />
    <glyph glyph-name="uni0409" unicode="&#x409;" horiz-adv-x="2206" 
d="M1026 1186h-458q-13 -198 -34 -403t-60 -395q-26 -135 -63 -220.5t-102 -133t-169 -47.5q-55 0 -120 13v226l21 -1q54 0 86.5 24t54.5 80t42 159q66 342 94 952h982v-488h334q69 0 120 -8q186 -29 279 -154t93 -314q0 -190 -92.5 -314.5t-279.5 -153.5q-51 -8 -120 -8
h-608v1186zM1622 254q57 0 92 10q75 20 106.5 80.5t31.5 131.5t-31.5 131.5t-106.5 80.5q-35 10 -92 10h-322v-444h322z" />
    <glyph glyph-name="uni040A" unicode="&#x40a;" horiz-adv-x="2234" 
d="M140 1440h272v-490h642v490h272v-488h336q69 0 120 -8q186 -29 279 -154t93 -314q0 -190 -92.5 -314.5t-279.5 -153.5q-51 -8 -120 -8h-608v696h-642v-696h-272v1440zM1650 254q57 0 92 10q75 20 106.5 80.5t31.5 131.5t-31.5 131.5t-106.5 80.5q-35 10 -92 10h-324v-444
h324z" />
    <glyph glyph-name="uni040B" unicode="&#x40b;" horiz-adv-x="1372" 
d="M0 1440h720v-240h-306v-298q59 35 147 54.5t183 19.5q488 0 488 -562v-414h-276v332q0 120 -14 198t-74 134t-188 56q-85 0 -154 -25t-112 -63v-632h-274v1200h-140v240z" />
    <glyph glyph-name="uni040C" unicode="&#x40c;" horiz-adv-x="1330" 
d="M140 1440h272v-664l548 664h332l-602 -710l640 -730h-344l-574 656v-656h-272v1440zM736 1980h202l-166 -390h-202z" />
    <glyph glyph-name="uni040D" unicode="&#x40d;" horiz-adv-x="1458" 
d="M140 1440h276v-960l626 960h276v-1440h-276v960l-626 -960h-276v1440zM686 1980l166 -390h-202l-166 390h202z" />
    <glyph glyph-name="uni040E" unicode="&#x40e;" horiz-adv-x="1282" 
d="M512 404l-492 1036h308l326 -750l338 750h290l-680 -1440h-290zM564 1878q0 -45 31.5 -76.5t76.5 -31.5t76.5 31.5t31.5 76.5h210q0 -87 -42.5 -160t-115.5 -115.5t-160 -42.5t-160 42.5t-115.5 115.5t-42.5 160h210z" />
    <glyph glyph-name="uni040F" unicode="&#x40f;" horiz-adv-x="1560" 
d="M644 0h-504v1440h272v-1186h736v1186h272v-1440h-504v-240h-272v240z" />
    <glyph glyph-name="uni0410" unicode="&#x410;" horiz-adv-x="1366" 
d="M480 1440h406l440 -1440h-280l-93 300h-542l-91 -300h-280zM875 554l-195 631l-192 -631h387z" />
    <glyph glyph-name="uni0411" unicode="&#x411;" horiz-adv-x="1300" 
d="M140 1440h988v-254h-716v-274h336q63 0 120 -6q120 -13 204 -75.5t126 -160t42 -214.5q0 -118 -41.5 -215t-125.5 -159.5t-205 -75.5q-57 -6 -120 -6h-608v1440zM736 254q55 0 92 8q75 16 106.5 70.5t31.5 123.5t-31.5 123.5t-106.5 70.5q-37 8 -92 8h-324v-404h324z" />
    <glyph glyph-name="uni0412" unicode="&#x412;" horiz-adv-x="1274" 
d="M140 1440h576q146 0 243 -59t143 -151t46 -194q0 -97 -35.5 -168t-100.5 -111q98 -41 150 -127.5t52 -193.5q0 -131 -48.5 -229t-146 -152.5t-241.5 -54.5h-638v1440zM750 256q55 0 98 23.5t67.5 66.5t24.5 100q0 80 -49 129t-141 49h-334v-368h334zM712 878
q73 0 116.5 38t43.5 114q0 68 -42 112t-118 44h-296v-308h296z" />
    <glyph glyph-name="uni0413" unicode="&#x413;" horiz-adv-x="1100" 
d="M140 1440h940v-254h-668v-1186h-272v1440z" />
    <glyph glyph-name="uni0414" unicode="&#x414;" horiz-adv-x="1514" 
d="M240 368.5q58 114.5 76 323.5q14 175 34 484q4 59 8.5 125.5t9.5 140.5l956 -2v-1186h110v-494h-272v240h-830v-240h-272v494q122 0 180 114.5zM1052 254v932l-436 2q-8 -111 -12 -189q-15 -234 -26 -351q-11 -120 -21 -181t-30.5 -110.5t-60.5 -102.5h586z" />
    <glyph glyph-name="uni0415" unicode="&#x415;" horiz-adv-x="1180" 
d="M140 1440h940v-254h-668v-308h548v-254h-548v-370h668v-254h-940v1440z" />
    <glyph glyph-name="uni0416" unicode="&#x416;" horiz-adv-x="1848" 
d="M530 730l-472 710h322l408 -644v644h272v-644l408 644h322l-472 -710l510 -730h-334l-434 636v-636h-272v636l-434 -636h-334z" />
    <glyph glyph-name="uni0417" unicode="&#x417;" horiz-adv-x="1334" 
d="M404.5 13q-116.5 43 -197 112.5t-127.5 152.5l230 160q44 -91 131 -151.5t237 -60.5q99 0 163.5 28.5t94.5 75.5t30 102q0 94 -77 132t-203 42q-138 4 -160 4v256q100 0 134 2q112 5 179 48t67 126q0 79 -62.5 126.5t-167.5 47.5q-93 0 -172 -40t-118 -96l-186 200
q80 83 207 136.5t277 53.5q134 0 250 -45.5t188 -139.5t72 -233q0 -94 -33.5 -176.5t-94.5 -137.5q188 -85 188 -306q0 -139 -78.5 -244t-212.5 -161.5t-297 -56.5q-145 0 -261.5 43z" />
    <glyph glyph-name="uni0418" unicode="&#x418;" horiz-adv-x="1458" 
d="M1042 0v960l-626 -960h-276v1440h276v-960l626 960h276v-1440h-276z" />
    <glyph glyph-name="uni0419" unicode="&#x419;" horiz-adv-x="1458" 
d="M140 1440h276v-960l626 960h276v-1440h-276v960l-626 -960h-276v1440zM616 1878q0 -45 31.5 -76.5t76.5 -31.5t76.5 31.5t31.5 76.5h210q0 -87 -42.5 -160t-115.5 -115.5t-160 -42.5t-160 42.5t-115.5 115.5t-42.5 160h210z" />
    <glyph glyph-name="uni041A" unicode="&#x41a;" horiz-adv-x="1330" 
d="M140 1440h272v-664l548 664h332l-602 -710l640 -730h-344l-574 656v-656h-272v1440z" />
    <glyph glyph-name="uni041B" unicode="&#x41b;" horiz-adv-x="1460" 
d="M61 225q54 0 86.5 24t54.5 80t42 159q66 342 94 952h982v-1440h-272v1186h-460q-13 -198 -34 -403t-60 -395q-26 -135 -63 -220.5t-102 -133t-169 -47.5q-55 0 -120 13v226z" />
    <glyph glyph-name="uni041C" unicode="&#x41c;" horiz-adv-x="1720" 
d="M140 1440h244l476 -956l476 956h244v-1440h-254v860l-418 -860h-96l-418 860v-860h-254v1440z" />
    <glyph glyph-name="uni041D" unicode="&#x41d;" horiz-adv-x="1468" 
d="M140 1440h272v-592h644v592h272v-1440h-272v594h-644v-594h-272v1440z" />
    <glyph glyph-name="uni041E" unicode="&#x41e;" horiz-adv-x="1516" 
d="M387 63.5q-158 93.5 -242.5 263.5t-84.5 393t84.5 393t242.5 263.5t371 93.5t371 -93.5t242.5 -263.5t84.5 -393t-84.5 -393t-242.5 -263.5t-371 -93.5t-371 93.5zM454 357q106 -131 312 -131q132 0 222 61t135 172t45 261q0 232 -106 363t-312 131q-132 0 -222 -61
t-135 -172t-45 -261q0 -232 106 -363z" />
    <glyph glyph-name="uni041F" unicode="&#x41f;" horiz-adv-x="1468" 
d="M140 1440h1188v-1440h-272v1186h-644v-1186h-272v1440z" />
    <glyph glyph-name="uni0420" unicode="&#x420;" horiz-adv-x="1300" 
d="M140 1440h608q69 0 120 -8q187 -29 279.5 -153.5t92.5 -314.5q0 -189 -93 -314t-279 -154q-51 -8 -120 -8h-336v-488h-272v1440zM736 742q57 0 92 10q75 20 106.5 80.5t31.5 131.5t-31.5 131.5t-106.5 80.5q-35 10 -92 10h-324v-444h324z" />
    <glyph glyph-name="uni0421" unicode="&#x421;" horiz-adv-x="1492" 
d="M387 63.5q-158 93.5 -242.5 263.5t-84.5 393t84.5 393t242.5 263.5t371 93.5q163 0 294 -55t222.5 -157.5t137.5 -243.5l-274 -76q-41 133 -137 204.5t-243 71.5q-135 0 -227 -60.5t-138.5 -171t-46.5 -262.5t46.5 -262.5t138.5 -171t227 -60.5q147 0 243 71.5t137 204.5
l274 -76q-46 -141 -137.5 -243.5t-222.5 -157.5t-294 -55q-213 0 -371 93.5z" />
    <glyph glyph-name="uni0422" unicode="&#x422;" horiz-adv-x="1220" 
d="M474 1186h-454v254h1180v-254h-454v-1186h-272v1186z" />
    <glyph glyph-name="uni0423" unicode="&#x423;" horiz-adv-x="1282" 
d="M512 404l-492 1036h308l326 -750l338 750h290l-680 -1440h-290z" />
    <glyph glyph-name="uni0424" unicode="&#x424;" horiz-adv-x="1496" 
d="M524 202q-130 0 -235.5 65.5t-167 191.5t-61.5 301t62 303.5t168.5 196t236.5 67.5q44 0 85 -7v120h270v-120q41 7 85 7q131 0 238 -67.5t169 -196t62 -303.5t-62 -301t-168 -191.5t-236 -65.5q-40 0 -88 8v-210h-270v210q-48 -8 -88 -8zM384.5 540.5
q48.5 -87.5 171.5 -87.5q23 0 56 5v618q-25 4 -53 4q-124 0 -173.5 -92.5t-49.5 -227.5q0 -132 48.5 -219.5zM938 453q122 0 172 87t50 212q0 80 -20.5 154t-71.5 124t-137 50q-26 0 -49 -4v-618q33 -5 56 -5z" />
    <glyph glyph-name="uni0425" unicode="&#x425;" horiz-adv-x="1344" 
d="M504 728l-470 712h334l306 -480l302 480h336l-470 -712l482 -728h-334l-316 496l-318 -496h-336z" />
    <glyph glyph-name="uni0426" unicode="&#x426;" horiz-adv-x="1522" 
d="M1230 0h-1090v1440h272v-1200h656v1200h272v-1200h162v-480h-272v240z" />
    <glyph glyph-name="uni0427" unicode="&#x427;" horiz-adv-x="1372" 
d="M958 538q-59 -35 -147 -54.5t-183 -19.5q-488 0 -488 562v414h276v-332q0 -120 14 -198t74 -134t188 -56q85 0 154 25t112 63v632h274v-1440h-274v538z" />
    <glyph glyph-name="uni0428" unicode="&#x428;" horiz-adv-x="1920" 
d="M140 1440h272v-1186h412v1186h272v-1186h412v1186h272v-1440h-1640v1440z" />
    <glyph glyph-name="uni0429" unicode="&#x429;" horiz-adv-x="1962" 
d="M1670 0h-1530v1440h272v-1186h412v1186h272v-1186h412v1186h272v-1200h162v-480h-272v240z" />
    <glyph glyph-name="uni042A" unicode="&#x42a;" horiz-adv-x="1344" 
d="M200 1230h-200v210h472v-488h336q69 0 120 -8q186 -29 279 -154t93 -314q0 -190 -92.5 -314.5t-279.5 -153.5q-51 -8 -120 -8h-608v1230zM796 254q57 0 92 10q75 20 106.5 80.5t31.5 131.5t-31.5 131.5t-106.5 80.5q-35 10 -92 10h-324v-444h324z" />
    <glyph glyph-name="uni042B" unicode="&#x42b;" horiz-adv-x="1794" 
d="M138 1440h272v-488h336q69 0 120 -8q186 -29 279 -154t93 -314q0 -190 -92.5 -314.5t-279.5 -153.5q-51 -8 -120 -8h-608v1440zM734 254q57 0 92 10q75 20 106.5 80.5t31.5 131.5t-31.5 131.5t-106.5 80.5q-35 10 -92 10h-324v-444h324zM1382 1440h272v-1440h-272v1440z
" />
    <glyph glyph-name="uni042C" unicode="&#x42c;" horiz-adv-x="1318" 
d="M138 1440h272v-488h336q69 0 120 -8q186 -29 279 -154t93 -314q0 -190 -92.5 -314.5t-279.5 -153.5q-51 -8 -120 -8h-608v1440zM734 254q57 0 92 10q75 20 106.5 80.5t31.5 131.5t-31.5 131.5t-106.5 80.5q-35 10 -92 10h-324v-444h324z" />
    <glyph glyph-name="uni042D" unicode="&#x42d;" horiz-adv-x="1450" 
d="M301 83.5q-163 113.5 -231 340.5l266 66q39 -118 132 -191t219 -73q98 0 182.5 36.5t136.5 107.5q68 87 88 224h-504v254h506q-28 168 -130 267t-265 99q-137 0 -234.5 -74t-134.5 -202l-272 38q36 156 124 267t221.5 169t304.5 58q206 0 360 -94t237 -264t83 -392
q0 -211 -82.5 -382t-236.5 -269.5t-361 -98.5q-246 0 -409 113.5z" />
    <glyph glyph-name="uni042E" unicode="&#x42e;" horiz-adv-x="1912" 
d="M140 1440h272v-584h215q21 192 100 330t209 211t300 73q190 0 329 -90t213 -259t74 -401t-74 -401t-213 -259t-329 -90q-170 0 -300 73t-209 211t-100 330h-215v-584h-272v1440zM990.5 358.5q82.5 -132.5 245.5 -132.5t245.5 132.5t82.5 361.5t-82.5 361.5t-245.5 132.5
t-245.5 -132.5t-82.5 -361.5t82.5 -361.5z" />
    <glyph glyph-name="uni042F" unicode="&#x42f;" horiz-adv-x="1340" 
d="M928 0v488h-303l-237 -488h-308l260 534q-120 55 -180 167t-60 263q0 190 92.5 314.5t279.5 153.5q51 8 120 8h608v-1440h-272zM405.5 832.5q31.5 -60.5 106.5 -80.5q35 -10 92 -10h324v444h-324q-57 0 -92 -10q-75 -20 -106.5 -80.5t-31.5 -131.5t31.5 -131.5z" />
    <glyph glyph-name="uni0430" unicode="&#x430;" horiz-adv-x="1166" 
d="M246.5 13.5q-81.5 43.5 -124 118.5t-42.5 166q0 118 55 199t181 127q70 26 171 44.5t291 46.5q-8 76 -55.5 111.5t-142.5 35.5q-69 0 -131 -32t-85 -100l-246 78q42 140 158 221t304 81q319 0 422 -196q29 -54 36.5 -109.5t7.5 -144.5v-660h-238v132q-72 -86 -158 -124
t-210 -38q-112 0 -193.5 43.5zM386.5 215.5q40.5 -31.5 111.5 -31.5q69 0 121 24.5t83.5 57.5t45.5 62q26 53 28 167q-141 -24 -207 -38t-111 -31q-59 -24 -85.5 -53.5t-26.5 -70.5q0 -55 40.5 -86.5z" />
    <glyph glyph-name="uni0431" unicode="&#x431;" horiz-adv-x="1207" 
d="M337 34q-111 66 -174 186t-78 282q-5 62 -5 121q0 126 19 250t56 207q30 66 80 123.5t110 100.5t132.5 68.5t144 38.5t186.5 28q138 18 205 31l24 -240q-37 -10 -83.5 -16t-118.5 -13q-127 -12 -208 -27.5t-138 -51.5q-66 -41 -104 -116t-44 -158q57 84 144 121t184 37
q139 0 243 -67.5t159.5 -183.5t55.5 -257q0 -155 -67 -275.5t-186 -187.5t-271 -67q-155 0 -266 66zM433.5 290.5q60.5 -68.5 173.5 -68.5t173.5 70.5t60.5 193.5q0 124 -61 194t-173 70q-114 0 -174 -69.5t-60 -194.5q0 -127 60.5 -195.5z" />
    <glyph glyph-name="uni0432" unicode="&#x432;" horiz-adv-x="1134" 
d="M138 1080h506q107 0 180 -22q84 -26 140 -93t56 -179q0 -68 -22 -113.5t-62 -76.5q-36 -27 -72 -36q42 -6 76 -22q61 -27 97.5 -81t36.5 -147q0 -110 -53.5 -185t-156.5 -105q-69 -20 -186 -20h-540v1080zM658 206q46 0 84 16q27 11 40.5 39t13.5 61q0 39 -17 63.5
t-43 36.5t-78 12h-244v-228h244zM580 644q73 0 108 16q25 12 38.5 38t13.5 60q0 37 -15.5 64.5t-46.5 37.5q-30 10 -98 10h-166v-226h166z" />
    <glyph glyph-name="uni0433" unicode="&#x433;" horiz-adv-x="970" 
d="M140 1080h780v-254h-508v-826h-272v1080z" />
    <glyph glyph-name="uni0434" unicode="&#x434;" horiz-adv-x="1290" 
d="M151.5 235.5q33.5 25.5 53.5 83.5t35 165q16 122 26.5 265t19.5 331h834v-870h110v-450h-256v240h-658v-240h-256v450q58 0 91.5 25.5zM848 210v660h-326q-12 -214 -32 -420q-10 -94 -26.5 -147t-55.5 -93h440z" />
    <glyph glyph-name="uni0435" unicode="&#x435;" horiz-adv-x="1216" 
d="M350.5 41q-127.5 71 -199 198t-71.5 287q0 174 69.5 306.5t193.5 205t283 72.5q156 0 271 -69t176.5 -196t61.5 -298q0 -27 -4 -83h-758q15 -116 79.5 -178t173.5 -62q79 0 136.5 35t87.5 101l272 -78q-40 -97 -113 -167.5t-168 -107.5t-199 -37q-164 0 -291.5 71z
M856 666q-14 109 -66.5 158.5t-151.5 49.5q-215 0 -258 -208h476z" />
    <glyph glyph-name="uni0436" unicode="&#x436;" horiz-adv-x="1576" 
d="M396 540l-350 540h296l326 -520v520h240v-520l326 520h296l-350 -540l376 -540h-314l-334 520v-520h-240v520l-334 -520h-314z" />
    <glyph glyph-name="uni0437" unicode="&#x437;" horiz-adv-x="1050" 
d="M241.5 32.5q-128.5 62.5 -201.5 171.5l214 144q121 -124 266 -124q80 0 126 34.5t46 93.5q0 61 -44.5 80t-127.5 19l-68 -1h-64v212h64q67 0 109 6t67.5 26.5t25.5 63.5q0 52 -38 76t-98 24q-67 0 -139.5 -29t-138.5 -75l-150 186q95 80 208 125t232 45q107 0 199.5 -37
t148.5 -111t56 -178q0 -117 -76 -216q53 -43 82.5 -105.5t29.5 -138.5q0 -112 -60.5 -192t-162.5 -121t-225 -41q-152 0 -280.5 62.5z" />
    <glyph glyph-name="uni0438" unicode="&#x438;" horiz-adv-x="1242" 
d="M1102 0h-260v660l-488 -660h-216v1080h260v-638l490 638h214v-1080z" />
    <glyph glyph-name="uni0439" unicode="&#x439;" horiz-adv-x="1242" 
d="M1102 0h-260v660l-488 -660h-216v1080h260v-638l490 638h214v-1080zM548 1518q0 -45 31.5 -76.5t76.5 -31.5t76.5 31.5t31.5 76.5h210q0 -87 -42.5 -160t-115.5 -115.5t-160 -42.5t-160 42.5t-115.5 115.5t-42.5 160h210z" />
    <glyph glyph-name="uni043A" unicode="&#x43a;" horiz-adv-x="1104" 
d="M140 1080h276v-520l366 520h336l-390 -540l416 -540h-354l-374 520v-520h-278z" />
    <glyph glyph-name="uni043B" unicode="&#x43b;" horiz-adv-x="1230" 
d="M90 221q37 0 59.5 16.5t35 50t23.5 92.5q39 209 66 700h816v-1080h-272v826h-306l-2 -25q-32 -385 -58 -517q-29 -157 -92.5 -229.5t-182.5 -72.5q-59 0 -137 18v226q32 -5 50 -5z" />
    <glyph glyph-name="uni043C" unicode="&#x43c;" horiz-adv-x="1470" 
d="M138 1080h220l376 -700l376 700h220v-1080h-260v538l-288 -538h-96l-288 538v-538h-260v1080z" />
    <glyph glyph-name="uni043D" unicode="&#x43d;" horiz-adv-x="1266" 
d="M138 1080h272v-412h444v412h272v-1080h-272v414h-444v-414h-272v1080z" />
    <glyph glyph-name="uni043E" unicode="&#x43e;" horiz-adv-x="1254" 
d="M341 42.5q-124 72.5 -192.5 202t-68.5 295.5q0 167 69.5 296.5t194 201.5t282.5 72q161 0 285.5 -72.5t193.5 -202.5t69 -295q0 -166 -69.5 -295.5t-194 -202t-284.5 -72.5q-161 0 -285 72.5zM434.5 308q66.5 -84 191.5 -84q127 0 193.5 86t66.5 230q0 147 -67 231.5
t-193 84.5q-129 0 -193.5 -84.5t-64.5 -231.5q0 -148 66.5 -232z" />
    <glyph glyph-name="uni043F" unicode="&#x43f;" horiz-adv-x="1242" 
d="M138 1080h964v-1080h-272v826h-420v-826h-272v1080z" />
    <glyph glyph-name="uni0440" unicode="&#x440;" horiz-adv-x="1248" 
d="M412 39v-519h-274v1560h240v-60q115 90 278 90q152 0 268.5 -73t180 -203t63.5 -294q0 -161 -62.5 -291t-176 -204.5t-259.5 -74.5q-148 0 -258 69zM626 212q126 0 190 91.5t64 236.5q0 93 -29 167t-88 117.5t-147 43.5q-123 0 -180.5 -87t-57.5 -241q0 -328 248 -328z
" />
    <glyph glyph-name="uni0441" unicode="&#x441;" horiz-adv-x="1166" 
d="M330.5 44q-121.5 74 -186 203.5t-64.5 292.5q0 164 66.5 293.5t189 203t284.5 73.5q126 0 227.5 -43.5t168 -125t90.5 -191.5l-272 -72q-24 83 -83 130.5t-135 47.5q-124 0 -186 -87t-62 -229q0 -145 64 -230.5t184 -85.5q88 0 137.5 40t74.5 122l278 -58
q-46 -172 -174 -265t-316 -93q-164 0 -285.5 74z" />
    <glyph glyph-name="uni0442" unicode="&#x442;" horiz-adv-x="1080" 
d="M404 840h-354v240h980v-240h-354v-840h-272v840z" />
    <glyph glyph-name="uni0443" unicode="&#x443;" horiz-adv-x="1140" 
d="M456 9l-436 1071h282l284 -735l282 735h272l-610 -1560h-252z" />
    <glyph glyph-name="uni0444" unicode="&#x444;" horiz-adv-x="1528" 
d="M553 -25q-137 0 -244 66.5t-168 194.5t-61 304t61 304t168 194.5t244 66.5q48 0 91 -7v322h240v-322q43 7 91 7q137 0 244 -66.5t168 -194.5t61 -304t-61 -304t-168 -194.5t-244 -66.5q-48 0 -91 7v-432h-240v432q-43 -7 -91 -7zM412.5 305.5q56.5 -86.5 174.5 -86.5
q24 0 57 5v630q-33 6 -63 6q-119 0 -172 -85.5t-53 -234.5q0 -148 56.5 -234.5zM943 219q117 0 173 85.5t56 235.5q0 152 -52.5 236t-171.5 84q-29 0 -64 -6v-630q35 -5 59 -5z" />
    <glyph glyph-name="uni0445" unicode="&#x445;" horiz-adv-x="1126" 
d="M406 546l-378 534h320l216 -320l212 320h320l-378 -534l388 -546h-320l-222 332l-224 -332h-320z" />
    <glyph glyph-name="uni0446" unicode="&#x446;" horiz-adv-x="1328" 
d="M1036 0h-898v1080h272v-826h420v826h272v-840h206v-480h-272v240z" />
    <glyph glyph-name="uni0447" unicode="&#x447;" horiz-adv-x="1172" 
d="M632.5 307q-68.5 -15 -142.5 -15q-167 0 -266 75.5t-128 220.5q-16 82 -16 222v270h276v-270q0 -90 14 -146q18 -70 61.5 -101t124.5 -31q120 0 202 64v484h274v-1080h-274v350q-57 -28 -125.5 -43z" />
    <glyph glyph-name="uni0448" unicode="&#x448;" horiz-adv-x="1602" 
d="M138 1080h260v-840h272v840h260v-840h272v840h260v-1080h-1324v1080z" />
    <glyph glyph-name="uni0449" unicode="&#x449;" horiz-adv-x="1570" 
d="M1278 0h-1140v1080h260v-840h272v840h260v-840h272v840h260v-840h88v-480h-272v240z" />
    <glyph glyph-name="uni044A" unicode="&#x44a;" horiz-adv-x="1222" 
d="M200 870h-160v210h432v-344h174q142 0 204 -12q292 -65 292 -358q0 -143 -73.5 -231t-216.5 -121q-61 -14 -206 -14h-446v870zM676 210q47 0 84 10q43 12 74.5 53.5t31.5 92.5q0 55 -32 96t-78 54q-35 10 -80 10h-204v-316h204z" />
    <glyph glyph-name="uni044B" unicode="&#x44b;" horiz-adv-x="1524" 
d="M138 1080h272v-344h98q142 0 204 -12q292 -65 292 -358q0 -143 -73.5 -231t-216.5 -121q-61 -14 -206 -14h-370v1080zM538 210q47 0 84 10q43 12 74.5 53.5t31.5 92.5q0 55 -32 96t-78 54q-35 10 -80 10h-128v-316h128zM1112 1080h272v-1080h-272v1080z" />
    <glyph glyph-name="uni044C" unicode="&#x44c;" horiz-adv-x="1160" 
d="M138 1080h272v-344h174q142 0 204 -12q292 -65 292 -358q0 -143 -73.5 -231t-216.5 -121q-61 -14 -206 -14h-446v1080zM614 210q47 0 84 10q43 12 74.5 53.5t31.5 92.5q0 55 -32 96t-78 54q-35 10 -80 10h-204v-316h204z" />
    <glyph glyph-name="uni044D" unicode="&#x44d;" horiz-adv-x="1168" 
d="M236 63q-128 93 -174 265l278 58q25 -82 74.5 -122t137.5 -40q97 0 157.5 56t80.5 156h-318v210h318q-19 94 -78 152t-152 58q-82 0 -141.5 -46t-84.5 -132l-272 72q24 110 90.5 191.5t168 125t227.5 43.5q162 0 284.5 -73.5t189 -203.5t66.5 -295q0 -162 -64.5 -291
t-186 -203t-285.5 -74q-188 0 -316 93z" />
    <glyph glyph-name="uni044E" unicode="&#x44e;" horiz-adv-x="1742" 
d="M885.5 21q-103.5 51 -172.5 149t-93 234h-210v-404h-272v1080h272v-404h210q24 138 94 236t174.5 148t231.5 50q158 0 281 -73.5t192 -203t69 -291.5q0 -167 -69.5 -297t-194.5 -202.5t-284 -72.5q-125 0 -228.5 51zM922 308.5q66 -84.5 190 -84.5q128 0 195 86t67 230
q0 148 -67 232t-195 84t-192 -84.5t-64 -229.5q0 -149 66 -233.5z" />
    <glyph glyph-name="uni044F" unicode="&#x44f;" horiz-adv-x="1188" 
d="M776 344h-174h-32l-206 -344h-284l232 381q-96 40 -151 123.5t-55 205.5q0 146 77.5 238t212.5 118q47 9 97.5 11.5t108.5 2.5h446v-1080h-272v344zM414.5 617.5q32.5 -40.5 77.5 -53.5q35 -10 80 -10h204v316h-204q-46 0 -84 -10q-44 -12 -75 -54t-31 -94
q0 -54 32.5 -94.5z" />
    <glyph glyph-name="uni0450" unicode="&#x450;" horiz-adv-x="1216" 
d="M350.5 41q-127.5 71 -199 198t-71.5 287q0 174 69.5 306.5t193.5 205t283 72.5q156 0 271 -69t176.5 -196t61.5 -298q0 -27 -4 -83h-758q15 -116 79.5 -178t173.5 -62q79 0 136.5 35t87.5 101l272 -78q-40 -97 -113 -167.5t-168 -107.5t-199 -37q-164 0 -291.5 71z
M559 1620l166 -390h-202l-166 390h202zM856 666q-14 109 -66.5 158.5t-151.5 49.5q-215 0 -258 -208h476z" />
    <glyph glyph-name="uni0451" unicode="&#x451;" horiz-adv-x="1216" 
d="M350.5 41q-127.5 71 -199 198t-71.5 287q0 174 69.5 306.5t193.5 205t283 72.5q156 0 271 -69t176.5 -196t61.5 -298q0 -27 -4 -83h-758q15 -116 79.5 -178t173.5 -62q79 0 136.5 35t87.5 101l272 -78q-40 -97 -113 -167.5t-168 -107.5t-199 -37q-164 0 -291.5 71z
M294 1472h240v-240h-240v240zM856 666q-14 109 -66.5 158.5t-151.5 49.5q-215 0 -258 -208h476zM718 1472h240v-240h-240v240z" />
    <glyph glyph-name="uni0452" unicode="&#x452;" 
d="M846 -478q-74 0 -154 20v190q48 -3 56 -3q56 0 92 28.5t36 110.5v642q0 82 -12 154t-63.5 132t-156.5 60q-94 0 -162 -64.5t-68 -243.5v-548h-274v1160h-104v208h104v72h240v-72h200v-208h-200v-192q61 69 149 106.5t201 37.5q190 0 283.5 -97t116 -205t22.5 -204v-782
q0 -119 -53.5 -193.5t-156.5 -98.5q-46 -10 -96 -10z" />
    <glyph glyph-name="uni0453" unicode="&#x453;" horiz-adv-x="970" 
d="M140 1080h780v-254h-508v-826h-272v1080zM548 1620h202l-166 -390h-202z" />
    <glyph glyph-name="uni0454" unicode="&#x454;" horiz-adv-x="1168" 
d="M330.5 44q-121.5 74 -186 203t-64.5 291q0 165 66.5 295t189 203.5t284.5 73.5q126 0 227.5 -43.5t168 -125t90.5 -191.5l-272 -72q-25 86 -84.5 132t-141.5 46q-93 0 -152 -58t-78 -152h318v-210h-318q20 -100 80.5 -156t157.5 -56q88 0 137.5 40t74.5 122l278 -58
q-46 -172 -174 -265t-316 -93q-164 0 -285.5 74z" />
    <glyph glyph-name="uni0455" unicode="&#x455;" horiz-adv-x="1094" 
d="M232.5 62q-125.5 92 -152.5 262l278 42q17 -77 75.5 -119.5t148.5 -42.5q73 0 113.5 28.5t40.5 79.5q0 34 -16.5 52.5t-68 36.5t-175.5 51q-134 34 -212 76t-113 100t-35 142q0 103 53 180t150 118.5t227 41.5q126 0 224.5 -39t159 -111.5t74.5 -169.5l-278 -50
q-7 60 -52 95t-122 41l-21 1q-66 0 -105.5 -25t-39.5 -68q0 -29 20 -47.5t78 -38t190 -52.5q124 -32 198 -74.5t108 -101.5t34 -144q0 -110 -54 -190.5t-156 -123t-242 -42.5q-204 0 -329.5 92z" />
    <glyph glyph-name="uni0456" unicode="&#x456;" horiz-adv-x="592" 
d="M160 1470h272v-240h-272v240zM160 1080h272v-1080h-272v1080z" />
    <glyph glyph-name="uni0457" unicode="&#x457;" horiz-adv-x="592" 
d="M160 1080h272v-1080h-272v1080zM-36 1472h240v-240h-240v240zM388 1472h240v-240h-240v240z" />
    <glyph glyph-name="uni0458" unicode="&#x458;" horiz-adv-x="602" 
d="M-20 -226h48q89 0 125.5 40t36.5 122v1144h272v-1276q0 -85 -36.5 -149.5t-104 -99.5t-157.5 -35h-184v254zM190 1470h272v-240h-272v240z" />
    <glyph glyph-name="uni0459" unicode="&#x459;" horiz-adv-x="1724" 
d="M90 221q37 0 59.5 16.5t35 50t23.5 92.5q39 209 66 700h776v-344h98q76 0 119 -2t85 -10q135 -26 213.5 -117t78.5 -237t-77.5 -238t-212.5 -118q-47 -9 -97 -11.5t-109 -2.5h-370v826h-266l-2 -25q-32 -385 -58 -517q-29 -157 -92.5 -229.5t-182.5 -72.5q-59 0 -137 18
v226q32 -5 50 -5zM1178 210q47 0 84 10q44 12 75 54t31 94q0 54 -32.5 94.5t-77.5 53.5q-35 10 -80 10h-128v-316h128z" />
    <glyph glyph-name="uni045A" unicode="&#x45a;" horiz-adv-x="1690" 
d="M138 1080h272v-344h334v344h272v-344h98q76 0 119 -2t85 -10q135 -26 213.5 -117t78.5 -237t-77.5 -238t-212.5 -118q-47 -9 -97 -11.5t-109 -2.5h-370v526h-334v-526h-272v1080zM1144 210q47 0 84 10q44 12 75 54t31 94q0 54 -32.5 94.5t-77.5 53.5q-35 10 -80 10h-128
v-316h128z" />
    <glyph glyph-name="uni045B" unicode="&#x45b;" 
d="M864 664q-12 72 -63.5 132t-156.5 60q-94 0 -162 -64.5t-68 -243.5v-548h-276v1160h-102v208h102v72h242v-72h200v-208h-200v-191q61 68 149 105.5t201 37.5q190 0 283.5 -97t116 -205t22.5 -204v-606h-276v510q0 82 -12 154z" />
    <glyph glyph-name="uni045C" unicode="&#x45c;" horiz-adv-x="1104" 
d="M140 1080h276v-520l366 520h336l-390 -540l416 -540h-354l-374 520v-520h-278zM588 1620h202l-166 -390h-202z" />
    <glyph glyph-name="uni045D" unicode="&#x45d;" horiz-adv-x="1242" 
d="M1102 0h-260v660l-488 -660h-216v1080h260v-638l490 638h214v-1080zM646 1620l166 -390h-202l-166 390h202z" />
    <glyph glyph-name="uni045E" unicode="&#x45e;" horiz-adv-x="1140" 
d="M456 9l-436 1071h282l284 -735l282 735h272l-610 -1560h-252zM478 1518q0 -45 31.5 -76.5t76.5 -31.5t76.5 31.5t31.5 76.5h210q0 -87 -42.5 -160t-115.5 -115.5t-160 -42.5t-160 42.5t-115.5 115.5t-42.5 160h210z" />
    <glyph glyph-name="uni045F" unicode="&#x45f;" horiz-adv-x="1242" 
d="M496 0h-358v1080h272v-826h420v826h272v-1080h-334v-240h-272v240z" />
    <glyph glyph-name="uni0490" unicode="&#x490;" horiz-adv-x="1120" 
d="M140 1440h688v240h272v-494h-688v-1186h-272v1440z" />
    <glyph glyph-name="uni0491" unicode="&#x491;" horiz-adv-x="970" 
d="M140 1080h508v240h272v-494h-508v-826h-272v1080z" />
    <glyph glyph-name="uni04AE" unicode="&#x4ae;" horiz-adv-x="1260" 
d="M492 586l-492 854h318l312 -542l312 542h318l-492 -854v-586h-276v586z" />
    <glyph glyph-name="uni04AF" unicode="&#x4af;" horiz-adv-x="1136" 
d="M432 0l-392 1080h272l256 -748l256 748h272l-392 -1080v-360h-272v360z" />
    <glyph glyph-name="uni04BA" unicode="&#x4ba;" horiz-adv-x="1372" 
d="M414 902q59 35 147 54.5t183 19.5q488 0 488 -562v-414h-276v332q0 120 -14 198t-74 134t-188 56q-85 0 -154 -25t-112 -63v-632h-274v1440h274v-538z" />
    <glyph glyph-name="uni04BB" unicode="&#x4bb;" horiz-adv-x="1172" 
d="M539.5 773q68.5 15 142.5 15q167 0 266 -75.5t128 -220.5q16 -82 16 -222v-270h-276v270q0 90 -14 146q-18 70 -61.5 101t-124.5 31q-120 0 -202 -64v-484h-274v1080h274v-350q57 28 125.5 43z" />
    <glyph glyph-name="uni04E8" unicode="&#x4e8;" horiz-adv-x="1556" 
d="M387 63.5q-158 93.5 -242.5 263.5t-84.5 393t84.5 393t242.5 263.5t371 93.5t371 -93.5t242.5 -263.5t84.5 -393t-84.5 -393t-242.5 -263.5t-371 -93.5t-371 93.5zM490 319.5q103 -93.5 275 -93.5q166 0 265.5 94.5t127.5 263.5h-799q28 -171 131 -264.5zM1157 856
q-28 171 -131 264.5t-275 93.5q-166 0 -265.5 -94.5t-127.5 -263.5h799z" />
    <glyph glyph-name="uni04E9" unicode="&#x4e9;" horiz-adv-x="1254" 
d="M341 42.5q-124 72.5 -192.5 202t-68.5 295.5q0 167 69.5 296.5t194 201.5t282.5 72q161 0 285.5 -72.5t193.5 -202.5t69 -295q0 -166 -69.5 -295.5t-194 -202t-284.5 -72.5q-161 0 -285 72.5zM462 279.5q63 -55.5 164 -55.5q102 0 165 56t85 156h-498q21 -101 84 -156.5z
M876 646q-21 100 -85 155t-165 55q-103 0 -165.5 -55.5t-82.5 -154.5h498z" />
    <glyph glyph-name="Wgrave" unicode="&#x1e80;" horiz-adv-x="1978" 
d="M20 1440h286l270 -990l270 988l286 2l270 -990l270 990h286l-422 -1440h-268l-279 972l-279 -972h-268zM911 1980l166 -390h-202l-166 390h202z" />
    <glyph glyph-name="wgrave" unicode="&#x1e81;" horiz-adv-x="1628" 
d="M40 1082l266 -2l196 -644l199 644h226l199 -644l196 644h266l-330 -1080h-208l-236 704l-236 -704h-208zM736 1620l166 -390h-202l-166 390h202z" />
    <glyph glyph-name="Wacute" unicode="&#x1e82;" horiz-adv-x="1978" 
d="M20 1440h286l270 -990l270 988l286 2l270 -990l270 990h286l-422 -1440h-268l-279 972l-279 -972h-268zM1067 1980h202l-166 -390h-202z" />
    <glyph glyph-name="wacute" unicode="&#x1e83;" horiz-adv-x="1628" 
d="M40 1082l266 -2l196 -644l199 644h226l199 -644l196 644h266l-330 -1080h-208l-236 704l-236 -704h-208zM892 1620h202l-166 -390h-202z" />
    <glyph glyph-name="Wdieresis" unicode="&#x1e84;" horiz-adv-x="1978" 
d="M20 1440h286l270 -990l270 988l286 2l270 -990l270 990h286l-422 -1440h-268l-279 972l-279 -972h-268zM658 1832h240v-240h-240v240zM1082 1832h240v-240h-240v240z" />
    <glyph glyph-name="wdieresis" unicode="&#x1e85;" horiz-adv-x="1628" 
d="M40 1082l266 -2l196 -644l199 644h226l199 -644l196 644h266l-330 -1080h-208l-236 704l-236 -704h-208zM482 1472h240v-240h-240v240zM906 1472h240v-240h-240v240z" />
    <glyph glyph-name="uni1E9E" unicode="&#x1e9e;" horiz-adv-x="1528" 
d="M826.5 -22q-57.5 8 -92.5 22v266q76 -30 176 -30q106 0 170 49t64 151q0 120 -90.5 174t-219.5 54l-50 168l219 347q-83 37 -197 37q-137 0 -234 -61.5t-134 -181.5q-26 -85 -26 -227v-746h-274v800q0 188 41 299q69 185 229 278t368 93q133 0 235.5 -24.5t170.5 -58
t157 -88.5l-266 -454q97 -22 172.5 -76.5t119 -141t43.5 -199.5q0 -139 -53 -242t-156 -159.5t-249 -56.5q-66 0 -123.5 8z" />
    <glyph glyph-name="uni1EA0" unicode="&#x1ea0;" horiz-adv-x="1366" 
d="M480 1440h406l440 -1440h-280l-93 300h-542l-91 -300h-280zM875 554l-195 631l-192 -631h387zM547 -150h272v-240h-272v240z" />
    <glyph glyph-name="uni1EA1" unicode="&#x1ea1;" horiz-adv-x="1166" 
d="M246.5 13.5q-81.5 43.5 -124 118.5t-42.5 166q0 118 55 199t181 127q70 26 171 44.5t291 46.5q-8 76 -55.5 111.5t-142.5 35.5q-69 0 -131 -32t-85 -100l-246 78q42 140 158 221t304 81q319 0 422 -196q29 -54 36.5 -109.5t7.5 -144.5v-660h-238v132q-72 -86 -158 -124
t-210 -38q-112 0 -193.5 43.5zM386.5 215.5q40.5 -31.5 111.5 -31.5q69 0 121 24.5t83.5 57.5t45.5 62q26 53 28 167q-141 -24 -207 -38t-111 -31q-59 -24 -85.5 -53.5t-26.5 -70.5q0 -55 40.5 -86.5zM462 -150h272v-240h-272v240z" />
    <glyph glyph-name="uni1EA2" unicode="&#x1ea2;" horiz-adv-x="1366" 
d="M480 1440h406l440 -1440h-280l-93 300h-542l-91 -300h-280zM550 2071q49 18 100 18q71 0 128.5 -37t84.5 -109q18 -46 18 -94q0 -67 -36 -119.5t-92 -83t-114 -34.5l-42 109q48 12 81 40.5t33 67.5q0 21 -10 42q-22 49 -75 49q-45 0 -98 -34l-67 133q40 34 89 52z
M875 554l-195 631l-192 -631h387z" />
    <glyph glyph-name="uni1EA3" unicode="&#x1ea3;" horiz-adv-x="1166" 
d="M246.5 13.5q-81.5 43.5 -124 118.5t-42.5 166q0 118 55 199t181 127q70 26 171 44.5t291 46.5q-8 76 -55.5 111.5t-142.5 35.5q-69 0 -131 -32t-85 -100l-246 78q42 140 158 221t304 81q319 0 422 -196q29 -54 36.5 -109.5t7.5 -144.5v-660h-238v132q-72 -86 -158 -124
t-210 -38q-112 0 -193.5 43.5zM386.5 215.5q40.5 -31.5 111.5 -31.5q69 0 121 24.5t83.5 57.5t45.5 62q26 53 28 167q-141 -24 -207 -38t-111 -31q-59 -24 -85.5 -53.5t-26.5 -70.5q0 -55 40.5 -86.5zM490 1719q49 18 100 18q71 0 128.5 -37t84.5 -109q18 -46 18 -94
q0 -67 -36 -119.5t-92 -83t-114 -34.5l-42 109q48 12 81 40.5t33 67.5q0 21 -10 42q-22 49 -75 49q-45 0 -98 -34l-67 133q40 34 89 52z" />
    <glyph glyph-name="uni1EA4" unicode="&#x1ea4;" horiz-adv-x="1366" 
d="M480 1440h406l440 -1440h-280l-93 300h-542l-91 -300h-280zM567 1920h224l288 -330h-250l-150 180l-150 -180h-250zM875 554l-195 631l-192 -631h387zM1196 2190h202l-166 -390h-202z" />
    <glyph glyph-name="uni1EA5" unicode="&#x1ea5;" horiz-adv-x="1166" 
d="M246.5 13.5q-81.5 43.5 -124 118.5t-42.5 166q0 118 55 199t181 127q70 26 171 44.5t291 46.5q-8 76 -55.5 111.5t-142.5 35.5q-69 0 -131 -32t-85 -100l-246 78q42 140 158 221t304 81q319 0 422 -196q29 -54 36.5 -109.5t7.5 -144.5v-660h-238v132q-72 -86 -158 -124
t-210 -38q-112 0 -193.5 43.5zM493 1560h224l288 -330h-250l-150 180l-150 -180h-250zM386.5 215.5q40.5 -31.5 111.5 -31.5q69 0 121 24.5t83.5 57.5t45.5 62q26 53 28 167q-141 -24 -207 -38t-111 -31q-59 -24 -85.5 -53.5t-26.5 -70.5q0 -55 40.5 -86.5zM1122 1830h202
l-166 -390h-202z" />
    <glyph glyph-name="uni1EA6" unicode="&#x1ea6;" horiz-adv-x="1366" 
d="M480 1440h406l440 -1440h-280l-93 300h-542l-91 -300h-280zM567 1920h224l288 -330h-250l-150 180l-150 -180h-250zM875 554l-195 631l-192 -631h387zM1085 2190l166 -390h-202l-166 390h202z" />
    <glyph glyph-name="uni1EA7" unicode="&#x1ea7;" horiz-adv-x="1166" 
d="M246.5 13.5q-81.5 43.5 -124 118.5t-42.5 166q0 118 55 199t181 127q70 26 171 44.5t291 46.5q-8 76 -55.5 111.5t-142.5 35.5q-69 0 -131 -32t-85 -100l-246 78q42 140 158 221t304 81q319 0 422 -196q29 -54 36.5 -109.5t7.5 -144.5v-660h-238v132q-72 -86 -158 -124
t-210 -38q-112 0 -193.5 43.5zM484 1560h224l288 -330h-250l-150 180l-150 -180h-250zM386.5 215.5q40.5 -31.5 111.5 -31.5q69 0 121 24.5t83.5 57.5t45.5 62q26 53 28 167q-141 -24 -207 -38t-111 -31q-59 -24 -85.5 -53.5t-26.5 -70.5q0 -55 40.5 -86.5zM1002 1830
l166 -390h-202l-166 390h202z" />
    <glyph glyph-name="uni1EA8" unicode="&#x1ea8;" horiz-adv-x="1366" 
d="M480 1440h406l440 -1440h-280l-93 300h-542l-91 -300h-280zM568 1920h224l288 -330h-250l-150 180l-150 -180h-250zM875 554l-195 631l-192 -631h387zM1054 2071q49 18 100 18q71 0 128.5 -37t84.5 -109q18 -46 18 -94q0 -67 -36 -119.5t-92 -83t-114 -34.5l-42 109
q48 12 81 40.5t33 67.5q0 21 -10 42q-22 49 -75 49q-45 0 -98 -34l-67 133q40 34 89 52z" />
    <glyph glyph-name="uni1EA9" unicode="&#x1ea9;" horiz-adv-x="1166" 
d="M246.5 13.5q-81.5 43.5 -124 118.5t-42.5 166q0 118 55 199t181 127q70 26 171 44.5t291 46.5q-8 76 -55.5 111.5t-142.5 35.5q-69 0 -131 -32t-85 -100l-246 78q42 140 158 221t304 81q319 0 422 -196q29 -54 36.5 -109.5t7.5 -144.5v-660h-238v132q-72 -86 -158 -124
t-210 -38q-112 0 -193.5 43.5zM480 1560h224l288 -330h-250l-150 180l-150 -180h-250zM386.5 215.5q40.5 -31.5 111.5 -31.5q69 0 121 24.5t83.5 57.5t45.5 62q26 53 28 167q-141 -24 -207 -38t-111 -31q-59 -24 -85.5 -53.5t-26.5 -70.5q0 -55 40.5 -86.5zM966 1711
q49 18 100 18q71 0 128.5 -37t84.5 -109q18 -46 18 -94q0 -67 -36 -119.5t-92 -83t-114 -34.5l-42 109q48 12 81 40.5t33 67.5q0 21 -10 42q-22 49 -75 49q-45 0 -98 -34l-67 133q40 34 89 52z" />
    <glyph glyph-name="uni1EAA" unicode="&#x1eaa;" horiz-adv-x="1366" 
d="M480 1440h406l440 -1440h-280l-93 300h-542l-91 -300h-280zM567 1920h224l288 -330h-250l-150 180l-150 -180h-250zM324 2104q0 95 49.5 151.5t145.5 56.5q48 0 92.5 -22.5t106.5 -65.5q43 -31 69.5 -45.5t49.5 -14.5q22 0 34.5 18.5t12.5 50.5q0 24 -7 49h168
q13 -53 13 -104q0 -95 -49.5 -151.5t-145.5 -56.5q-48 0 -92.5 22.5t-106.5 65.5q-43 31 -69.5 45.5t-49.5 14.5q-22 0 -34.5 -18.5t-12.5 -50.5q0 -24 7 -49h-168q-13 53 -13 104zM875 554l-195 631l-192 -631h387z" />
    <glyph glyph-name="uni1EAB" unicode="&#x1eab;" horiz-adv-x="1166" 
d="M246.5 13.5q-81.5 43.5 -124 118.5t-42.5 166q0 118 55 199t181 127q70 26 171 44.5t291 46.5q-8 76 -55.5 111.5t-142.5 35.5q-69 0 -131 -32t-85 -100l-246 78q42 140 158 221t304 81q319 0 422 -196q29 -54 36.5 -109.5t7.5 -144.5v-660h-238v132q-72 -86 -158 -124
t-210 -38q-112 0 -193.5 43.5zM468 1560h224l288 -330h-250l-150 180l-150 -180h-250zM225 1744q0 95 49.5 151.5t145.5 56.5q48 0 92.5 -22.5t106.5 -65.5q43 -31 69.5 -45.5t49.5 -14.5q22 0 34.5 18.5t12.5 50.5q0 24 -7 49h168q13 -53 13 -104q0 -95 -49.5 -151.5
t-145.5 -56.5q-48 0 -92.5 22.5t-106.5 65.5q-43 31 -69.5 45.5t-49.5 14.5q-22 0 -34.5 -18.5t-12.5 -50.5q0 -24 7 -49h-168q-13 53 -13 104zM386.5 215.5q40.5 -31.5 111.5 -31.5q69 0 121 24.5t83.5 57.5t45.5 62q26 53 28 167q-141 -24 -207 -38t-111 -31
q-59 -24 -85.5 -53.5t-26.5 -70.5q0 -55 40.5 -86.5z" />
    <glyph glyph-name="uni1EAC" unicode="&#x1eac;" horiz-adv-x="1366" 
d="M480 1440h406l440 -1440h-280l-93 300h-542l-91 -300h-280zM568 1920h224l288 -330h-250l-150 180l-150 -180h-250zM875 554l-195 631l-192 -631h387zM547 -150h272v-240h-272v240z" />
    <glyph glyph-name="uni1EAD" unicode="&#x1ead;" horiz-adv-x="1166" 
d="M246.5 13.5q-81.5 43.5 -124 118.5t-42.5 166q0 118 55 199t181 127q70 26 171 44.5t291 46.5q-8 76 -55.5 111.5t-142.5 35.5q-69 0 -131 -32t-85 -100l-246 78q42 140 158 221t304 81q319 0 422 -196q29 -54 36.5 -109.5t7.5 -144.5v-660h-238v132q-72 -86 -158 -124
t-210 -38q-112 0 -193.5 43.5zM484 1560h224l288 -330h-250l-150 180l-150 -180h-250zM386.5 215.5q40.5 -31.5 111.5 -31.5q69 0 121 24.5t83.5 57.5t45.5 62q26 53 28 167q-141 -24 -207 -38t-111 -31q-59 -24 -85.5 -53.5t-26.5 -70.5q0 -55 40.5 -86.5zM462 -150h272
v-240h-272v240z" />
    <glyph glyph-name="uni1EAE" unicode="&#x1eae;" horiz-adv-x="1366" 
d="M480 1440h406l440 -1440h-280l-93 300h-542l-91 -300h-280zM575 1878q0 -45 31.5 -76.5t76.5 -31.5t76.5 31.5t31.5 76.5h210q0 -87 -42.5 -160t-115.5 -115.5t-160 -42.5t-160 42.5t-115.5 115.5t-42.5 160h210zM875 554l-195 631l-192 -631h387zM754 2370h202
l-166 -390h-202z" />
    <glyph glyph-name="uni1EAF" unicode="&#x1eaf;" horiz-adv-x="1166" 
d="M246.5 13.5q-81.5 43.5 -124 118.5t-42.5 166q0 118 55 199t181 127q70 26 171 44.5t291 46.5q-8 76 -55.5 111.5t-142.5 35.5q-69 0 -131 -32t-85 -100l-246 78q42 140 158 221t304 81q319 0 422 -196q29 -54 36.5 -109.5t7.5 -144.5v-660h-238v132q-72 -86 -158 -124
t-210 -38q-112 0 -193.5 43.5zM481 1518q0 -45 31.5 -76.5t76.5 -31.5t76.5 31.5t31.5 76.5h210q0 -87 -42.5 -160t-115.5 -115.5t-160 -42.5t-160 42.5t-115.5 115.5t-42.5 160h210zM386.5 215.5q40.5 -31.5 111.5 -31.5q69 0 121 24.5t83.5 57.5t45.5 62q26 53 28 167
q-141 -24 -207 -38t-111 -31q-59 -24 -85.5 -53.5t-26.5 -70.5q0 -55 40.5 -86.5zM660 2010h202l-166 -390h-202z" />
    <glyph glyph-name="uni1EB0" unicode="&#x1eb0;" horiz-adv-x="1366" 
d="M480 1440h406l440 -1440h-280l-93 300h-542l-91 -300h-280zM575 1878q0 -45 31.5 -76.5t76.5 -31.5t76.5 31.5t31.5 76.5h210q0 -87 -42.5 -160t-115.5 -115.5t-160 -42.5t-160 42.5t-115.5 115.5t-42.5 160h210zM612 2370l166 -390h-202l-166 390h202zM875 554l-195 631
l-192 -631h387z" />
    <glyph glyph-name="uni1EB1" unicode="&#x1eb1;" horiz-adv-x="1166" 
d="M246.5 13.5q-81.5 43.5 -124 118.5t-42.5 166q0 118 55 199t181 127q70 26 171 44.5t291 46.5q-8 76 -55.5 111.5t-142.5 35.5q-69 0 -131 -32t-85 -100l-246 78q42 140 158 221t304 81q319 0 422 -196q29 -54 36.5 -109.5t7.5 -144.5v-660h-238v132q-72 -86 -158 -124
t-210 -38q-112 0 -193.5 43.5zM485 1518q0 -45 31.5 -76.5t76.5 -31.5t76.5 31.5t31.5 76.5h210q0 -87 -42.5 -160t-115.5 -115.5t-160 -42.5t-160 42.5t-115.5 115.5t-42.5 160h210zM522 2010l166 -390h-202l-166 390h202zM386.5 215.5q40.5 -31.5 111.5 -31.5
q69 0 121 24.5t83.5 57.5t45.5 62q26 53 28 167q-141 -24 -207 -38t-111 -31q-59 -24 -85.5 -53.5t-26.5 -70.5q0 -55 40.5 -86.5z" />
    <glyph glyph-name="uni1EB2" unicode="&#x1eb2;" horiz-adv-x="1366" 
d="M480 1440h406l440 -1440h-280l-93 300h-542l-91 -300h-280zM575 1878q0 -45 31.5 -76.5t76.5 -31.5t76.5 31.5t31.5 76.5h210q0 -87 -42.5 -160t-115.5 -115.5t-160 -42.5t-160 42.5t-115.5 115.5t-42.5 160h210zM529 2431q49 18 100 18q71 0 128.5 -37t84.5 -109
q18 -46 18 -94q0 -67 -36 -119.5t-92 -83t-114 -34.5l-42 109q48 12 81 40.5t33 67.5q0 21 -10 42q-22 49 -75 49q-45 0 -98 -34l-67 133q40 34 89 52zM875 554l-195 631l-192 -631h387z" />
    <glyph glyph-name="uni1EB3" unicode="&#x1eb3;" horiz-adv-x="1166" 
d="M246.5 13.5q-81.5 43.5 -124 118.5t-42.5 166q0 118 55 199t181 127q70 26 171 44.5t291 46.5q-8 76 -55.5 111.5t-142.5 35.5q-69 0 -131 -32t-85 -100l-246 78q42 140 158 221t304 81q319 0 422 -196q29 -54 36.5 -109.5t7.5 -144.5v-660h-238v132q-72 -86 -158 -124
t-210 -38q-112 0 -193.5 43.5zM515 1518q0 -45 31.5 -76.5t76.5 -31.5t76.5 31.5t31.5 76.5h210q0 -87 -42.5 -160t-115.5 -115.5t-160 -42.5t-160 42.5t-115.5 115.5t-42.5 160h210zM386.5 215.5q40.5 -31.5 111.5 -31.5q69 0 121 24.5t83.5 57.5t45.5 62q26 53 28 167
q-141 -24 -207 -38t-111 -31q-59 -24 -85.5 -53.5t-26.5 -70.5q0 -55 40.5 -86.5zM469 2071q49 18 100 18q71 0 128.5 -37t84.5 -109q18 -46 18 -94q0 -67 -36 -119.5t-92 -83t-114 -34.5l-42 109q48 12 81 40.5t33 67.5q0 21 -10 42q-22 49 -75 49q-45 0 -98 -34l-67 133
q40 34 89 52z" />
    <glyph glyph-name="uni1EB4" unicode="&#x1eb4;" horiz-adv-x="1366" 
d="M480 1440h406l440 -1440h-280l-93 300h-542l-91 -300h-280zM296 2084q0 95 49.5 151.5t145.5 56.5q48 0 92.5 -22.5t106.5 -65.5q43 -31 69.5 -45.5t49.5 -14.5q22 0 34.5 18.5t12.5 50.5q0 24 -7 49h168q13 -53 13 -104q0 -95 -49.5 -151.5t-145.5 -56.5
q-48 0 -92.5 22.5t-106.5 65.5q-43 31 -69.5 45.5t-49.5 14.5q-22 0 -34.5 -18.5t-12.5 -50.5q0 -24 7 -49h-168q-13 53 -13 104zM551 1878q0 -45 31.5 -76.5t76.5 -31.5t76.5 31.5t31.5 76.5h210q0 -87 -42.5 -160t-115.5 -115.5t-160 -42.5t-160 42.5t-115.5 115.5
t-42.5 160h210zM875 554l-195 631l-192 -631h387z" />
    <glyph glyph-name="uni1EB5" unicode="&#x1eb5;" horiz-adv-x="1166" 
d="M246.5 13.5q-81.5 43.5 -124 118.5t-42.5 166q0 118 55 199t181 127q70 26 171 44.5t291 46.5q-8 76 -55.5 111.5t-142.5 35.5q-69 0 -131 -32t-85 -100l-246 78q42 140 158 221t304 81q319 0 422 -196q29 -54 36.5 -109.5t7.5 -144.5v-660h-238v132q-72 -86 -158 -124
t-210 -38q-112 0 -193.5 43.5zM229 1724q0 95 49.5 151.5t145.5 56.5q48 0 92.5 -22.5t106.5 -65.5q43 -31 69.5 -45.5t49.5 -14.5q22 0 34.5 18.5t12.5 50.5q0 24 -7 49h168q13 -53 13 -104q0 -95 -49.5 -151.5t-145.5 -56.5q-48 0 -92.5 22.5t-106.5 65.5
q-43 31 -69.5 45.5t-49.5 14.5q-22 0 -34.5 -18.5t-12.5 -50.5q0 -24 7 -49h-168q-13 53 -13 104zM484 1518q0 -45 31.5 -76.5t76.5 -31.5t76.5 31.5t31.5 76.5h210q0 -87 -42.5 -160t-115.5 -115.5t-160 -42.5t-160 42.5t-115.5 115.5t-42.5 160h210zM386.5 215.5
q40.5 -31.5 111.5 -31.5q69 0 121 24.5t83.5 57.5t45.5 62q26 53 28 167q-141 -24 -207 -38t-111 -31q-59 -24 -85.5 -53.5t-26.5 -70.5q0 -55 40.5 -86.5z" />
    <glyph glyph-name="uni1EB6" unicode="&#x1eb6;" horiz-adv-x="1366" 
d="M480 1440h406l440 -1440h-280l-93 300h-542l-91 -300h-280zM576 1878q0 -45 31.5 -76.5t76.5 -31.5t76.5 31.5t31.5 76.5h210q0 -87 -42.5 -160t-115.5 -115.5t-160 -42.5t-160 42.5t-115.5 115.5t-42.5 160h210zM875 554l-195 631l-192 -631h387zM547 -150h272v-240
h-272v240z" />
    <glyph glyph-name="uni1EB7" unicode="&#x1eb7;" horiz-adv-x="1166" 
d="M246.5 13.5q-81.5 43.5 -124 118.5t-42.5 166q0 118 55 199t181 127q70 26 171 44.5t291 46.5q-8 76 -55.5 111.5t-142.5 35.5q-69 0 -131 -32t-85 -100l-246 78q42 140 158 221t304 81q319 0 422 -196q29 -54 36.5 -109.5t7.5 -144.5v-660h-238v132q-72 -86 -158 -124
t-210 -38q-112 0 -193.5 43.5zM484 1518q0 -45 31.5 -76.5t76.5 -31.5t76.5 31.5t31.5 76.5h210q0 -87 -42.5 -160t-115.5 -115.5t-160 -42.5t-160 42.5t-115.5 115.5t-42.5 160h210zM386.5 215.5q40.5 -31.5 111.5 -31.5q69 0 121 24.5t83.5 57.5t45.5 62q26 53 28 167
q-141 -24 -207 -38t-111 -31q-59 -24 -85.5 -53.5t-26.5 -70.5q0 -55 40.5 -86.5zM462 -150h272v-240h-272v240z" />
    <glyph glyph-name="uni1EB8" unicode="&#x1eb8;" horiz-adv-x="1200" 
d="M474 -150h272v-240h-272v240zM140 1440h940v-254h-668v-308h548v-254h-548v-370h668v-254h-940v1440z" />
    <glyph glyph-name="uni1EB9" unicode="&#x1eb9;" horiz-adv-x="1216" 
d="M350.5 41q-127.5 71 -199 198t-71.5 287q0 174 69.5 306.5t193.5 205t283 72.5q156 0 271 -69t176.5 -196t61.5 -298q0 -27 -4 -83h-758q15 -116 79.5 -178t173.5 -62q79 0 136.5 35t87.5 101l272 -78q-40 -97 -113 -167.5t-168 -107.5t-199 -37q-164 0 -291.5 71z
M856 666q-14 109 -66.5 158.5t-151.5 49.5q-215 0 -258 -208h476zM513 -150h272v-240h-272v240z" />
    <glyph glyph-name="uni1EBA" unicode="&#x1eba;" horiz-adv-x="1180" 
d="M140 1440h940v-254h-668v-308h548v-254h-548v-370h668v-254h-940v1440zM510 2071q49 18 100 18q71 0 128.5 -37t84.5 -109q18 -46 18 -94q0 -67 -36 -119.5t-92 -83t-114 -34.5l-42 109q48 12 81 40.5t33 67.5q0 21 -10 42q-22 49 -75 49q-45 0 -98 -34l-67 133
q40 34 89 52z" />
    <glyph glyph-name="uni1EBB" unicode="&#x1ebb;" horiz-adv-x="1200" 
d="M520 1719q49 18 100 18q71 0 128.5 -37t84.5 -109q18 -46 18 -94q0 -67 -36 -119.5t-92 -83t-114 -34.5l-42 109q48 12 81 40.5t33 67.5q0 21 -10 42q-22 49 -75 49q-45 0 -98 -34l-67 133q40 34 89 52zM149.5 832.5q69.5 132.5 193.5 205t283 72.5q156 0 271 -69
t176.5 -196t61.5 -298q0 -27 -4 -83h-758q15 -116 79.5 -178t173.5 -62q79 0 136.5 35t87.5 101l272 -78q-40 -97 -113 -167.5t-168 -107.5t-199 -37q-164 0 -291.5 71t-199 198t-71.5 287q0 174 69.5 306.5zM856 666q-14 109 -66.5 158.5t-151.5 49.5q-215 0 -258 -208h476
z" />
    <glyph glyph-name="uni1EBC" unicode="&#x1ebc;" horiz-adv-x="1180" 
d="M140 1440h940v-254h-668v-308h548v-254h-548v-370h668v-254h-940v1440zM223 1730q0 95 49.5 151.5t145.5 56.5q48 0 92.5 -22.5t106.5 -65.5q43 -31 69.5 -45.5t49.5 -14.5q22 0 34.5 18.5t12.5 50.5q0 24 -7 49h168q13 -53 13 -104q0 -95 -49.5 -151.5t-145.5 -56.5
q-48 0 -92.5 22.5t-106.5 65.5q-43 31 -69.5 45.5t-49.5 14.5q-22 0 -34.5 -18.5t-12.5 -50.5q0 -24 7 -49h-168q-13 53 -13 104z" />
    <glyph glyph-name="uni1EBD" unicode="&#x1ebd;" horiz-adv-x="1216" 
d="M350.5 41q-127.5 71 -199 198t-71.5 287q0 174 69.5 306.5t193.5 205t283 72.5q156 0 271 -69t176.5 -196t61.5 -298q0 -27 -4 -83h-758q15 -116 79.5 -178t173.5 -62q79 0 136.5 35t87.5 101l272 -78q-40 -97 -113 -167.5t-168 -107.5t-199 -37q-164 0 -291.5 71z
M281 1370q0 95 49.5 151.5t145.5 56.5q48 0 92.5 -22.5t106.5 -65.5q43 -31 69.5 -45.5t49.5 -14.5q22 0 34.5 18.5t12.5 50.5q0 24 -7 49h168q13 -53 13 -104q0 -95 -49.5 -151.5t-145.5 -56.5q-48 0 -92.5 22.5t-106.5 65.5q-43 31 -69.5 45.5t-49.5 14.5
q-22 0 -34.5 -18.5t-12.5 -50.5q0 -24 7 -49h-168q-13 53 -13 104zM856 666q-14 109 -66.5 158.5t-151.5 49.5q-215 0 -258 -208h476z" />
    <glyph glyph-name="uni1EBE" unicode="&#x1ebe;" horiz-adv-x="1180" 
d="M140 1440h940v-254h-668v-308h548v-254h-548v-370h668v-254h-940v1440zM503 1920h224l288 -330h-250l-150 180l-150 -180h-250zM1132 2190h202l-166 -390h-202z" />
    <glyph glyph-name="uni1EBF" unicode="&#x1ebf;" horiz-adv-x="1216" 
d="M350.5 41q-127.5 71 -199 198t-71.5 287q0 174 69.5 306.5t193.5 205t283 72.5q156 0 271 -69t176.5 -196t61.5 -298q0 -27 -4 -83h-758q15 -116 79.5 -178t173.5 -62q79 0 136.5 35t87.5 101l272 -78q-40 -97 -113 -167.5t-168 -107.5t-199 -37q-164 0 -291.5 71z
M516 1560h224l288 -330h-250l-150 180l-150 -180h-250zM856 666q-14 109 -66.5 158.5t-151.5 49.5q-215 0 -258 -208h476zM1145 1830h202l-166 -390h-202z" />
    <glyph glyph-name="uni1EC0" unicode="&#x1ec0;" horiz-adv-x="1180" 
d="M140 1440h940v-254h-668v-308h548v-254h-548v-370h668v-254h-940v1440zM525 1920h224l288 -330h-250l-150 180l-150 -180h-250zM1043 2190l166 -390h-202l-166 390h202z" />
    <glyph glyph-name="uni1EC1" unicode="&#x1ec1;" horiz-adv-x="1216" 
d="M350.5 41q-127.5 71 -199 198t-71.5 287q0 174 69.5 306.5t193.5 205t283 72.5q156 0 271 -69t176.5 -196t61.5 -298q0 -27 -4 -83h-758q15 -116 79.5 -178t173.5 -62q79 0 136.5 35t87.5 101l272 -78q-40 -97 -113 -167.5t-168 -107.5t-199 -37q-164 0 -291.5 71z
M510 1560h224l288 -330h-250l-150 180l-150 -180h-250zM856 666q-14 109 -66.5 158.5t-151.5 49.5q-215 0 -258 -208h476zM1028 1830l166 -390h-202l-166 390h202z" />
    <glyph glyph-name="uni1EC2" unicode="&#x1ec2;" horiz-adv-x="1200" 
d="M505 1920h224l288 -330h-250l-150 180l-150 -180h-250zM140 1440h940v-254h-668v-308h548v-254h-548v-370h668v-254h-940v1440zM991 2071q49 18 100 18q71 0 128.5 -37t84.5 -109q18 -46 18 -94q0 -67 -36 -119.5t-92 -83t-114 -34.5l-42 109q48 12 81 40.5t33 67.5
q0 21 -10 42q-22 49 -75 49q-45 0 -98 -34l-67 133q40 34 89 52z" />
    <glyph glyph-name="uni1EC3" unicode="&#x1ec3;" horiz-adv-x="1216" 
d="M350.5 41q-127.5 71 -199 198t-71.5 287q0 174 69.5 306.5t193.5 205t283 72.5q156 0 271 -69t176.5 -196t61.5 -298q0 -27 -4 -83h-758q15 -116 79.5 -178t173.5 -62q79 0 136.5 35t87.5 101l272 -78q-40 -97 -113 -167.5t-168 -107.5t-199 -37q-164 0 -291.5 71z
M511 1560h224l288 -330h-250l-150 180l-150 -180h-250zM856 666q-14 109 -66.5 158.5t-151.5 49.5q-215 0 -258 -208h476zM997 1711q49 18 100 18q71 0 128.5 -37t84.5 -109q18 -46 18 -94q0 -67 -36 -119.5t-92 -83t-114 -34.5l-42 109q48 12 81 40.5t33 67.5q0 21 -10 42
q-22 49 -75 49q-45 0 -98 -34l-67 133q40 34 89 52z" />
    <glyph glyph-name="uni1EC4" unicode="&#x1ec4;" horiz-adv-x="1180" 
d="M140 1440h940v-254h-668v-308h548v-254h-548v-370h668v-254h-940v1440zM494 1920h224l288 -330h-250l-150 180l-150 -180h-250zM251 2104q0 95 49.5 151.5t145.5 56.5q48 0 92.5 -22.5t106.5 -65.5q43 -31 69.5 -45.5t49.5 -14.5q22 0 34.5 18.5t12.5 50.5q0 24 -7 49
h168q13 -53 13 -104q0 -95 -49.5 -151.5t-145.5 -56.5q-48 0 -92.5 22.5t-106.5 65.5q-43 31 -69.5 45.5t-49.5 14.5q-22 0 -34.5 -18.5t-12.5 -50.5q0 -24 7 -49h-168q-13 53 -13 104z" />
    <glyph glyph-name="uni1EC5" unicode="&#x1ec5;" horiz-adv-x="1216" 
d="M350.5 41q-127.5 71 -199 198t-71.5 287q0 174 69.5 306.5t193.5 205t283 72.5q156 0 271 -69t176.5 -196t61.5 -298q0 -27 -4 -83h-758q15 -116 79.5 -178t173.5 -62q79 0 136.5 35t87.5 101l272 -78q-40 -97 -113 -167.5t-168 -107.5t-199 -37q-164 0 -291.5 71z
M510 1560h224l288 -330h-250l-150 180l-150 -180h-250zM267 1744q0 95 49.5 151.5t145.5 56.5q48 0 92.5 -22.5t106.5 -65.5q43 -31 69.5 -45.5t49.5 -14.5q22 0 34.5 18.5t12.5 50.5q0 24 -7 49h168q13 -53 13 -104q0 -95 -49.5 -151.5t-145.5 -56.5q-48 0 -92.5 22.5
t-106.5 65.5q-43 31 -69.5 45.5t-49.5 14.5q-22 0 -34.5 -18.5t-12.5 -50.5q0 -24 7 -49h-168q-13 53 -13 104zM856 666q-14 109 -66.5 158.5t-151.5 49.5q-215 0 -258 -208h476z" />
    <glyph glyph-name="uni1EC6" unicode="&#x1ec6;" horiz-adv-x="1180" 
d="M140 1440h940v-254h-668v-308h548v-254h-548v-370h668v-254h-940v1440zM484 1920h224l288 -330h-250l-150 180l-150 -180h-250zM474 -150h272v-240h-272v240z" />
    <glyph glyph-name="uni1EC7" unicode="&#x1ec7;" horiz-adv-x="1216" 
d="M350.5 41q-127.5 71 -199 198t-71.5 287q0 174 69.5 306.5t193.5 205t283 72.5q156 0 271 -69t176.5 -196t61.5 -298q0 -27 -4 -83h-758q15 -116 79.5 -178t173.5 -62q79 0 136.5 35t87.5 101l272 -78q-40 -97 -113 -167.5t-168 -107.5t-199 -37q-164 0 -291.5 71z
M510 1560h224l288 -330h-250l-150 180l-150 -180h-250zM856 666q-14 109 -66.5 158.5t-151.5 49.5q-215 0 -258 -208h476zM471 -150h272v-240h-272v240z" />
    <glyph glyph-name="uni1EC8" unicode="&#x1ec8;" horiz-adv-x="592" 
d="M160 1440h272v-1440h-272v1440zM150 2071q49 18 100 18q71 0 128.5 -37t84.5 -109q18 -46 18 -94q0 -67 -36 -119.5t-92 -83t-114 -34.5l-42 109q48 12 81 40.5t33 67.5q0 21 -10 42q-22 49 -75 49q-45 0 -98 -34l-67 133q40 34 89 52z" />
    <glyph glyph-name="uni1EC9" unicode="&#x1ec9;" horiz-adv-x="592" 
d="M160 1080h272v-1080h-272v1080zM157 1719q49 18 100 18q71 0 128.5 -37t84.5 -109q18 -46 18 -94q0 -67 -36 -119.5t-92 -83t-114 -34.5l-42 109q48 12 81 40.5t33 67.5q0 21 -10 42q-22 49 -75 49q-45 0 -98 -34l-67 133q40 34 89 52z" />
    <glyph glyph-name="uni1ECA" unicode="&#x1eca;" horiz-adv-x="592" 
d="M160 1440h272v-1440h-272v1440zM160 -150h272v-240h-272v240z" />
    <glyph glyph-name="uni1ECB" unicode="&#x1ecb;" horiz-adv-x="592" 
d="M160 1470h272v-240h-272v240zM160 -150h272v-240h-272v240zM160 1080h272v-1080h-272v1080z" />
    <glyph glyph-name="uni1ECC" unicode="&#x1ecc;" horiz-adv-x="1516" 
d="M387 63.5q-158 93.5 -242.5 263.5t-84.5 393t84.5 393t242.5 263.5t371 93.5t371 -93.5t242.5 -263.5t84.5 -393t-84.5 -393t-242.5 -263.5t-371 -93.5t-371 93.5zM454 357q106 -131 312 -131q132 0 222 61t135 172t45 261q0 232 -106 363t-312 131q-132 0 -222 -61
t-135 -172t-45 -261q0 -232 106 -363zM622 -150h272v-240h-272v240z" />
    <glyph glyph-name="uni1ECD" unicode="&#x1ecd;" horiz-adv-x="1254" 
d="M341 42.5q-124 72.5 -192.5 202t-68.5 295.5q0 167 69.5 296.5t194 201.5t282.5 72q161 0 285.5 -72.5t193.5 -202.5t69 -295q0 -166 -69.5 -295.5t-194 -202t-284.5 -72.5q-161 0 -285 72.5zM434.5 308q66.5 -84 191.5 -84q127 0 193.5 86t66.5 230q0 147 -67 231.5
t-193 84.5q-129 0 -193.5 -84.5t-64.5 -231.5q0 -148 66.5 -232zM491 -150h272v-240h-272v240z" />
    <glyph glyph-name="uni1ECE" unicode="&#x1ece;" horiz-adv-x="1516" 
d="M387 63.5q-158 93.5 -242.5 263.5t-84.5 393t84.5 393t242.5 263.5t371 93.5t371 -93.5t242.5 -263.5t84.5 -393t-84.5 -393t-242.5 -263.5t-371 -93.5t-371 93.5zM454 357q106 -131 312 -131q132 0 222 61t135 172t45 261q0 232 -106 363t-312 131q-132 0 -222 -61
t-135 -172t-45 -261q0 -232 106 -363zM677 2071q49 18 100 18q71 0 128.5 -37t84.5 -109q18 -46 18 -94q0 -67 -36 -119.5t-92 -83t-114 -34.5l-42 109q48 12 81 40.5t33 67.5q0 21 -10 42q-22 49 -75 49q-45 0 -98 -34l-67 133q40 34 89 52z" />
    <glyph glyph-name="uni1ECF" unicode="&#x1ecf;" horiz-adv-x="1254" 
d="M341 42.5q-124 72.5 -192.5 202t-68.5 295.5q0 167 69.5 296.5t194 201.5t282.5 72q161 0 285.5 -72.5t193.5 -202.5t69 -295q0 -166 -69.5 -295.5t-194 -202t-284.5 -72.5q-161 0 -285 72.5zM434.5 308q66.5 -84 191.5 -84q127 0 193.5 86t66.5 230q0 147 -67 231.5
t-193 84.5q-129 0 -193.5 -84.5t-64.5 -231.5q0 -148 66.5 -232zM520 1719q49 18 100 18q71 0 128.5 -37t84.5 -109q18 -46 18 -94q0 -67 -36 -119.5t-92 -83t-114 -34.5l-42 109q48 12 81 40.5t33 67.5q0 21 -10 42q-22 49 -75 49q-45 0 -98 -34l-67 133q40 34 89 52z" />
    <glyph glyph-name="uni1ED0" unicode="&#x1ed0;" horiz-adv-x="1516" 
d="M387 63.5q-158 93.5 -242.5 263.5t-84.5 393t84.5 393t242.5 263.5t371 93.5t371 -93.5t242.5 -263.5t84.5 -393t-84.5 -393t-242.5 -263.5t-371 -93.5t-371 93.5zM454 357q106 -131 312 -131q132 0 222 61t135 172t45 261q0 232 -106 363t-312 131q-132 0 -222 -61
t-135 -172t-45 -261q0 -232 106 -363zM663 1920h224l288 -330h-250l-150 180l-150 -180h-250zM1292 2190h202l-166 -390h-202z" />
    <glyph glyph-name="uni1ED1" unicode="&#x1ed1;" horiz-adv-x="1254" 
d="M341 42.5q-124 72.5 -192.5 202t-68.5 295.5q0 167 69.5 296.5t194 201.5t282.5 72q161 0 285.5 -72.5t193.5 -202.5t69 -295q0 -166 -69.5 -295.5t-194 -202t-284.5 -72.5q-161 0 -285 72.5zM526 1560h224l288 -330h-250l-150 180l-150 -180h-250zM434.5 308
q66.5 -84 191.5 -84q127 0 193.5 86t66.5 230q0 147 -67 231.5t-193 84.5q-129 0 -193.5 -84.5t-64.5 -231.5q0 -148 66.5 -232zM1155 1830h202l-166 -390h-202z" />
    <glyph glyph-name="uni1ED2" unicode="&#x1ed2;" horiz-adv-x="1516" 
d="M387 63.5q-158 93.5 -242.5 263.5t-84.5 393t84.5 393t242.5 263.5t371 93.5t371 -93.5t242.5 -263.5t84.5 -393t-84.5 -393t-242.5 -263.5t-371 -93.5t-371 93.5zM454 357q106 -131 312 -131q132 0 222 61t135 172t45 261q0 232 -106 363t-312 131q-132 0 -222 -61
t-135 -172t-45 -261q0 -232 106 -363zM642 1920h224l288 -330h-250l-150 180l-150 -180h-250zM1160 2190l166 -390h-202l-166 390h202z" />
    <glyph glyph-name="uni1ED3" unicode="&#x1ed3;" horiz-adv-x="1254" 
d="M341 42.5q-124 72.5 -192.5 202t-68.5 295.5q0 167 69.5 296.5t194 201.5t282.5 72q161 0 285.5 -72.5t193.5 -202.5t69 -295q0 -166 -69.5 -295.5t-194 -202t-284.5 -72.5q-161 0 -285 72.5zM526 1560h224l288 -330h-250l-150 180l-150 -180h-250zM434.5 308
q66.5 -84 191.5 -84q127 0 193.5 86t66.5 230q0 147 -67 231.5t-193 84.5q-129 0 -193.5 -84.5t-64.5 -231.5q0 -148 66.5 -232zM1044 1830l166 -390h-202l-166 390h202z" />
    <glyph glyph-name="uni1ED4" unicode="&#x1ed4;" horiz-adv-x="1516" 
d="M387 63.5q-158 93.5 -242.5 263.5t-84.5 393t84.5 393t242.5 263.5t371 93.5t371 -93.5t242.5 -263.5t84.5 -393t-84.5 -393t-242.5 -263.5t-371 -93.5t-371 93.5zM454 357q106 -131 312 -131q132 0 222 61t135 172t45 261q0 232 -106 363t-312 131q-132 0 -222 -61
t-135 -172t-45 -261q0 -232 106 -363zM641 1920h224l288 -330h-250l-150 180l-150 -180h-250zM1127 2071q49 18 100 18q71 0 128.5 -37t84.5 -109q18 -46 18 -94q0 -67 -36 -119.5t-92 -83t-114 -34.5l-42 109q48 12 81 40.5t33 67.5q0 21 -10 42q-22 49 -75 49
q-45 0 -98 -34l-67 133q40 34 89 52z" />
    <glyph glyph-name="uni1ED5" unicode="&#x1ed5;" horiz-adv-x="1254" 
d="M341 42.5q-124 72.5 -192.5 202t-68.5 295.5q0 167 69.5 296.5t194 201.5t282.5 72q161 0 285.5 -72.5t193.5 -202.5t69 -295q0 -166 -69.5 -295.5t-194 -202t-284.5 -72.5q-161 0 -285 72.5zM511 1560h224l288 -330h-250l-150 180l-150 -180h-250zM434.5 308
q66.5 -84 191.5 -84q127 0 193.5 86t66.5 230q0 147 -67 231.5t-193 84.5q-129 0 -193.5 -84.5t-64.5 -231.5q0 -148 66.5 -232zM997 1711q49 18 100 18q71 0 128.5 -37t84.5 -109q18 -46 18 -94q0 -67 -36 -119.5t-92 -83t-114 -34.5l-42 109q48 12 81 40.5t33 67.5
q0 21 -10 42q-22 49 -75 49q-45 0 -98 -34l-67 133q40 34 89 52z" />
    <glyph glyph-name="uni1ED6" unicode="&#x1ed6;" horiz-adv-x="1516" 
d="M387 63.5q-158 93.5 -242.5 263.5t-84.5 393t84.5 393t242.5 263.5t371 93.5t371 -93.5t242.5 -263.5t84.5 -393t-84.5 -393t-242.5 -263.5t-371 -93.5t-371 93.5zM634 1920h224l288 -330h-250l-150 180l-150 -180h-250zM454 357q106 -131 312 -131q132 0 222 61t135 172
t45 261q0 232 -106 363t-312 131q-132 0 -222 -61t-135 -172t-45 -261q0 -232 106 -363zM391 2104q0 95 49.5 151.5t145.5 56.5q48 0 92.5 -22.5t106.5 -65.5q43 -31 69.5 -45.5t49.5 -14.5q22 0 34.5 18.5t12.5 50.5q0 24 -7 49h168q13 -53 13 -104q0 -95 -49.5 -151.5
t-145.5 -56.5q-48 0 -92.5 22.5t-106.5 65.5q-43 31 -69.5 45.5t-49.5 14.5q-22 0 -34.5 -18.5t-12.5 -50.5q0 -24 7 -49h-168q-13 53 -13 104z" />
    <glyph glyph-name="uni1ED7" unicode="&#x1ed7;" horiz-adv-x="1254" 
d="M341 42.5q-124 72.5 -192.5 202t-68.5 295.5q0 167 69.5 296.5t194 201.5t282.5 72q161 0 285.5 -72.5t193.5 -202.5t69 -295q0 -166 -69.5 -295.5t-194 -202t-284.5 -72.5q-161 0 -285 72.5zM544 1560h224l288 -330h-250l-150 180l-150 -180h-250zM301 1744
q0 95 49.5 151.5t145.5 56.5q48 0 92.5 -22.5t106.5 -65.5q43 -31 69.5 -45.5t49.5 -14.5q22 0 34.5 18.5t12.5 50.5q0 24 -7 49h168q13 -53 13 -104q0 -95 -49.5 -151.5t-145.5 -56.5q-48 0 -92.5 22.5t-106.5 65.5q-43 31 -69.5 45.5t-49.5 14.5q-22 0 -34.5 -18.5
t-12.5 -50.5q0 -24 7 -49h-168q-13 53 -13 104zM434.5 308q66.5 -84 191.5 -84q127 0 193.5 86t66.5 230q0 147 -67 231.5t-193 84.5q-129 0 -193.5 -84.5t-64.5 -231.5q0 -148 66.5 -232z" />
    <glyph glyph-name="uni1ED8" unicode="&#x1ed8;" horiz-adv-x="1516" 
d="M387 63.5q-158 93.5 -242.5 263.5t-84.5 393t84.5 393t242.5 263.5t371 93.5t371 -93.5t242.5 -263.5t84.5 -393t-84.5 -393t-242.5 -263.5t-371 -93.5t-371 93.5zM454 357q106 -131 312 -131q132 0 222 61t135 172t45 261q0 232 -106 363t-312 131q-132 0 -222 -61
t-135 -172t-45 -261q0 -232 106 -363zM642 1920h224l288 -330h-250l-150 180l-150 -180h-250zM622 -150h272v-240h-272v240z" />
    <glyph glyph-name="uni1ED9" unicode="&#x1ed9;" horiz-adv-x="1254" 
d="M341 42.5q-124 72.5 -192.5 202t-68.5 295.5q0 167 69.5 296.5t194 201.5t282.5 72q161 0 285.5 -72.5t193.5 -202.5t69 -295q0 -166 -69.5 -295.5t-194 -202t-284.5 -72.5q-161 0 -285 72.5zM512 1560h224l288 -330h-250l-150 180l-150 -180h-250zM434.5 308
q66.5 -84 191.5 -84q127 0 193.5 86t66.5 230q0 147 -67 231.5t-193 84.5q-129 0 -193.5 -84.5t-64.5 -231.5q0 -148 66.5 -232zM514 -150h272v-240h-272v240z" />
    <glyph glyph-name="uni1EDA" unicode="&#x1eda;" horiz-adv-x="1516" 
d="M1342 1539q0 -168 -114 -221l-11 -5q115 -99 177 -251t62 -342q0 -223 -84.5 -393t-242.5 -263.5t-371 -93.5t-371 93.5t-242.5 263.5t-84.5 393t84.5 393t242.5 263.5t371 93.5q101 0 195 -23q53 -11 74 -11q23 0 44 9q31 14 45 39.5t16.5 53.5t2.5 78l202 1
q5 -35 5 -78zM454 357q106 -131 312 -131q132 0 222 61t135 172t45 261q0 232 -106 363t-312 131q-132 0 -222 -61t-135 -172t-45 -261q0 -232 106 -363zM831 1980h202l-166 -390h-202z" />
    <glyph glyph-name="uni1EDB" unicode="&#x1edb;" horiz-adv-x="1254" 
d="M1174 1182q0 -168 -114 -221q-13 -6 -36 -13q72 -77 111 -181t39 -227q0 -166 -69.5 -295.5t-194 -202t-284.5 -72.5q-161 0 -285 72.5t-192.5 202t-68.5 295.5q0 167 69.5 296.5t194 201.5t282.5 72q71 0 143 -16q60 -15 89 -15q24 0 45 9q31 14 45 39.5t16.5 53.5
t2.5 78l202 1q5 -35 5 -78zM434.5 308q66.5 -84 191.5 -84q127 0 193.5 86t66.5 230q0 147 -67 231.5t-193 84.5q-129 0 -193.5 -84.5t-64.5 -231.5q0 -148 66.5 -232zM695 1620h202l-166 -390h-202z" />
    <glyph glyph-name="uni1EDC" unicode="&#x1edc;" horiz-adv-x="1516" 
d="M1342 1539q0 -168 -114 -221l-11 -5q115 -99 177 -251t62 -342q0 -223 -84.5 -393t-242.5 -263.5t-371 -93.5t-371 93.5t-242.5 263.5t-84.5 393t84.5 393t242.5 263.5t371 93.5q101 0 195 -23q53 -11 74 -11q23 0 44 9q31 14 45 39.5t16.5 53.5t2.5 78l202 1
q5 -35 5 -78zM454 357q106 -131 312 -131q132 0 222 61t135 172t45 261q0 232 -106 363t-312 131q-132 0 -222 -61t-135 -172t-45 -261q0 -232 106 -363zM665 1980l166 -390h-202l-166 390h202z" />
    <glyph glyph-name="uni1EDD" unicode="&#x1edd;" horiz-adv-x="1254" 
d="M1174 1182q0 -168 -114 -221q-13 -6 -36 -13q72 -77 111 -181t39 -227q0 -166 -69.5 -295.5t-194 -202t-284.5 -72.5q-161 0 -285 72.5t-192.5 202t-68.5 295.5q0 167 69.5 296.5t194 201.5t282.5 72q71 0 143 -16q60 -15 89 -15q24 0 45 9q31 14 45 39.5t16.5 53.5
t2.5 78l202 1q5 -35 5 -78zM549 1620l166 -390h-202l-166 390h202zM434.5 308q66.5 -84 191.5 -84q127 0 193.5 86t66.5 230q0 147 -67 231.5t-193 84.5q-129 0 -193.5 -84.5t-64.5 -231.5q0 -148 66.5 -232z" />
    <glyph glyph-name="uni1EDE" unicode="&#x1ede;" horiz-adv-x="1516" 
d="M387 63.5q-158 93.5 -242.5 263.5t-84.5 393t84.5 393t242.5 263.5t371 93.5q101 0 195 -23q53 -11 74 -11q23 0 44 9q31 14 45 39.5t16.5 53.5t2.5 78l202 1q5 -35 5 -78q0 -168 -114 -221l-11 -5q115 -99 177 -251t62 -342q0 -223 -84.5 -393t-242.5 -263.5t-371 -93.5
t-371 93.5zM454 357q106 -131 312 -131q132 0 222 61t135 172t45 261q0 232 -106 363t-312 131q-132 0 -222 -61t-135 -172t-45 -261q0 -232 106 -363zM677 2071q49 18 100 18q71 0 128.5 -37t84.5 -109q18 -46 18 -94q0 -67 -36 -119.5t-92 -83t-114 -34.5l-42 109
q48 12 81 40.5t33 67.5q0 21 -10 42q-22 49 -75 49q-45 0 -98 -34l-67 133q40 34 89 52z" />
    <glyph glyph-name="uni1EDF" unicode="&#x1edf;" horiz-adv-x="1254" 
d="M341 42.5q-124 72.5 -192.5 202t-68.5 295.5q0 167 69.5 296.5t194 201.5t282.5 72q71 0 143 -16q60 -15 89 -15q24 0 45 9q31 14 45 39.5t16.5 53.5t2.5 78l202 1q5 -35 5 -78q0 -168 -114 -221q-13 -6 -36 -13q72 -77 111 -181t39 -227q0 -166 -69.5 -295.5t-194 -202
t-284.5 -72.5q-161 0 -285 72.5zM434.5 308q66.5 -84 191.5 -84q127 0 193.5 86t66.5 230q0 147 -67 231.5t-193 84.5q-129 0 -193.5 -84.5t-64.5 -231.5q0 -148 66.5 -232zM520 1719q49 18 100 18q71 0 128.5 -37t84.5 -109q18 -46 18 -94q0 -67 -36 -119.5t-92 -83
t-114 -34.5l-42 109q48 12 81 40.5t33 67.5q0 21 -10 42q-22 49 -75 49q-45 0 -98 -34l-67 133q40 34 89 52z" />
    <glyph glyph-name="uni1EE0" unicode="&#x1ee0;" horiz-adv-x="1516" 
d="M387 63.5q-158 93.5 -242.5 263.5t-84.5 393t84.5 393t242.5 263.5t371 93.5q101 0 195 -23q53 -11 74 -11q23 0 44 9q31 14 45 39.5t16.5 53.5t2.5 78l202 1q5 -35 5 -78q0 -168 -114 -221l-11 -5q115 -99 177 -251t62 -342q0 -223 -84.5 -393t-242.5 -263.5t-371 -93.5
t-371 93.5zM454 357q106 -131 312 -131q132 0 222 61t135 172t45 261q0 232 -106 363t-312 131q-132 0 -222 -61t-135 -172t-45 -261q0 -232 106 -363zM389 1730q0 95 49.5 151.5t145.5 56.5q48 0 92.5 -22.5t106.5 -65.5q43 -31 69.5 -45.5t49.5 -14.5q22 0 34.5 18.5
t12.5 50.5q0 24 -7 49h168q13 -53 13 -104q0 -95 -49.5 -151.5t-145.5 -56.5q-48 0 -92.5 22.5t-106.5 65.5q-43 31 -69.5 45.5t-49.5 14.5q-22 0 -34.5 -18.5t-12.5 -50.5q0 -24 7 -49h-168q-13 53 -13 104z" />
    <glyph glyph-name="uni1EE1" unicode="&#x1ee1;" horiz-adv-x="1254" 
d="M341 42.5q-124 72.5 -192.5 202t-68.5 295.5q0 167 69.5 296.5t194 201.5t282.5 72q71 0 143 -16q60 -15 89 -15q24 0 45 9q31 14 45 39.5t16.5 53.5t2.5 78l202 1q5 -35 5 -78q0 -168 -114 -221q-13 -6 -36 -13q72 -77 111 -181t39 -227q0 -166 -69.5 -295.5t-194 -202
t-284.5 -72.5q-161 0 -285 72.5zM281 1370q0 95 49.5 151.5t145.5 56.5q48 0 92.5 -22.5t106.5 -65.5q43 -31 69.5 -45.5t49.5 -14.5q22 0 34.5 18.5t12.5 50.5q0 24 -7 49h168q13 -53 13 -104q0 -95 -49.5 -151.5t-145.5 -56.5q-48 0 -92.5 22.5t-106.5 65.5
q-43 31 -69.5 45.5t-49.5 14.5q-22 0 -34.5 -18.5t-12.5 -50.5q0 -24 7 -49h-168q-13 53 -13 104zM434.5 308q66.5 -84 191.5 -84q127 0 193.5 86t66.5 230q0 147 -67 231.5t-193 84.5q-129 0 -193.5 -84.5t-64.5 -231.5q0 -148 66.5 -232z" />
    <glyph glyph-name="uni1EE2" unicode="&#x1ee2;" horiz-adv-x="1516" 
d="M387 63.5q-158 93.5 -242.5 263.5t-84.5 393t84.5 393t242.5 263.5t371 93.5q101 0 195 -23q53 -11 74 -11q23 0 44 9q31 14 45 39.5t16.5 53.5t2.5 78l202 1q5 -35 5 -78q0 -168 -114 -221l-11 -5q115 -99 177 -251t62 -342q0 -223 -84.5 -393t-242.5 -263.5t-371 -93.5
t-371 93.5zM454 357q106 -131 312 -131q132 0 222 61t135 172t45 261q0 232 -106 363t-312 131q-132 0 -222 -61t-135 -172t-45 -261q0 -232 106 -363zM646 -150h272v-240h-272v240z" />
    <glyph glyph-name="uni1EE3" unicode="&#x1ee3;" horiz-adv-x="1254" 
d="M341 42.5q-124 72.5 -192.5 202t-68.5 295.5q0 167 69.5 296.5t194 201.5t282.5 72q71 0 143 -16q60 -15 89 -15q24 0 45 9q31 14 45 39.5t16.5 53.5t2.5 78l202 1q5 -35 5 -78q0 -168 -114 -221q-13 -6 -36 -13q72 -77 111 -181t39 -227q0 -166 -69.5 -295.5t-194 -202
t-284.5 -72.5q-161 0 -285 72.5zM434.5 308q66.5 -84 191.5 -84q127 0 193.5 86t66.5 230q0 147 -67 231.5t-193 84.5q-129 0 -193.5 -84.5t-64.5 -231.5q0 -148 66.5 -232zM513 -150h272v-240h-272v240z" />
    <glyph glyph-name="uni1EE4" unicode="&#x1ee4;" horiz-adv-x="1452" 
d="M420 40.5q-133 70.5 -206.5 199.5t-73.5 300v898l276 2v-898q0 -93 41 -165t112 -111.5t157 -39.5q87 0 158 40.5t111.5 112.5t40.5 163v898h276v-900q0 -171 -73.5 -300t-206.5 -199.5t-306 -70.5t-306 70.5zM630 -150h272v-240h-272v240z" />
    <glyph glyph-name="uni1EE5" unicode="&#x1ee5;" 
d="M258.5 65q-93.5 97 -116 205t-22.5 204v606h276v-510q0 -82 12 -154t63.5 -132t156.5 -60q94 0 162 64.5t68 243.5v548h274v-1080h-240v111q-61 -68 -149 -105.5t-201 -37.5q-190 0 -283.5 97zM503 -150h272v-240h-272v240z" />
    <glyph glyph-name="uni1EE6" unicode="&#x1ee6;" horiz-adv-x="1452" 
d="M420 40.5q-133 70.5 -206.5 199.5t-73.5 300v898l276 2v-898q0 -93 41 -165t112 -111.5t157 -39.5q87 0 158 40.5t111.5 112.5t40.5 163v898h276v-900q0 -171 -73.5 -300t-206.5 -199.5t-306 -70.5t-306 70.5zM635 2071q49 18 100 18q71 0 128.5 -37t84.5 -109
q18 -46 18 -94q0 -67 -36 -119.5t-92 -83t-114 -34.5l-42 109q48 12 81 40.5t33 67.5q0 21 -10 42q-22 49 -75 49q-45 0 -98 -34l-67 133q40 34 89 52z" />
    <glyph glyph-name="uni1EE7" unicode="&#x1ee7;" 
d="M258.5 65q-93.5 97 -116 205t-22.5 204v606h276v-510q0 -82 12 -154t63.5 -132t156.5 -60q94 0 162 64.5t68 243.5v548h274v-1080h-240v111q-61 -68 -149 -105.5t-201 -37.5q-190 0 -283.5 97zM520 1719q49 18 100 18q71 0 128.5 -37t84.5 -109q18 -46 18 -94
q0 -67 -36 -119.5t-92 -83t-114 -34.5l-42 109q48 12 81 40.5t33 67.5q0 21 -10 42q-22 49 -75 49q-45 0 -98 -34l-67 133q40 34 89 52z" />
    <glyph glyph-name="uni1EE8" unicode="&#x1ee8;" horiz-adv-x="1452" 
d="M420 40.5q-133 70.5 -206.5 199.5t-73.5 300v898l276 2v-898q0 -93 41 -165t112 -111.5t157 -39.5q87 0 158 40.5t111.5 112.5t40.5 163v898h134q55 0 80 4q71 12 94.5 57t23.5 118l202 1q5 -43 5 -72q0 -160 -113 -222q-56 -32 -150 -37v-749q0 -171 -73.5 -300
t-206.5 -199.5t-306 -70.5t-306 70.5zM789 1980h202l-166 -390h-202z" />
    <glyph glyph-name="uni1EE9" unicode="&#x1ee9;" 
d="M258.5 65q-93.5 97 -116 205t-22.5 204v606h276v-510q0 -82 12 -154t63.5 -132t156.5 -60q94 0 162 64.5t68 243.5v548h72q55 0 80 4q71 12 94.5 57t23.5 118l202 1q5 -43 5 -72q0 -160 -113 -222q-40 -22 -90 -30v-936h-240v111q-61 -68 -149 -105.5t-201 -37.5
q-190 0 -283.5 97zM679 1620h202l-166 -390h-202z" />
    <glyph glyph-name="uni1EEA" unicode="&#x1eea;" horiz-adv-x="1452" 
d="M420 40.5q-133 70.5 -206.5 199.5t-73.5 300v898l276 2v-898q0 -93 41 -165t112 -111.5t157 -39.5q87 0 158 40.5t111.5 112.5t40.5 163v898h134q55 0 80 4q71 12 94.5 57t23.5 118l202 1q5 -43 5 -72q0 -160 -113 -222q-56 -32 -150 -37v-749q0 -171 -73.5 -300
t-206.5 -199.5t-306 -70.5t-306 70.5zM678 1980l166 -390h-202l-166 390h202z" />
    <glyph glyph-name="uni1EEB" unicode="&#x1eeb;" 
d="M258.5 65q-93.5 97 -116 205t-22.5 204v606h276v-510q0 -82 12 -154t63.5 -132t156.5 -60q94 0 162 64.5t68 243.5v548h136l16 2q71 12 94.5 57t23.5 118l202 1q5 -43 5 -72q0 -160 -113 -222q-40 -22 -90 -30v-934h-240v111q-61 -68 -149 -105.5t-201 -37.5
q-190 0 -283.5 97zM558 1620l166 -390h-202l-166 390h202z" />
    <glyph glyph-name="uni1EEC" unicode="&#x1eec;" horiz-adv-x="1452" 
d="M420 40.5q-133 70.5 -206.5 199.5t-73.5 300v898l276 2v-898q0 -93 41 -165t112 -111.5t157 -39.5q87 0 158 40.5t111.5 112.5t40.5 163v898h134q55 0 80 4q71 12 94.5 57t23.5 118l202 1q5 -43 5 -72q0 -160 -113 -222q-56 -32 -150 -37v-749q0 -171 -73.5 -300
t-206.5 -199.5t-306 -70.5t-306 70.5zM635 2071q49 18 100 18q71 0 128.5 -37t84.5 -109q18 -46 18 -94q0 -67 -36 -119.5t-92 -83t-114 -34.5l-42 109q48 12 81 40.5t33 67.5q0 21 -10 42q-22 49 -75 49q-45 0 -98 -34l-67 133q40 34 89 52z" />
    <glyph glyph-name="uni1EED" unicode="&#x1eed;" 
d="M258.5 65q-93.5 97 -116 205t-22.5 204v606h276v-510q0 -82 12 -154t63.5 -132t156.5 -60q94 0 162 64.5t68 243.5v548h72q55 0 80 4q71 12 94.5 57t23.5 118l202 1q5 -43 5 -72q0 -160 -113 -222q-40 -22 -90 -30v-936h-240v111q-61 -68 -149 -105.5t-201 -37.5
q-190 0 -283.5 97zM520 1719q49 18 100 18q71 0 128.5 -37t84.5 -109q18 -46 18 -94q0 -67 -36 -119.5t-92 -83t-114 -34.5l-42 109q48 12 81 40.5t33 67.5q0 21 -10 42q-22 49 -75 49q-45 0 -98 -34l-67 133q40 34 89 52z" />
    <glyph glyph-name="uni1EEE" unicode="&#x1eee;" horiz-adv-x="1452" 
d="M420 40.5q-133 70.5 -206.5 199.5t-73.5 300v898l276 2v-898q0 -93 41 -165t112 -111.5t157 -39.5q87 0 158 40.5t111.5 112.5t40.5 163v898h134q55 0 80 4q71 12 94.5 57t23.5 118l202 1q5 -43 5 -72q0 -160 -113 -222q-56 -32 -150 -37v-749q0 -171 -73.5 -300
t-206.5 -199.5t-306 -70.5t-306 70.5zM389 1730q0 95 49.5 151.5t145.5 56.5q48 0 92.5 -22.5t106.5 -65.5q43 -31 69.5 -45.5t49.5 -14.5q22 0 34.5 18.5t12.5 50.5q0 24 -7 49h168q13 -53 13 -104q0 -95 -49.5 -151.5t-145.5 -56.5q-48 0 -92.5 22.5t-106.5 65.5
q-43 31 -69.5 45.5t-49.5 14.5q-22 0 -34.5 -18.5t-12.5 -50.5q0 -24 7 -49h-168q-13 53 -13 104z" />
    <glyph glyph-name="uni1EEF" unicode="&#x1eef;" 
d="M258.5 65q-93.5 97 -116 205t-22.5 204v606h276v-510q0 -82 12 -154t63.5 -132t156.5 -60q94 0 162 64.5t68 243.5v548h72q55 0 80 4q71 12 94.5 57t23.5 118l202 1q5 -43 5 -72q0 -160 -113 -222q-40 -22 -90 -30v-936h-240v111q-61 -68 -149 -105.5t-201 -37.5
q-190 0 -283.5 97zM281 1370q0 95 49.5 151.5t145.5 56.5q48 0 92.5 -22.5t106.5 -65.5q43 -31 69.5 -45.5t49.5 -14.5q22 0 34.5 18.5t12.5 50.5q0 24 -7 49h168q13 -53 13 -104q0 -95 -49.5 -151.5t-145.5 -56.5q-48 0 -92.5 22.5t-106.5 65.5q-43 31 -69.5 45.5
t-49.5 14.5q-22 0 -34.5 -18.5t-12.5 -50.5q0 -24 7 -49h-168q-13 53 -13 104z" />
    <glyph glyph-name="uni1EF0" unicode="&#x1ef0;" horiz-adv-x="1452" 
d="M420 40.5q-133 70.5 -206.5 199.5t-73.5 300v898l276 2v-898q0 -93 41 -165t112 -111.5t157 -39.5q87 0 158 40.5t111.5 112.5t40.5 163v898h134q55 0 80 4q71 12 94.5 57t23.5 118l202 1q5 -43 5 -72q0 -160 -113 -222q-56 -32 -150 -37v-749q0 -171 -73.5 -300
t-206.5 -199.5t-306 -70.5t-306 70.5zM590 -150h272v-240h-272v240z" />
    <glyph glyph-name="uni1EF1" unicode="&#x1ef1;" 
d="M258.5 65q-93.5 97 -116 205t-22.5 204v606h276v-510q0 -82 12 -154t63.5 -132t156.5 -60q94 0 162 64.5t68 243.5v548h72q55 0 80 4q71 12 94.5 57t23.5 118l202 1q5 -43 5 -72q0 -160 -113 -222q-40 -22 -90 -30v-936h-240v111q-61 -68 -149 -105.5t-201 -37.5
q-190 0 -283.5 97zM513 -150h272v-240h-272v240z" />
    <glyph glyph-name="Ygrave" unicode="&#x1ef2;" horiz-adv-x="1260" 
d="M492 586l-492 854h318l312 -542l312 542h318l-492 -854v-586h-276v586zM567 1980l166 -390h-202l-166 390h202z" />
    <glyph glyph-name="ygrave" unicode="&#x1ef3;" horiz-adv-x="1140" 
d="M456 9l-436 1071h282l284 -735l282 735h272l-610 -1560h-252zM522 1620l166 -390h-202l-166 390h202z" />
    <glyph glyph-name="uni1EF4" unicode="&#x1ef4;" horiz-adv-x="1260" 
d="M492 586l-492 854h318l312 -542l312 542h318l-492 -854v-586h-276v586zM494 -150h272v-240h-272v240z" />
    <glyph glyph-name="uni1EF5" unicode="&#x1ef5;" horiz-adv-x="1140" 
d="M456 9l-436 1071h282l284 -735l282 735h272l-610 -1560h-252zM800 -150h272v-240h-272v240z" />
    <glyph glyph-name="uni1EF6" unicode="&#x1ef6;" horiz-adv-x="1260" 
d="M492 586l-492 854h318l312 -542l312 542h318l-492 -854v-586h-276v586zM510 2071q49 18 100 18q71 0 128.5 -37t84.5 -109q18 -46 18 -94q0 -67 -36 -119.5t-92 -83t-114 -34.5l-42 109q48 12 81 40.5t33 67.5q0 21 -10 42q-22 49 -75 49q-45 0 -98 -34l-67 133
q40 34 89 52z" />
    <glyph glyph-name="uni1EF7" unicode="&#x1ef7;" horiz-adv-x="1140" 
d="M456 9l-436 1071h282l284 -735l282 735h272l-610 -1560h-252zM460 1719q49 18 100 18q71 0 128.5 -37t84.5 -109q18 -46 18 -94q0 -67 -36 -119.5t-92 -83t-114 -34.5l-42 109q48 12 81 40.5t33 67.5q0 21 -10 42q-22 49 -75 49q-45 0 -98 -34l-67 133q40 34 89 52z" />
    <glyph glyph-name="uni1EF8" unicode="&#x1ef8;" horiz-adv-x="1260" 
d="M492 586l-492 854h318l312 -542l312 542h318l-492 -854v-586h-276v586zM268 1730q0 95 49.5 151.5t145.5 56.5q48 0 92.5 -22.5t106.5 -65.5q43 -31 69.5 -45.5t49.5 -14.5q22 0 34.5 18.5t12.5 50.5q0 24 -7 49h168q13 -53 13 -104q0 -95 -49.5 -151.5t-145.5 -56.5
q-48 0 -92.5 22.5t-106.5 65.5q-43 31 -69.5 45.5t-49.5 14.5q-22 0 -34.5 -18.5t-12.5 -50.5q0 -24 7 -49h-168q-13 53 -13 104z" />
    <glyph glyph-name="uni1EF9" unicode="&#x1ef9;" horiz-adv-x="1140" 
d="M456 9l-436 1071h282l284 -735l282 735h272l-610 -1560h-252zM659.5 1258.5q-44.5 22.5 -106.5 65.5q-43 31 -69.5 45.5t-49.5 14.5q-22 0 -34.5 -18.5t-12.5 -50.5q0 -24 7 -49h-168q-13 53 -13 104q0 95 49.5 151.5t145.5 56.5q48 0 92.5 -22.5t106.5 -65.5
q43 -31 69.5 -45.5t49.5 -14.5q22 0 34.5 18.5t12.5 50.5q0 24 -7 49h168q13 -53 13 -104q0 -95 -49.5 -151.5t-145.5 -56.5q-48 0 -92.5 22.5z" />
    </font>
</defs>
</svg>
