<?xml version="1.0" standalone="no"?>
<!DOCTYPE svg PUBLIC "-//W3C//DTD SVG 1.1//EN" "http://www.w3.org/Graphics/SVG/1.1/DTD/svg11.dtd" >
<svg xmlns="http://www.w3.org/2000/svg" xmlns:xlink="http://www.w3.org/1999/xlink" version="1.1">
<metadata>
Created by FontForge 20170731 at Wed Jul 20 07:20:52 2022
 By Aleksey,,,
Copyright 2019-2021 The Manrope Project Authors (https://github.com/sharanda/manrope)
</metadata>
<defs>
<font id="Manrope-Light" horiz-adv-x="1195" >
  <font-face 
    font-family="Manrope Light"
    font-weight="300"
    font-stretch="normal"
    units-per-em="2048"
    panose-1="0 0 0 0 0 0 0 0 0 0"
    ascent="1638"
    descent="-410"
    x-height="1106"
    cap-height="1475"
    bbox="-390 -543 2580 2232.67"
    underline-thickness="102"
    underline-position="-358"
    unicode-range="U+000D-FB02"
  />
<missing-glyph horiz-adv-x="1515" 
d="M205 0v117h1106v-117h-1106zM205 147v82h1106v-82h-1106zM205 266v76h1106v-76h-1106zM205 383v72h1106v-72h-1106zM205 502v67h1106v-67h-1106zM205 621v61h1106v-61h-1106zM205 737v58h1106v-58h-1106zM205 858v49h1106v-49h-1106zM205 975v45h1106v-45h-1106z
M205 1092v43h1106v-43h-1106zM205 1212v37h1106v-37h-1106zM205 1329v33h1106v-33h-1106zM205 1448v27h1106v-27h-1106z" />
    <glyph glyph-name="uniE001" unicode="&#x28;c&#x29;" horiz-adv-x="1793" 
d="M897 -33q-200 0 -368.5 98.5t-266.5 267t-98 367.5q0 149 58 284.5t156 234t234 157t285 58.5t284.5 -58.5t233.5 -156.5t156 -234t58 -285q0 -199 -98 -367.5t-266.5 -267t-367.5 -98.5zM281 702q0 -126 48.5 -240t131 -196.5t196.5 -131t240 -48.5q166 0 307 82
t223 224t82 310q0 166 -82 307.5t-223 223.5t-307 82q-126 0 -240 -48.5t-196.5 -131t-131 -195.5t-48.5 -238zM520 703q4 189 90 298q108 133 298 133q114 0 200 -53q103 -63 137 -173l-104 -32q-29 69 -94 114q-58 41 -143 41q-128 0 -205 -97q-63 -81 -63 -228
q0 -150 63 -236q72 -96 204 -96q85 0 147 40q54 37 89 111l106 -32q-44 -104 -128 -162q-91 -61 -214 -61q-187 0 -293 132q-90 112 -90 301z" />
    <glyph glyph-name="uniE002" unicode="&#x20;&#x3c;&#x33;&#x20;" horiz-adv-x="2394" 
d="M1198 -31q-51 0 -81 34l-437 461q-56 61 -82.5 136.5t-24 149t30 144.5t74.5 124.5t115 86t145 32.5q129 0 260 -103q121 103 256 103q79 0 148 -33t115.5 -87t73.5 -125t29 -144.5t-25 -149t-83 -134.5l-437 -461q-30 -34 -77 -34zM760 538l438 -461l437 461
q48 52 67 119t6 131t-45 119t-88 88.5t-121 33.5q-132 0 -256 -139q-138 139 -260 139q-55 0 -103 -24.5t-80.5 -64t-51.5 -92t-20.5 -106t18 -108t59.5 -96.5z" />
    <glyph glyph-name="uniE003" unicode="&#x28;&#x3e;&#x29;" horiz-adv-x="2355" 
d="M1049 1055l381 -318l-381 -317v635zM164 737q0 -206 80.5 -393.5t216.5 -323t323.5 -216t393.5 -80.5t393.5 80.5t323 216t216 323t80.5 393.5t-80.5 393.5t-216 323.5t-323 216.5t-393.5 80.5t-393.5 -80.5t-323.5 -216.5t-216.5 -323.5t-80.5 -393.5zM283 740
q0 182 70.5 347t190.5 284.5t286.5 190t350.5 70.5q182 0 347 -70.5t284.5 -190t190 -284.5t70.5 -347q0 -184 -70.5 -350.5t-190 -286.5t-284.5 -190.5t-347 -70.5q-184 0 -350.5 70.5t-286.5 190.5t-190.5 286.5t-70.5 350.5z" />
    <glyph glyph-name="uniE007" unicode="ff" horiz-adv-x="1321" 
d="M258 1209q0 73 14 126.5t53 95.5q70 74 223 74h142v-102h-132q-93 0 -137.5 -45t-44.5 -145v-107h493v103q0 73 14 126.5t53 95.5q70 74 223 74h143v-102h-133q-93 0 -137.5 -45t-44.5 -145v-107h315v-108h-315v-998h-118v998h-493v-998h-118v998h-197v108h197v103z" />
    <glyph glyph-name="uniE008" unicode="ffl" horiz-adv-x="1845" 
d="M987 998v-998h-118v998h-493v-998h-118v998h-197v108h197v103q0 73 14 126.5t53 95.5q70 74 223 74h142v-102h-132q-93 0 -137.5 -45t-44.5 -145v-107h493v103q0 73 14 126.5t53 95.5q70 74 223 74h143v-102h-133q-93 0 -137.5 -45t-44.5 -145v-107h577v369h117v-1475
h-117v998h-577z" />
    <glyph glyph-name="uniE009" unicode="tt" horiz-adv-x="1473" 
d="M730 0q-92 -17 -174 -14.5t-151.5 39.5t-102.5 105q-16 34 -24 75t-9 70t-1 88v21v614h-248v108h248v307h119v-307h557v307h119v-307h343v-108h-343v-612v-42.5v-40.5t1 -31.5t3.5 -32.5t6.5 -25.5t11 -26.5q35 -68 117 -86t204 5v-106q-92 -17 -174 -14.5t-151.5 39.5
t-102.5 105q-16 34 -24 75t-9 70t-1 88v21v614h-557v-612v-37v-35.5t0.5 -28.5t2 -29t4 -23.5t6.5 -24.5t10 -21q35 -68 116.5 -86t203.5 5v-106z" />
    <glyph glyph-name="fi" unicode="fi" horiz-adv-x="1186" 
d="M258 1209q0 73 14 126.5t53 95.5q70 74 223 74h142v-102h-132q-93 0 -137.5 -45t-44.5 -145v-107h314v-108h-314v-998h-118v998h-197v108h197v103zM905 0v1106h118v-1106h-118zM905 1329v151h118v-151h-118z" />
    <glyph glyph-name="fl" unicode="fl" horiz-adv-x="1233" 
d="M376 998v-998h-118v998h-197v108h197v103q0 73 14 126.5t53 95.5q70 74 223 74h142v-102h-132q-93 0 -137.5 -45t-44.5 -145v-107h576v369h118v-1475h-118v998h-576z" />
    <glyph glyph-name="hyphen_hyphen.liga" unicode="&#x2d;&#x2d;" horiz-adv-x="1105" 
d="M123 592v107h860v-107h-860z" />
    <glyph glyph-name="hyphen_greater.liga" unicode="&#x2d;&#x3e;" horiz-adv-x="2042" 
d="M287 591v107h1278l-355 356l69 67l477 -476l-477 -477l-69 68l356 355h-1279z" />
    <glyph glyph-name="less_hyphen.liga" unicode="&#x3c;&#x2d;" horiz-adv-x="2042" 
d="M1756 591h-1279l356 -355l-69 -68l-477 477l477 476l69 -67l-355 -356h1278v-107z" />
    <glyph glyph-name=".notdef" horiz-adv-x="1515" 
d="M205 0v117h1106v-117h-1106zM205 147v82h1106v-82h-1106zM205 266v76h1106v-76h-1106zM205 383v72h1106v-72h-1106zM205 502v67h1106v-67h-1106zM205 621v61h1106v-61h-1106zM205 737v58h1106v-58h-1106zM205 858v49h1106v-49h-1106zM205 975v45h1106v-45h-1106z
M205 1092v43h1106v-43h-1106zM205 1212v37h1106v-37h-1106zM205 1329v33h1106v-33h-1106zM205 1448v27h1106v-27h-1106z" />
    <glyph glyph-name=".null" horiz-adv-x="1228" 
 />
    <glyph glyph-name="nonmarkingreturn" horiz-adv-x="2101" 
 />
    <glyph glyph-name="CR" unicode="&#xd;" horiz-adv-x="1228" 
 />
    <glyph glyph-name="space" unicode=" " horiz-adv-x="409" 
 />
    <glyph glyph-name="exclam" unicode="!" horiz-adv-x="609" 
d="M246 0v151h118v-151h-118zM246 369v1106h118v-1106h-118z" />
    <glyph glyph-name="quotedbl" unicode="&#x22;" horiz-adv-x="751" 
d="M123 1106v369h118v-369h-118zM429 1106v369h118v-369h-118z" />
    <glyph glyph-name="numbersign" unicode="#" horiz-adv-x="1876" 
d="M433 0l121 459h-431l31 115h433l94 358h-431l31 115h432l113 428h120l-115 -428h373l114 428h120l-115 -428h431l-30 -115h-432l-96 -358h431l-30 -115h-432l-123 -459h-117l121 459h-372l-123 -459h-118zM705 574h372l95 358h-371z" />
    <glyph glyph-name="dollar" unicode="$" horiz-adv-x="1179" 
d="M534 -202v175q-186 21 -310.5 129t-158.5 279l114 20q35 -147 153 -232t285 -85q173 0 278 84.5t105 223.5q0 104 -61 166t-207 107l-318 98q-144 45 -219 133t-75 211q0 165 113.5 273.5t300.5 122.5v176h117v-177q185 -20 307 -133.5t150 -294.5l-116 -21
q-22 151 -133 244t-272 93q-151 1 -249 -78t-98 -201q0 -89 62.5 -150.5t197.5 -102.5l287 -87q173 -53 250.5 -142t77.5 -237q0 -184 -126 -298.5t-338 -123.5v-172h-117z" />
    <glyph glyph-name="percent" unicode="%" horiz-adv-x="1846" 
d="M1355 -31q-153 0 -261 108t-108 261q0 150 110.5 259.5t258.5 109.5q153 0 260.5 -107.5t107.5 -261.5t-107.5 -261.5t-260.5 -107.5zM123 1137q0 150 110 259t259 109q153 0 260.5 -107.5t107.5 -260.5t-108 -261t-260 -108q-153 0 -261 108t-108 261zM184 82l1396 1393
l82 -81l-1396 -1394zM233 1137q0 -105 77 -181.5t182 -76.5t181.5 76.5t76.5 181.5t-76.5 181.5t-181.5 76.5t-182 -76.5t-77 -181.5zM1097 338q0 -105 76.5 -181.5t181.5 -76.5t181.5 76.5t76.5 181.5t-76.5 181.5t-181.5 76.5t-181.5 -76.5t-76.5 -181.5z" />
    <glyph glyph-name="ampersand" unicode="&#x26;" horiz-adv-x="1321" 
d="M613 -31q-265 0 -401 146q-104 111 -110 281q-3 170 95 286q53 67 160 113q-91 92 -129.5 160.5t-38.5 164.5q0 111 54 202.5t150 135.5q95 46 217 46q178 0 288 -85q75 -56 113 -144l-113 -40q-22 56 -79 97q-79 58 -203 58q-95 0 -173 -38q-131 -66 -131 -229
q0 -63 19.5 -106t66.5 -99q22 -25 109 -103l498 -464q9 53 9 117l-2 227h116v-212q0 -149 -23 -225l191 -178l-78 -85l-169 160q-28 -41 -75 -77.5t-96 -59.5q-101 -49 -265 -49zM226 400q2 -123 74 -201q50 -57 133.5 -85.5t177.5 -28.5q147 0 224 44q84 49 127 112
l-509 465q-103 -30 -163 -101q-67 -82 -64 -205z" />
    <glyph glyph-name="quotesingle" unicode="'" horiz-adv-x="404" 
d="M123 1106v369h118v-369h-118z" />
    <glyph glyph-name="parenleft" unicode="(" horiz-adv-x="854" 
d="M676 -359q-182 207 -286 480.5t-103 554.5q-1 281 103 554.5t286 480.5l88 -70q-178 -210 -272.5 -458t-94.5 -507q0 -256 96.5 -510t270.5 -455z" />
    <glyph glyph-name="parenright" unicode=")" horiz-adv-x="854" 
d="M90 -289q174 201 270.5 455t96.5 510q0 259 -94.5 507t-272.5 458l88 70q182 -207 286 -480.5t103 -554.5q1 -281 -103 -554.5t-286 -480.5z" />
    <glyph glyph-name="asterisk" unicode="*" horiz-adv-x="875" 
d="M249 816l-91 67l163 218l-260 81l35 107l257 -87l-3 273h113l-3 -273l258 87l35 -107l-260 -81l161 -218l-91 -67l-156 221z" />
    <glyph glyph-name="plus" unicode="+" horiz-adv-x="1184" 
d="M539 268v416h-416v108h416v414h107v-414h416v-108h-416v-416h-107z" />
    <glyph glyph-name="comma" unicode="," horiz-adv-x="517" 
d="M131 -134q27 -2 43.5 8.5t22 30t7 44t-0.5 51.5h-80v200h148v-251q0 -80 -41.5 -120.5t-106.5 -26.5z" />
    <glyph glyph-name="hyphen" unicode="-" horiz-adv-x="860" 
d="M123 592v107h614v-107h-614z" />
    <glyph glyph-name="period" unicode="." horiz-adv-x="484" 
d="M168 0v148h148v-148h-148z" />
    <glyph glyph-name="slash" unicode="/" horiz-adv-x="761" 
d="M516 1475h123l-393 -1475h-123z" />
    <glyph glyph-name="zero" unicode="0" horiz-adv-x="1216" 
d="M608 -31q-194 0 -329.5 135.5t-135.5 329.5v606q0 194 135.5 329.5t329.5 135.5t329.5 -135.5t135.5 -329.5v-606q0 -194 -135.5 -329.5t-329.5 -135.5zM262 431q0 -143 102 -244.5t244 -101.5t244 101.5t102 244.5v613q0 142 -102 244t-244 102t-244 -102t-102 -244
v-613z" />
    <glyph glyph-name="one" unicode="1" horiz-adv-x="765" 
d="M401 0v1340l-278 -166v135l278 166h119v-1475h-119z" />
    <glyph glyph-name="two" unicode="2" horiz-adv-x="1149" 
d="M102 0l2 113l678 615q85 76 115.5 148.5t30.5 165.5q0 145 -100.5 246.5t-245.5 101.5q-147 0 -248 -103t-101 -245h-118q0 195 135.5 329t332.5 134q129 0 236 -62.5t168 -169t61 -232.5q0 -129 -45 -221t-149 -185l-572 -519h766v-116h-946z" />
    <glyph glyph-name="three" unicode="3" horiz-adv-x="1113" 
d="M530 -30q-163 0 -282.5 83t-165.5 230l112 35q40 -116 128.5 -175.5t206.5 -57.5q159 4 248 100.5t89 260.5t-93 262t-248 98q-89 0 -177 -43l-63 94l530 502h-674v116h835v-117l-465 -445q211 13 345 -117.5t134 -349.5q0 -213 -128 -344.5t-332 -131.5z" />
    <glyph glyph-name="four" unicode="4" 
d="M805 0v299h-703v116l501 1060h132l-501 -1060h571v445h119v-445h169v-116h-169v-299h-119z" />
    <glyph glyph-name="five" unicode="5" horiz-adv-x="1177" 
d="M579 -31q-172 0 -302.5 103t-174.5 265l113 31q32 -126 135.5 -203.5t229.5 -77.5q159 0 267.5 110.5t108.5 265.5q0 158 -111 267.5t-265 109.5q-106 0 -189.5 -49t-135.5 -134l-113 56l45 762h783v-115h-673l-33 -535q135 127 323 127q100 0 190 -38.5t155.5 -103.5
t104 -156t38.5 -191q0 -132 -67 -246t-181.5 -181t-247.5 -67z" />
    <glyph glyph-name="six" unicode="6" horiz-adv-x="1270" 
d="M639 -31q-135 0 -249 66.5t-180.5 181.5t-66.5 252v532q0 213 144.5 358.5t356.5 145.5q129 0 239.5 -61.5t177.5 -166.5l-94 -69q-51 83 -137 132.5t-186 49.5q-162 0 -272 -113t-110 -268v-254q68 91 168.5 143.5t215.5 52.5q203 0 345.5 -143t142.5 -346
q0 -134 -67 -247.5t-181 -179.5t-247 -66zM262 462q0 -157 110 -267t267 -110t266.5 110t109.5 267t-109.5 266.5t-266.5 109.5t-267 -109.5t-110 -266.5z" />
    <glyph glyph-name="seven" unicode="7" horiz-adv-x="1006" 
d="M224 0l553 1358h-695v117h822v-117l-553 -1358h-127z" />
    <glyph glyph-name="eight" unicode="8" horiz-adv-x="1166" 
d="M583 -31q-206 0 -333 119.5t-127 318.5q0 266 219 383q-90 45 -137.5 132.5t-47.5 192.5q0 181 118 285.5t308 104.5q189 0 307 -104.5t118 -285.5q0 -107 -48 -195t-140 -132q111 -58 167 -156t56 -225q0 -199 -127.5 -318.5t-332.5 -119.5zM247 407q0 -153 91.5 -237.5
t244.5 -84.5q152 0 243.5 84.5t91.5 237.5q0 155 -90 238.5t-245 83.5t-245.5 -83.5t-90.5 -238.5zM283 1115q0 -130 81.5 -200t218.5 -70t218 70t81 200q0 131 -81 200.5t-218 69.5t-218.5 -69.5t-81.5 -200.5z" />
    <glyph glyph-name="nine" unicode="9" horiz-adv-x="1270" 
d="M632 1505q135 0 249 -66t180 -181t66 -252v-533q0 -213 -144 -358.5t-356 -145.5q-129 0 -239.5 61.5t-177.5 167.5l94 68q51 -83 137 -132t186 -49q162 0 272 113t110 268v254q-68 -91 -168.5 -144t-215.5 -53q-203 0 -345.5 143.5t-142.5 346.5q0 134 67 247.5t181 179
t247 65.5zM256 1013q0 -157 109.5 -266.5t266.5 -109.5t267 109.5t110 266.5t-110 267t-267 110t-266.5 -110t-109.5 -267z" />
    <glyph glyph-name="colon" unicode=":" horiz-adv-x="582" 
d="M225 174v149h149v-149h-149zM225 783v149h149v-149h-149z" />
    <glyph glyph-name="semicolon" unicode=";" horiz-adv-x="599" 
d="M233 -134q27 -2 43.5 8.5t22 30t7 44t-0.5 51.5h-80v200h149v-251q0 -80 -42 -120.5t-107 -26.5zM225 957v149h149v-149h-149z" />
    <glyph glyph-name="less" unicode="&#x3c;" horiz-adv-x="1242" 
d="M764 168l-477 477l477 477l76 -74l-404 -403l404 -402z" />
    <glyph glyph-name="equal" unicode="=" horiz-adv-x="1536" 
d="M246 852v107h1044v-107h-1044zM246 515v108h1044v-108h-1044z" />
    <glyph glyph-name="greater" unicode="&#x3e;" horiz-adv-x="1242" 
d="M478 168l-76 75l404 402l-404 403l76 74l477 -477z" />
    <glyph glyph-name="question" unicode="?" horiz-adv-x="1052" 
d="M439 402q0 70 1.5 103t12 78t31.5 85q27 53 76 96t108 85t90 75q66 75 66 193q0 113 -59 180q-79 93 -242 93q-154 0 -231 -83q-69 -66 -69 -189h-121q2 79 30 152t81 123q115 112 311 112q216 0 330 -125q96 -103 96 -264q0 -162 -107 -271q-28 -30 -83 -70.5
t-100 -79.5t-66 -78q-9 -16 -14.5 -33.5t-8.5 -29.5t-4.5 -35.5t-2 -32.5t0 -41.5t0.5 -42.5h-126zM439 0v177h126v-177h-126z" />
    <glyph glyph-name="at" unicode="@" horiz-adv-x="1844" 
d="M927 -215q-159 0 -300 58.5t-242.5 159t-161 242.5t-59.5 302q0 219 95 394.5t272.5 277.5t405.5 102q150 0 276.5 -41.5t214.5 -113t148 -166t85 -202t17 -220.5q-13 -188 -94.5 -283.5t-219.5 -95.5q-84 0 -145.5 32.5t-92.5 92.5q-37 -47 -97 -71t-127 -24
q-132 0 -213 83t-81 215q0 136 83 218t213 82q128 0 206 -72v44h94l-1 -315q0 -81 40.5 -129.5t128.5 -48.5q84 0 135.5 69t57.5 189q10 200 -70 349t-224 224.5t-331 75.5q-154 0 -281 -55t-209 -147.5t-127 -212t-44 -251.5q1 -182 88 -332.5t237 -236.5t330 -86
q95 0 191 26.5t169 72.5l42 -92q-187 -114 -409 -114zM719 529q0 -93 50 -141.5t139 -48.5q85 0 135.5 49t50.5 141q0 93 -50 142.5t-135 49.5q-92 0 -141 -50t-49 -142z" />
    <glyph glyph-name="A" unicode="A" horiz-adv-x="1272" 
d="M41 0l522 1475h147l522 -1475h-125l-132 371h-678l-131 -371h-125zM336 482h600l-301 847z" />
    <glyph glyph-name="B" unicode="B" horiz-adv-x="1243" 
d="M143 0v1475h565q172 0 287.5 -106.5t115.5 -264.5q0 -101 -49 -187t-132 -133q120 -53 187 -149.5t67 -228.5q0 -187 -121 -296.5t-312 -109.5h-608zM262 116h450q152 0 249 76t97 208q0 134 -91 226.5t-222 92.5h-483v-603zM262 833h445q117 0 198.5 78.5t81.5 196.5
q0 113 -79.5 183t-200.5 70h-445v-528z" />
    <glyph glyph-name="C" unicode="C" horiz-adv-x="1448" 
d="M732 -31q-162 0 -290 56.5t-211 158.5t-126.5 242.5t-43.5 310.5t43.5 310.5t126.5 242.5t211 158.5t290 56.5q251 0 413.5 -130t221.5 -359l-122 -30q-49 190 -179 297t-334 107q-177 0 -300.5 -84t-183 -229t-61.5 -340q-2 -194 58 -339.5t185 -229t302 -83.5
q204 0 334 106.5t179 296.5l122 -29q-59 -229 -221.5 -359.5t-413.5 -130.5z" />
    <glyph glyph-name="D" unicode="D" horiz-adv-x="1354" 
d="M143 0v1475h440q115 0 193 -11q161 -22 274 -125t166.5 -256.5t53.5 -345.5q0 -193 -53.5 -346.5t-166.5 -256t-274 -124.5q-70 -10 -193 -10h-440zM267 116h316q116 0 179 11q133 23 220 110t124.5 212t37.5 288q0 122 -21.5 223t-66.5 183t-119.5 135t-174.5 70
q-63 11 -179 11h-316v-1243z" />
    <glyph glyph-name="E" unicode="E" horiz-adv-x="1157" 
d="M143 0v1475h912v-115h-794v-560h671v-115h-671v-570h794v-115h-912z" />
    <glyph glyph-name="F" unicode="F" horiz-adv-x="1016" 
d="M143 0v1475h833v-118h-715v-560h592v-119h-592v-678h-118z" />
    <glyph glyph-name="G" unicode="G" horiz-adv-x="1425" 
d="M729 -31q-211 0 -363 96.5t-228.5 269t-76.5 402.5q0 172 44 312.5t128 241.5t210.5 156.5t285.5 55.5q216 0 362 -101.5t207 -277.5l-116 -35q-53 140 -169 219.5t-281 80.5q-133 0 -237 -47.5t-170.5 -134.5t-101.5 -206t-36 -264t33.5 -264t101.5 -206t172 -134.5
t238 -47.5q251 -1 375.5 145t129.5 407h-367v107h490q4 -36 4 -88q0 -149 -39 -272.5t-115 -217t-199 -145.5t-282 -52z" />
    <glyph glyph-name="H" unicode="H" horiz-adv-x="1377" 
d="M143 0v1475h118v-680h854v680h119v-1475h-119v680h-854v-680h-118z" />
    <glyph glyph-name="I" unicode="I" horiz-adv-x="445" 
d="M164 0v1475h118v-1475h-118z" />
    <glyph glyph-name="J" unicode="J" horiz-adv-x="924" 
d="M381 -29q-140 0 -243.5 79.5t-137.5 213.5l119 28q21 -90 93.5 -148t169.5 -58q68 0 129 31t95 95q16 29 24 68t9 69t1 94v1032h119v-1032v-37v-37.5t-0.5 -32t-2 -34t-3.5 -30t-5.5 -32.5t-8.5 -28t-11.5 -31.5t-15.5 -29.5q-51 -88 -137.5 -134t-193.5 -46z" />
    <glyph glyph-name="K" unicode="K" horiz-adv-x="1179" 
d="M143 0v1475h118v-701l702 701h155l-705 -709l767 -766h-158l-761 754v-754h-118z" />
    <glyph glyph-name="L" unicode="L" horiz-adv-x="1029" 
d="M164 0v1475h118v-1360h716v-115h-834z" />
    <glyph glyph-name="M" unicode="M" horiz-adv-x="1712" 
d="M143 0v1475h110l604 -1305l598 1305h114v-1473h-116v1201l-549 -1203h-96l-550 1203v-1203h-115z" />
    <glyph glyph-name="N" unicode="N" horiz-adv-x="1378" 
d="M143 0v1475h119l854 -1265v1265h119v-1475h-119l-854 1267v-1267h-119z" />
    <glyph glyph-name="O" unicode="O" horiz-adv-x="1463" 
d="M732 -31q-162 0 -290 56.5t-211 158.5t-126.5 242.5t-43.5 310.5t43.5 310.5t126.5 242.5t211 158.5t290 56.5q215 0 368 -98.5t227.5 -270t74.5 -399.5t-74.5 -399.5t-227.5 -270t-368 -98.5zM187 737q-1 -145 33.5 -264t101.5 -206t172 -134.5t238 -47.5
q177 0 301 83.5t183.5 228.5t59.5 340t-59.5 340t-183.5 229t-301 84q-133 0 -237 -47.5t-170.5 -135t-101.5 -206.5t-36 -264z" />
    <glyph glyph-name="P" unicode="P" horiz-adv-x="1213" 
d="M143 0v1475h556q43 0 100 -9q163 -25 258 -147t95 -294t-95 -294t-258 -148q-57 -9 -100 -9h-438v-574h-118zM261 690h436q47 0 91 8q115 24 177.5 115.5t62.5 211.5t-62.5 211.5t-177.5 114.5q-42 9 -91 9h-436v-670z" />
    <glyph glyph-name="Q" unicode="Q" horiz-adv-x="1463" 
d="M1304 -29l-143 142q-171 -144 -429 -144q-162 0 -290 56.5t-211 158.5t-126.5 242.5t-43.5 310.5t43.5 310.5t126.5 242.5t211 158.5t290 56.5q215 0 368 -98.5t227.5 -270t74.5 -399.5q0 -333 -158 -538l142 -143zM187 737q-1 -145 33.5 -264t101.5 -206t172 -134.5
t238 -47.5q207 0 343 114l-155 154l85 85l150 -150q121 170 121 449q0 195 -59.5 340t-183.5 229t-301 84q-133 0 -237 -47.5t-170.5 -135t-101.5 -206.5t-36 -264z" />
    <glyph glyph-name="R" unicode="R" horiz-adv-x="1271" 
d="M143 0v1475h556q43 0 100 -9q163 -25 258 -147t95 -294q0 -145 -68.5 -256.5t-190.5 -159.5l297 -609h-138l-279 574h-512v-574h-118zM261 690h436q47 0 91 8q115 24 177.5 115.5t62.5 211.5t-62.5 211.5t-177.5 114.5q-42 9 -91 9h-436v-670z" />
    <glyph glyph-name="S" unicode="S" horiz-adv-x="1233" 
d="M644 -31q-228 0 -384 111t-195 301l120 20q38 -148 162 -232.5t300 -84.5q180 0 292 84t112 222q0 50 -17 92t-41 68t-61 47.5t-64.5 32.5t-64.5 22l-371 111q-310 91 -310 346q0 177 138 286.5t355 109.5q218 -1 366.5 -117.5t180.5 -313.5l-122 -21q-22 152 -140 244.5
t-286 92.5q-160 1 -263 -78t-103 -199q0 -47 18.5 -85.5t44 -63.5t67 -46.5t72.5 -32.5t76 -24l297 -88q33 -10 55.5 -17t62 -24.5t67 -35.5t60.5 -48t53 -64.5t34 -83.5t14 -106q0 -196 -145 -310.5t-380 -114.5z" />
    <glyph glyph-name="T" unicode="T" horiz-adv-x="1215" 
d="M549 0v1360h-529v115h1175v-115h-528v-1360h-118z" />
    <glyph glyph-name="U" unicode="U" horiz-adv-x="1425" 
d="M713 -31q-252 0 -411 153.5t-159 404.5v948h119v-923q0 -97 28.5 -178t74.5 -134t105.5 -90t121 -53t121.5 -16t121 16.5t121 53t105.5 90t74 134t28.5 177.5v923h119v-948q0 -250 -159 -404t-410 -154z" />
    <glyph glyph-name="V" unicode="V" horiz-adv-x="1211" 
d="M532 0l-522 1475h125l469 -1328l472 1328h125l-522 -1475h-147z" />
    <glyph glyph-name="W" unicode="W" horiz-adv-x="1889" 
d="M461 0l-423 1475h122l361 -1268l361 1268h124l361 -1268l360 1268h124l-424 -1475h-120l-363 1264l-362 -1264h-121z" />
    <glyph glyph-name="X" unicode="X" horiz-adv-x="1207" 
d="M20 0l515 748l-502 727h142l428 -630l429 630h143l-502 -727l514 -748h-143l-441 648l-440 -648h-143z" />
    <glyph glyph-name="Y" unicode="Y" horiz-adv-x="1100" 
d="M492 0v623l-492 852h136l415 -717l414 717h136l-491 -852v-623h-118z" />
    <glyph glyph-name="Z" unicode="Z" horiz-adv-x="1223" 
d="M102 0v32l832 1328h-821v115h1008v-35l-827 -1326h824v-114h-1016z" />
    <glyph glyph-name="bracketleft" unicode="[" horiz-adv-x="822" 
d="M287 -451v2263h361v-112h-249v-2038h249v-113h-361z" />
    <glyph glyph-name="backslash" unicode="\" horiz-adv-x="761" 
d="M246 1475l393 -1475h-123l-393 1475h123z" />
    <glyph glyph-name="bracketright" unicode="]" horiz-adv-x="822" 
d="M536 -451h-362v113h249v2038h-249v112h362v-2263z" />
    <glyph glyph-name="asciicircum" unicode="^" horiz-adv-x="1362" 
d="M215 1030l477 477l477 -476l-74 -77l-403 404l-402 -404z" />
    <glyph glyph-name="underscore" unicode="_" horiz-adv-x="1351" 
d="M0 -207v108h1352v-108h-1352z" />
    <glyph glyph-name="grave" unicode="`" horiz-adv-x="969" 
d="M468 1654l-111 297h110l111 -297h-110z" />
    <glyph glyph-name="a" unicode="a" horiz-adv-x="1124" 
d="M463 -31q-182 0 -281.5 93.5t-99.5 232.5q0 132 79.5 209.5t211.5 108.5q132 29 511 76q0 172 -74 253t-244 81q-258 0 -321 -232l-121 33q38 151 152.5 232t293.5 81q151 0 256 -60t146 -167q29 -74 29 -221v-689h-107v193q-64 -108 -176 -166t-255 -58zM203 294
q0 -40 14 -76.5t43.5 -69t83.5 -51.5t125 -19q167 0 273.5 88t128.5 238q13 72 13 177q-345 -36 -471 -68q-210 -56 -210 -219z" />
    <glyph glyph-name="b" unicode="b" horiz-adv-x="1196" 
d="M628 -31q-125 0 -221 57.5t-156 160.5v-187h-108v1475h118v-537q128 199 378 199q147 0 256 -77.5t164 -208.5t55 -296q0 -168 -55.5 -299t-167 -209t-263.5 -78zM251 555q0 -138 40 -243t124.5 -167.5t205.5 -62.5q118 0 202.5 63t124.5 168t40 242q0 136 -39 240
t-124 166.5t-207 62.5q-178 0 -272.5 -128.5t-94.5 -340.5z" />
    <glyph glyph-name="c" unicode="c" horiz-adv-x="1119" 
d="M595 -31q-162 0 -278.5 75t-174 205t-60.5 304q4 269 137.5 426.5t376.5 157.5q161 0 282.5 -78t170.5 -212l-115 -42q-42 102 -132 159.5t-207 57.5q-189 0 -287 -127t-100 -342q2 -218 101 -343.5t286 -125.5q117 0 204 54.5t133 157.5l117 -40q-65 -141 -180.5 -214
t-273.5 -73z" />
    <glyph glyph-name="d" unicode="d" horiz-adv-x="1196" 
d="M568 -31q-152 0 -263.5 78t-167 209t-55.5 299q0 165 55 296t164 208.5t256 77.5q250 0 378 -199v537h118v-1475h-108v187q-60 -103 -156 -160.5t-221 -57.5zM208 555q0 -137 40 -242t124.5 -168t202.5 -63q121 0 205.5 62.5t124.5 167.5t40 243q0 212 -94.5 340.5
t-272.5 128.5q-122 0 -207 -62.5t-124 -166.5t-39 -240z" />
    <glyph glyph-name="e" unicode="e" horiz-adv-x="1185" 
d="M599 -31q-238 0 -377.5 157.5t-139.5 424.5q0 271 138.5 428.5t376.5 157.5q242 0 376 -163.5t130 -454.5h-894q8 -208 108.5 -321.5t279.5 -113.5q127 0 223.5 59t152.5 172l106 -47q-67 -142 -193 -220.5t-287 -78.5zM211 626h765q-18 195 -114 297t-263 102
q-171 0 -271 -103.5t-117 -295.5z" />
    <glyph glyph-name="f" unicode="f" horiz-adv-x="710" 
d="M258 1209q0 73 14 126.5t53 95.5q70 74 223 74h142v-102h-132q-93 0 -137.5 -45t-44.5 -145v-107h314v-108h-314v-998h-118v998h-197v108h197v103z" />
    <glyph glyph-name="g" unicode="g" horiz-adv-x="1196" 
d="M573 -522q-134 0 -250 59t-185 185l107 64q48 -97 136.5 -143.5t192.5 -46.5q195 0 277.5 108t81.5 335v128q-128 -198 -365 -198q-152 0 -263.5 78t-167 209t-55.5 299q0 165 55 296t164 208.5t256 77.5q130 0 228.5 -56.5t159.5 -158.5v184h108v-1067q0 -105 -12 -184
q-27 -192 -142.5 -284.5t-325.5 -92.5zM208 555q0 -137 40 -242t124.5 -168t202.5 -63q121 0 205.5 62.5t124.5 167.5t40 243q0 212 -94.5 340.5t-272.5 128.5q-122 0 -207 -62.5t-124 -166.5t-39 -240z" />
    <glyph glyph-name="h" unicode="h" 
d="M953 575q0 214 -85.5 328.5t-256.5 114.5q-174 0 -261.5 -114.5t-87.5 -306.5v-597h-119v1475h108v-535q60 96 157.5 144t218.5 48q111 0 197.5 -41.5t140 -114t80.5 -166.5t27 -205v-605h-119v575z" />
    <glyph glyph-name="i" unicode="i" horiz-adv-x="445" 
d="M164 1329v151h118v-151h-118zM164 0v1106h118v-1106h-118z" />
    <glyph glyph-name="j" unicode="j" horiz-adv-x="486" 
d="M-20 -492v117h66q74 0 118 40t44 128v1313h119v-1327q0 -140 -62.5 -205.5t-196.5 -65.5h-88zM208 1329v151h119v-151h-119z" />
    <glyph glyph-name="k" unicode="k" horiz-adv-x="987" 
d="M143 0v1475h119v-902l523 533h165l-548 -553l626 -553h-183l-583 532v-532h-119z" />
    <glyph glyph-name="l" unicode="l" horiz-adv-x="445" 
d="M164 0v1475h118v-1475h-118z" />
    <glyph glyph-name="m" unicode="m" horiz-adv-x="1701" 
d="M1461 743q0 131 -75 209t-191 78q-51 0 -97.5 -16.5t-87.5 -51t-65 -96t-24 -142.5l-2 -724h-117l2 732q0 136 -74 217t-195 81q-123 0 -198.5 -84t-75.5 -222v-724h-118v1106h108v-116q52 69 131.5 107.5t176.5 38.5q108 0 194 -48.5t129 -141.5q47 90 134 140t198 50
q164 0 264.5 -101.5t100.5 -273.5l-2 -761h-118z" />
    <glyph glyph-name="n" unicode="n" 
d="M953 575q0 214 -85.5 328.5t-256.5 114.5q-174 0 -261.5 -114.5t-87.5 -306.5v-597h-119v1106h108v-166q60 96 157.5 144t218.5 48q111 0 197.5 -41.5t140 -114t80.5 -166.5t27 -205v-605h-119v575z" />
    <glyph glyph-name="o" unicode="o" horiz-adv-x="1193" 
d="M597 -31q-242 0 -378.5 161t-136.5 425t138 423t377 159q243 0 379 -160t136 -422q0 -266 -136.5 -426t-378.5 -160zM208 555q0 -218 100.5 -344.5t288.5 -126.5q190 0 289.5 127t99.5 344q0 218 -99.5 342.5t-289.5 124.5q-192 0 -290.5 -126.5t-98.5 -340.5z" />
    <glyph glyph-name="p" unicode="p" horiz-adv-x="1196" 
d="M628 -31q-239 0 -367 201v-662h-118v1598h108v-184q61 102 159.5 158.5t228.5 56.5q147 0 256 -77.5t164 -208.5t55 -296q0 -168 -55.5 -299t-167 -209t-263.5 -78zM251 555q0 -138 40 -243t124.5 -167.5t205.5 -62.5q118 0 202.5 63t124.5 168t40 242q0 136 -39 240
t-124 166.5t-207 62.5q-178 0 -272.5 -128.5t-94.5 -340.5z" />
    <glyph glyph-name="q" unicode="q" horiz-adv-x="1196" 
d="M568 -31q-152 0 -263.5 78t-167 209t-55.5 299q0 165 55 296t164 208.5t256 77.5q130 0 228.5 -56.5t159.5 -158.5v184h108v-1598h-118v662q-128 -201 -367 -201zM208 555q0 -137 40 -242t124.5 -168t202.5 -63q121 0 205.5 62.5t124.5 167.5t40 243q0 212 -94.5 340.5
t-272.5 128.5q-122 0 -207 -62.5t-124 -166.5t-39 -240z" />
    <glyph glyph-name="r" unicode="r" horiz-adv-x="712" 
d="M143 0v1106h108v-174q34 59 78 97q64 58 163.5 79t169.5 -2v-112q-167 38 -278 -57q-76 -66 -99 -162t-23 -227v-548h-119z" />
    <glyph glyph-name="s" unicode="s" horiz-adv-x="1063" 
d="M552 -29q-192 0 -316.5 81t-153.5 226l121 20q26 -99 121 -157t233 -58t218.5 58.5t80.5 159.5q0 44 -11.5 71.5t-51.5 53.5t-102.5 47.5t-177.5 52.5q-231 62 -314 125.5t-83 177.5q0 137 114.5 222.5t299.5 85.5t310.5 -89.5t139.5 -231.5l-121 -22q-18 106 -107.5 168
t-225.5 63q-128 2 -208.5 -50.5t-80.5 -138.5q0 -73 67.5 -116t262.5 -92q238 -61 325.5 -130.5t87.5 -197.5q0 -154 -114 -241.5t-314 -87.5z" />
    <glyph glyph-name="t" unicode="t" horiz-adv-x="798" 
d="M730 0q-92 -17 -174 -14.5t-151.5 39.5t-102.5 105q-16 34 -24 75t-9 70t-1 88v21v614h-248v108h248v307h119v-307h343v-108h-343v-612v-37v-35.5t0.5 -28.5t2 -29t4 -23.5t6.5 -24.5t10 -21q35 -68 116.5 -86t203.5 5v-106z" />
    <glyph glyph-name="u" unicode="u" 
d="M568 -26q-111 0 -197.5 41.5t-140 114t-80.5 166.5t-27 205v605h119v-576q0 -214 85.5 -328t256.5 -114q174 0 261.5 114.5t87.5 306.5v597h119v-1106h-108v166q-60 -96 -157.5 -144t-218.5 -48z" />
    <glyph glyph-name="v" unicode="v" horiz-adv-x="1009" 
d="M442 0l-401 1106h122l342 -945l341 945h123l-402 -1106h-125z" />
    <glyph glyph-name="w" unicode="w" horiz-adv-x="1547" 
d="M379 0l-338 1106h121l277 -908l278 908h113l279 -908l279 908h118l-338 -1106h-110l-284 921l-285 -921h-110z" />
    <glyph glyph-name="x" unicode="x" horiz-adv-x="1060" 
d="M20 0l442 559l-431 547h143l357 -458l356 458h143l-431 -547l441 -559h-145l-364 470l-365 -470h-146z" />
    <glyph glyph-name="y" unicode="y" horiz-adv-x="1057" 
d="M305 -492l182 492l-449 1106h126l381 -949l347 949h124l-588 -1598h-123z" />
    <glyph glyph-name="z" unicode="z" horiz-adv-x="1082" 
d="M41 0v32l756 958h-705v116h908v-35l-755 -955h710v-116h-914z" />
    <glyph glyph-name="braceleft" unicode="{" horiz-adv-x="838" 
d="M632 -451q-97 0 -163.5 66t-66.5 162v685q0 36 -20 67l-85 119q-11 14 -11 33t11 33l85 119q20 31 20 67v683q0 97 66 163t164 66h117v-115h-114q-49 0 -83 -34t-34 -83v-680q0 -74 -43 -133l-60 -86l60 -86q43 -59 43 -133v-681q0 -49 34 -83t83 -34h114v-115h-117z" />
    <glyph glyph-name="bar" unicode="|" horiz-adv-x="486" 
d="M184 0v1475h118v-1475h-118z" />
    <glyph glyph-name="braceright" unicode="}" horiz-adv-x="838" 
d="M207 -451h-117v115h114q49 0 83 34t34 83v681q0 74 43 133l60 86l-60 86q-43 59 -43 133v680q0 49 -34 83t-83 34h-114v115h117q97 0 163 -66t66 -163v-683q0 -35 21 -67l85 -119q10 -14 10 -33t-10 -33l-85 -119q-21 -32 -21 -67v-685q0 -96 -66 -162t-163 -66z" />
    <glyph glyph-name="asciitilde" unicode="~" horiz-adv-x="1318" 
d="M868 497q-53 0 -115 23.5t-108.5 52t-100 52t-91.5 23.5q-56 0 -74 -41t-2 -92h-127q-29 115 28 195.5t169 80.5q53 0 116 -23.5t110 -52.5t101 -52.5t92 -23.5q51 0 72.5 41t3.5 96h127q30 -114 -28 -196.5t-173 -82.5z" />
    <glyph glyph-name="uni00A0" unicode="&#xa0;" horiz-adv-x="409" 
 />
    <glyph glyph-name="exclamdown" unicode="&#xa1;" horiz-adv-x="609" 
d="M246 1106h118v-151h-118v151zM246 -369v1106h118v-1106h-118z" />
    <glyph glyph-name="cent" unicode="&#xa2;" horiz-adv-x="1119" 
d="M545 126q-220 17 -339.5 173.5t-123.5 407.5q4 255 124 409t339 171v188h107v-188q141 -14 247 -90t150 -197l-115 -42q-42 103 -132 160.5t-207 57.5q-189 0 -287 -127t-100 -342q2 -218 101 -343.5t286 -125.5q117 0 204 54.5t133 157.5l117 -40q-60 -128 -160.5 -200
t-236.5 -84v-187h-107v187z" />
    <glyph glyph-name="sterling" unicode="&#xa3;" horiz-adv-x="1169" 
d="M65 0v115h130q59 0 101 42.5t42 101.5v434h-273v116h273v314q0 167 107 274.5t270 107.5q267 0 390 -359l-111 -36q-46 143 -114 211.5t-166 68.5q-116 0 -186 -73.5t-70 -195.5v-312h392v-116h-392l-1 -578h607v-115h-999z" />
    <glyph glyph-name="currency" unicode="&#xa4;" horiz-adv-x="1293" 
d="M647 201q-189 0 -336 120l-168 -167l-82 82l167 166q-117 147 -117 337t117 334l-167 167l82 81l166 -166q146 121 338 121q191 0 338 -120l165 165l82 -81l-165 -165q119 -148 119 -336q0 -191 -120 -338l166 -165l-82 -82l-166 165q-145 -118 -337 -118zM221 737
q0 -114 56.5 -212t155 -156t214.5 -58q176 0 301.5 126.5t125.5 299.5q0 116 -58.5 215t-157 156t-211.5 57q-178 0 -302 -125t-124 -303z" />
    <glyph glyph-name="yen" unicode="&#xa5;" horiz-adv-x="1100" 
d="M172 526v108h313l-485 841h136l415 -717l414 717h136l-485 -841h314v-108h-320v-178h320v-107h-320v-241h-118v241h-320v107h320v178h-320z" />
    <glyph glyph-name="brokenbar" unicode="&#xa6;" horiz-adv-x="486" 
d="M184 744v731h118v-731h-118zM184 -287v730h118v-730h-118z" />
    <glyph glyph-name="section" unicode="&#xa7;" horiz-adv-x="1063" 
d="M558 -326q-102 0 -190 30t-157 101t-91 176l121 20q19 -74 74.5 -124.5t118 -70.5t129.5 -20q114 0 193.5 58t79.5 160q0 39 -14.5 68.5t-37.5 49.5t-69 38.5t-90 32t-120 33.5l-12 3q-58 16 -96.5 27.5t-84 28t-75 32.5t-59 38t-46 46.5t-27 57t-10.5 70.5
q0 105 67 174.5t172 92.5q-101 39 -151.5 95t-50.5 146q0 98 59 170t145 105t184 33q162 0 280.5 -89.5t135.5 -231.5l-121 -23q-11 63 -43.5 110t-76.5 72.5t-90 38t-94 12.5q-107 0 -182 -53t-75 -137q0 -36 16.5 -64.5t43 -48t70 -36.5t86 -29t102.5 -27q4 -1 7 -1.5
t6 -1.5q61 -16 99.5 -27t86.5 -28t77.5 -33.5t61 -40.5t48.5 -51.5t28 -64.5t11 -81q0 -103 -51 -173t-136 -94q73 -39 111 -96t38 -144q0 -104 -54.5 -180t-144 -112.5t-202.5 -36.5zM216 540q0 -45 21 -77.5t77 -57.5t94.5 -36.5t131.5 -35.5q2 -1 3.5 -1.5t3.5 -0.5
q71 -19 139 -39q80 20 133.5 76.5t53.5 140.5q0 39 -14.5 68.5t-37.5 49.5t-69 38.5t-90 32t-120 33.5q-2 0 -3.5 0.5t-4 1t-4.5 1.5q-40 11 -85 24q-105 -32 -167 -88t-62 -130z" />
    <glyph glyph-name="dieresis" unicode="&#xa8;" horiz-adv-x="1014" 
d="M626 1705v143h143v-143h-143zM246 1705v143h143v-143h-143z" />
    <glyph glyph-name="copyright" unicode="&#xa9;" horiz-adv-x="1588" 
d="M795 -33q-150 0 -286 58t-234 156.5t-156 234t-58 284.5t58 284.5t156 234t234.5 157t285.5 58.5t284.5 -58.5t233.5 -156.5t156 -234t58 -285q0 -199 -98 -367.5t-266.5 -267t-367.5 -98.5zM178 702q0 -168 82.5 -310t224.5 -224t310 -82q166 0 307 82t223 224t82 310
q0 166 -82 307.5t-223 223.5t-307 82q-168 0 -310 -82t-224.5 -223.5t-82.5 -307.5zM418 703q4 189 90 298q108 133 298 133q114 0 200 -53q103 -63 137 -173l-105 -32q-29 69 -94 114q-58 41 -142 41q-128 0 -205 -97q-63 -81 -63 -228q0 -150 63 -236q72 -96 204 -96
q84 0 146 40q54 37 89 111l107 -32q-44 -104 -128 -162q-91 -61 -214 -61q-187 0 -293 132q-90 112 -90 301z" />
    <glyph glyph-name="ordfeminine" unicode="&#xaa;" horiz-adv-x="641" 
d="M269 553q-89 0 -138 47.5t-49 118.5q0 122 134 163q58 17 246 43q-2 62 -33 90.5t-98 28.5q-108 0 -135 -91l-94 28q21 74 79.5 115t150.5 41q161 0 209 -107q18 -40 18 -121v-341h-87v84q-65 -99 -203 -99zM180 720q0 -37 27 -61t79 -24q67 0 110.5 34.5t54.5 84.5
q10 34 10 87q-150 -20 -199 -35q-82 -26 -82 -86z" />
    <glyph glyph-name="guillemotleft" unicode="&#xab;" horiz-adv-x="1062" 
d="M846 112l-352 443l352 441l77 -60l-306 -381l306 -383zM164 555l352 441l77 -60l-304 -381l304 -383l-77 -60z" />
    <glyph glyph-name="logicalnot" unicode="&#xac;" horiz-adv-x="1228" 
d="M998 406v258h-875v107h983v-365h-108z" />
    <glyph glyph-name="uni00AD" unicode="&#xad;" horiz-adv-x="860" 
d="M123 592v107h614v-107h-614z" />
    <glyph glyph-name="registered" unicode="&#xae;" horiz-adv-x="1259" 
d="M631 598q-132 0 -244.5 65t-178 177.5t-65.5 244.5t65.5 244t178 177t244.5 65q131 0 243 -65t177 -177t65 -244t-65 -244.5t-177 -177.5t-243 -65zM245 1085q0 -160 113 -272.5t273 -112.5q159 0 271.5 112.5t112.5 272.5t-112.5 272t-271.5 112q-161 0 -273.5 -112
t-112.5 -272zM464 852v474h208q63 0 109 -45t47 -109q0 -41 -24 -79.5t-65 -58.5l90 -182h-88l-81 168h-119v-168h-77zM541 1093h130q31 0 55 23.5t24 55.5q0 35 -24.5 58t-54.5 23h-130v-160z" />
    <glyph glyph-name="macron" unicode="&#xaf;" horiz-adv-x="994" 
d="M246 1720v108h503v-108h-503z" />
    <glyph glyph-name="degree" unicode="&#xb0;" horiz-adv-x="921" 
d="M430 768q-153 0 -261 108t-108 261q0 150 110 259t259 109q153 0 261 -107.5t108 -260.5t-108 -261t-261 -108zM172 1137q0 -105 76.5 -181.5t181.5 -76.5t181.5 76.5t76.5 181.5t-76.5 181.5t-181.5 76.5t-181.5 -76.5t-76.5 -181.5z" />
    <glyph glyph-name="plusminus" unicode="&#xb1;" horiz-adv-x="1228" 
d="M561 451v274h-438v108h438v273h108v-273h437v-108h-437v-274h-108zM123 171v108h983v-108h-983z" />
    <glyph glyph-name="uni00B2" unicode="&#xb2;" horiz-adv-x="811" 
d="M102 553l2 90l414 377q51 44 70 86.5t19 92.5q0 86 -56.5 144t-140.5 58q-86 0 -144.5 -60t-56.5 -140h-101q0 127 86.5 210.5t216.5 83.5q127 0 212.5 -85.5t85.5 -210.5q0 -83 -31.5 -139.5t-103.5 -121.5l-319 -290h454v-95h-607z" />
    <glyph glyph-name="uni00B3" unicode="&#xb3;" horiz-adv-x="788" 
d="M369 532q-102 0 -180 55t-107 150l95 28q22 -67 73.5 -102.5t118.5 -34.5q90 1 142.5 57t52.5 148t-54 148.5t-142 56.5q-48 0 -103 -24l-49 78l312 288h-409v95h536v-97l-267 -254q125 -1 201.5 -82t76.5 -209q0 -132 -83.5 -216.5t-213.5 -84.5z" />
    <glyph glyph-name="acute" unicode="&#xb4;" horiz-adv-x="969" 
d="M502 1654h-110l111 297h109z" />
    <glyph glyph-name="uni00B5" unicode="&#xb5;" horiz-adv-x="1215" 
d="M143 -492v1598h119v-576q0 -213 85.5 -327.5t255.5 -114.5q175 0 262.5 114.5t87.5 306.5v597h119v-1106h-107v168q-60 -97 -157.5 -145.5t-218.5 -48.5q-227 0 -338 169v-635h-108z" />
    <glyph glyph-name="paragraph" unicode="&#xb6;" horiz-adv-x="1245" 
d="M710 -289v863h-90q-39 0 -99 9q-163 27 -258.5 148.5t-95.5 293.5q0 171 95 293t259 148q60 9 99 9h207v-1764h-117zM959 -289v1764h118v-1764h-118z" />
    <glyph glyph-name="periodcentered" unicode="&#xb7;" horiz-adv-x="437" 
d="M221 550q-42 0 -70 27t-28 68t28 68t70 27q38 0 65.5 -27t27.5 -68t-27.5 -68t-65.5 -27z" />
    <glyph glyph-name="cedilla" unicode="&#xb8;" horiz-adv-x="801" 
d="M373 -490q-60 0 -127 30l34 89q49 -18 84 -18q41 0 65 26t24 62q0 22 -10 39t-29.5 29t-39.5 20t-48 17q-7 2 -10 3l77 210l99 1l-56 -151q123 -53 123 -173q0 -77 -55 -130.5t-131 -53.5z" />
    <glyph glyph-name="uni00B9" unicode="&#xb9;" horiz-adv-x="642" 
d="M297 553v812l-174 -105v110l174 105h99v-922h-99z" />
    <glyph glyph-name="ordmasculine" unicode="&#xba;" horiz-adv-x="701" 
d="M350 553q-122 0 -195 81t-73 212q0 130 73.5 210.5t194.5 80.5q123 0 196.5 -80.5t73.5 -210.5q0 -131 -73.5 -212t-196.5 -81zM187 846q0 -93 42 -146t121 -53q81 0 122.5 53.5t41.5 145.5t-41.5 144.5t-122.5 52.5t-122 -53t-41 -144z" />
    <glyph glyph-name="guillemotright" unicode="&#xbb;" horiz-adv-x="1062" 
d="M217 112l-77 60l305 383l-305 381l77 60l352 -441zM470 172l304 383l-304 381l77 60l352 -441l-352 -443z" />
    <glyph glyph-name="onequarter" unicode="&#xbc;" horiz-adv-x="1950" 
d="M297 553v812l-174 -105v110l174 105h99v-922h-99zM252 71l1098 1406l88 -69l-1097 -1408zM1076 176v95l308 651h112l-308 -651h318v268h100v-268h99v-95h-99v-176h-100v176h-430z" />
    <glyph glyph-name="onehalf" unicode="&#xbd;" horiz-adv-x="1858" 
d="M297 553v812l-174 -105v110l174 105h99v-922h-99zM252 71l1098 1406l88 -69l-1097 -1408zM1150 0l2 90l414 377q51 44 70 86.5t19 92.5q0 86 -57 144t-141 58q-86 0 -144.5 -60t-56.5 -140h-101q0 127 86.5 210.5t216.5 83.5q127 0 212.5 -85.5t85.5 -210.5
q0 -83 -31 -139.5t-103 -121.5l-319 -290h453v-95h-606z" />
    <glyph glyph-name="threequarters" unicode="&#xbe;" horiz-adv-x="1972" 
d="M369 532q-102 0 -180 55t-107 150l95 28q22 -67 73.5 -102.5t118.5 -34.5q90 1 142.5 57t52.5 148t-54 148.5t-142 56.5q-48 0 -103 -24l-49 78l312 288h-409v95h536v-97l-267 -254q125 -1 201.5 -82t76.5 -209q0 -132 -83.5 -216.5t-213.5 -84.5zM398 71l1098 1406
l88 -69l-1097 -1408zM1221 176v95l308 651h111l-308 -651h319v268h99v-268h99v-95h-99v-176h-99v176h-430z" />
    <glyph glyph-name="questiondown" unicode="&#xbf;" horiz-adv-x="1052" 
d="M613 703q0 -69 -1.5 -102.5t-12 -78t-31.5 -84.5q-21 -41 -57.5 -78.5t-70.5 -61t-76.5 -56t-68.5 -60.5q-67 -76 -67 -193q0 -112 60 -180q79 -93 241 -93q155 0 232 83q68 65 68 189h121q-2 -79 -29.5 -152t-80.5 -123q-115 -112 -312 -112q-215 0 -329 125
q-97 104 -97 264q0 161 108 271q24 26 123 100.5t126 126.5q10 19 16.5 36t8.5 43.5t3 36t0.5 50t-0.5 49.5h126zM487 929v177h126v-177h-126z" />
    <glyph glyph-name="Agrave" unicode="&#xc0;" horiz-adv-x="1272" 
d="M1232 0h-125l-131 371h-678l-132 -371h-125l522 1475h147zM337 482h600l-299 847zM461 1951h109l111 -297h-110z" />
    <glyph glyph-name="Aacute" unicode="&#xc1;" horiz-adv-x="1272" 
d="M41 0l522 1475h147l522 -1475h-125l-132 371h-678l-131 -371h-125zM336 482h600l-301 847zM592 1654l110 297h110l-111 -297h-109z" />
    <glyph glyph-name="Acircumflex" unicode="&#xc2;" horiz-adv-x="1272" 
d="M41 0l522 1475h147l522 -1475h-125l-132 371h-678l-131 -371h-125zM336 482h600l-301 847zM358 1654l220 261h116l220 -261h-128l-150 176l-150 -176h-128z" />
    <glyph glyph-name="Atilde" unicode="&#xc3;" horiz-adv-x="1272" 
d="M41 0l522 1475h147l522 -1475h-125l-132 371h-678l-131 -371h-125zM336 482h600l-301 847zM346 1719q-21 82 20 139t120 57q48 0 105 -27t108 -54t84 -27q36 0 51 29.5t3 68.5h90q21 -81 -20 -140t-123 -59q-47 0 -103.5 27t-107.5 54t-84 27q-39 0 -52 -29.5t-1 -65.5
h-90z" />
    <glyph glyph-name="Adieresis" unicode="&#xc4;" horiz-adv-x="1272" 
d="M41 0l522 1475h147l522 -1475h-125l-132 371h-678l-131 -371h-125zM336 482h600l-301 847zM376 1705v143h143v-143h-143zM756 1705v143h143v-143h-143z" />
    <glyph glyph-name="Aring" unicode="&#xc5;" horiz-adv-x="1272" 
d="M41 0l522 1475h147l522 -1475h-125l-132 371h-678l-131 -371h-125zM336 482h600l-301 847zM425 1807q0 87 62.5 149.5t149.5 62.5q88 0 150 -62.5t62 -149.5q0 -89 -61.5 -150.5t-150.5 -61.5q-87 0 -149.5 62t-62.5 150zM524 1807q0 -46 33.5 -79t79.5 -33q47 0 80 33
t33 79q0 47 -33 80t-80 33q-46 0 -79.5 -33.5t-33.5 -79.5z" />
    <glyph glyph-name="AE" unicode="&#xc6;" horiz-adv-x="1866" 
d="M41 0l522 1475h1201v-115h-793v-560h670v-115h-670v-570h793v-115h-911v371h-556l-131 -371h-125zM336 482h517v878h-207z" />
    <glyph glyph-name="Ccedilla" unicode="&#xc7;" horiz-adv-x="1448" 
d="M720 -490q-60 0 -127 30l34 89q49 -18 84 -18q41 0 65 26t24 62q0 19 -9 35t-17.5 24.5t-33.5 20t-34 14.5l-42 14l59 162q-160 1 -286.5 58t-208 159t-124.5 242t-43 309q0 170 43.5 310.5t126.5 242.5t211 158.5t290 56.5q251 0 413.5 -130t221.5 -359l-122 -30
q-49 190 -179 297t-334 107q-177 0 -300.5 -84t-183 -229t-61.5 -340q-2 -194 58 -339.5t185 -229t302 -83.5q204 0 334 106.5t179 296.5l122 -29q-54 -207 -192.5 -334.5t-352.5 -150.5l-39 -107q123 -53 123 -173q0 -77 -55 -130.5t-131 -53.5z" />
    <glyph glyph-name="Egrave" unicode="&#xc8;" horiz-adv-x="1157" 
d="M143 0v1475h912v-115h-794v-560h671v-115h-671v-570h794v-115h-912zM469 1951h110l110 -297h-109z" />
    <glyph glyph-name="Eacute" unicode="&#xc9;" horiz-adv-x="1157" 
d="M143 0v1475h912v-115h-794v-560h671v-115h-671v-570h794v-115h-912zM567 1654l111 297h109l-110 -297h-110z" />
    <glyph glyph-name="Ecircumflex" unicode="&#xca;" horiz-adv-x="1157" 
d="M143 0v1475h912v-115h-794v-560h671v-115h-671v-570h794v-115h-912zM310 1654l219 261h117l220 -261h-128l-150 176l-150 -176h-128z" />
    <glyph glyph-name="Edieresis" unicode="&#xcb;" horiz-adv-x="1157" 
d="M143 0v1475h912v-115h-794v-560h671v-115h-671v-570h794v-115h-912zM311 1705v143h144v-143h-144zM691 1705v143h144v-143h-144z" />
    <glyph glyph-name="Igrave" unicode="&#xcc;" horiz-adv-x="445" 
d="M164 0v1475h118v-1475h-118zM55 1951h110l110 -297h-109z" />
    <glyph glyph-name="Iacute" unicode="&#xcd;" horiz-adv-x="445" 
d="M164 0v1475h118v-1475h-118zM170 1654l111 297h109l-110 -297h-110z" />
    <glyph glyph-name="Icircumflex" unicode="&#xce;" horiz-adv-x="445" 
d="M164 0v1475h118v-1475h-118zM-55 1654l219 261h117l220 -261h-128l-151 176l-149 -176h-128z" />
    <glyph glyph-name="Idieresis" unicode="&#xcf;" horiz-adv-x="445" 
d="M164 0v1475h118v-1475h-118zM-39 1705v143h143v-143h-143zM341 1705v143h143v-143h-143z" />
    <glyph glyph-name="Eth" unicode="&#xd0;" horiz-adv-x="1337" 
d="M20 684v108h106v683h439q116 0 194 -11q161 -22 274 -125t166 -256.5t53 -345.5q0 -143 -31 -266.5t-91 -221t-155 -160t-216 -79.5q-70 -10 -194 -10h-439v684h-106zM250 116h315q116 0 179 11q133 23 220 110t124.5 212t37.5 288q0 122 -21.5 223t-66.5 183t-119.5 135
t-174.5 70q-63 11 -179 11h-315v-567h400v-108h-400v-568z" />
    <glyph glyph-name="Ntilde" unicode="&#xd1;" horiz-adv-x="1378" 
d="M143 0v1475h119l854 -1265v1265h119v-1475h-119l-854 1267v-1267h-119zM427 1668q-21 82 20 139t120 57q48 0 105 -27t108 -54t84 -27q36 0 51 29t3 68h90q21 -81 -20 -139.5t-123 -58.5q-37 0 -81 16.5t-77.5 37t-71.5 37t-65 16.5q-39 0 -52 -29t-1 -65h-90z" />
    <glyph glyph-name="Ograve" unicode="&#xd2;" horiz-adv-x="1463" 
d="M732 -31q-162 0 -290 56.5t-211 158.5t-126.5 242.5t-43.5 310.5t43.5 310.5t126.5 242.5t211 158.5t290 56.5q215 0 368 -98.5t227.5 -270t74.5 -399.5t-74.5 -399.5t-227.5 -270t-368 -98.5zM187 737q-1 -145 33.5 -264t101.5 -206t172 -134.5t238 -47.5
q177 0 301 83.5t183.5 228.5t59.5 340t-59.5 340t-183.5 229t-301 84q-133 0 -237 -47.5t-170.5 -135t-101.5 -206.5t-36 -264zM568 1951h110l110 -297h-109z" />
    <glyph glyph-name="Oacute" unicode="&#xd3;" horiz-adv-x="1463" 
d="M732 -31q-162 0 -290 56.5t-211 158.5t-126.5 242.5t-43.5 310.5t43.5 310.5t126.5 242.5t211 158.5t290 56.5q215 0 368 -98.5t227.5 -270t74.5 -399.5t-74.5 -399.5t-227.5 -270t-368 -98.5zM187 737q-1 -145 33.5 -264t101.5 -206t172 -134.5t238 -47.5
q177 0 301 83.5t183.5 228.5t59.5 340t-59.5 340t-183.5 229t-301 84q-133 0 -237 -47.5t-170.5 -135t-101.5 -206.5t-36 -264zM697 1654l111 297h110l-111 -297h-110z" />
    <glyph glyph-name="Ocircumflex" unicode="&#xd4;" horiz-adv-x="1463" 
d="M732 -31q-162 0 -290 56.5t-211 158.5t-126.5 242.5t-43.5 310.5t43.5 310.5t126.5 242.5t211 158.5t290 56.5q215 0 368 -98.5t227.5 -270t74.5 -399.5t-74.5 -399.5t-227.5 -270t-368 -98.5zM187 737q-1 -145 33.5 -264t101.5 -206t172 -134.5t238 -47.5
q177 0 301 83.5t183.5 228.5t59.5 340t-59.5 340t-183.5 229t-301 84q-133 0 -237 -47.5t-170.5 -135t-101.5 -206.5t-36 -264zM454 1654l219 261h117l220 -261h-128l-151 176l-149 -176h-128z" />
    <glyph glyph-name="Otilde" unicode="&#xd5;" horiz-adv-x="1463" 
d="M732 -31q-162 0 -290 56.5t-211 158.5t-126.5 242.5t-43.5 310.5t43.5 310.5t126.5 242.5t211 158.5t290 56.5q215 0 368 -98.5t227.5 -270t74.5 -399.5t-74.5 -399.5t-227.5 -270t-368 -98.5zM187 737q-1 -145 33.5 -264t101.5 -206t172 -134.5t238 -47.5
q177 0 301 83.5t183.5 228.5t59.5 340t-59.5 340t-183.5 229t-301 84q-133 0 -237 -47.5t-170.5 -135t-101.5 -206.5t-36 -264zM458 1668q-21 82 20 139t120 57q48 0 105 -27t108 -54t84 -27q36 0 50.5 29t2.5 68h90q21 -81 -19.5 -139.5t-122.5 -58.5q-37 0 -81 16.5
t-77.5 37t-71.5 37t-65 16.5q-39 0 -52 -29t-1 -65h-90z" />
    <glyph glyph-name="Odieresis" unicode="&#xd6;" horiz-adv-x="1463" 
d="M732 -31q-162 0 -290 56.5t-211 158.5t-126.5 242.5t-43.5 310.5t43.5 310.5t126.5 242.5t211 158.5t290 56.5q215 0 368 -98.5t227.5 -270t74.5 -399.5t-74.5 -399.5t-227.5 -270t-368 -98.5zM187 737q-1 -145 33.5 -264t101.5 -206t172 -134.5t238 -47.5
q177 0 301 83.5t183.5 228.5t59.5 340t-59.5 340t-183.5 229t-301 84q-133 0 -237 -47.5t-170.5 -135t-101.5 -206.5t-36 -264zM470 1705v143h143v-143h-143zM850 1705v143h143v-143h-143z" />
    <glyph glyph-name="multiply" unicode="&#xd7;" horiz-adv-x="986" 
d="M786 368l-293 294l-294 -294l-76 75l294 294l-294 293l77 76l293 -293l293 294l76 -76l-294 -294l294 -294z" />
    <glyph glyph-name="Oslash" unicode="&#xd8;" horiz-adv-x="1463" 
d="M111 -27l-86 79l169 182q-133 200 -133 503q0 170 43.5 310.5t126.5 242.5t211 158.5t290 56.5q297 0 472 -183l160 173l85 -76l-173 -189q126 -194 126 -493q0 -228 -74.5 -399.5t-227.5 -270t-368 -98.5q-290 0 -464 174zM187 737q-1 -241 95 -409l838 903
q-143 159 -388 159q-133 0 -237 -47.5t-170.5 -135t-101.5 -206.5t-36 -264zM351 234q141 -149 381 -149q177 0 301 83.5t183.5 228.5t59.5 340q0 236 -89 399z" />
    <glyph glyph-name="Ugrave" unicode="&#xd9;" horiz-adv-x="1425" 
d="M713 -31q-252 0 -411 153.5t-159 404.5v948h119v-923q0 -97 28.5 -178t74.5 -134t105.5 -90t121 -53t121.5 -16t121 16.5t121 53t105.5 90t74 134t28.5 177.5v923h119v-948q0 -250 -159 -404t-410 -154zM570 1951h110l111 -297h-110z" />
    <glyph glyph-name="Uacute" unicode="&#xda;" horiz-adv-x="1425" 
d="M713 -31q-252 0 -411 153.5t-159 404.5v948h119v-923q0 -97 28.5 -178t74.5 -134t105.5 -90t121 -53t121.5 -16t121 16.5t121 53t105.5 90t74 134t28.5 177.5v923h119v-948q0 -250 -159 -404t-410 -154zM638 1654l111 297h109l-110 -297h-110z" />
    <glyph glyph-name="Ucircumflex" unicode="&#xdb;" horiz-adv-x="1425" 
d="M713 -31q-252 0 -411 153.5t-159 404.5v948h119v-923q0 -97 28.5 -178t74.5 -134t105.5 -90t121 -53t121.5 -16t121 16.5t121 53t105.5 90t74 134t28.5 177.5v923h119v-948q0 -250 -159 -404t-410 -154zM434 1654l219 261h117l220 -261h-128l-150 176l-150 -176h-128z
" />
    <glyph glyph-name="Udieresis" unicode="&#xdc;" horiz-adv-x="1425" 
d="M713 -31q-252 0 -411 153.5t-159 404.5v948h119v-923q0 -97 28.5 -178t74.5 -134t105.5 -90t121 -53t121.5 -16t121 16.5t121 53t105.5 90t74 134t28.5 177.5v923h119v-948q0 -250 -159 -404t-410 -154zM452 1705v143h143v-143h-143zM831 1705v143h144v-143h-144z" />
    <glyph glyph-name="Yacute" unicode="&#xdd;" horiz-adv-x="1100" 
d="M492 0v623l-492 852h136l415 -717l414 717h136l-491 -852v-623h-118zM471 1654l111 297h109l-110 -297h-110z" />
    <glyph glyph-name="Thorn" unicode="&#xde;" horiz-adv-x="1193" 
d="M143 0v1475h119v-288h419q81 0 157 -29q94 -36 161 -106q63 -61 98 -144.5t36 -170.5q0 -164 -114 -296q-61 -71 -151.5 -112t-186.5 -41h-419v-288h-119zM262 402h419q70 0 137 32.5t113 88.5q81 98 78 214q-1 67 -27.5 129t-72.5 109q-44 44 -105.5 70.5t-122.5 26.5
h-419v-670z" />
    <glyph glyph-name="germandbls" unicode="&#xdf;" horiz-adv-x="1202" 
d="M617 -29q-117 0 -186 29v117q81 -27 180 -27q156 0 250 86.5t94 240.5q0 142 -111.5 226t-297.5 88v112q77 9 137 39t100 91t40 145q0 128 -74.5 200.5t-201.5 72.5q-92 0 -161 -41t-96 -122q-22 -69 -22 -170v-1058h-125v1089q0 108 28 186q88 230 375 230
q182 0 291.5 -102.5t109.5 -285.5q0 -114 -51 -198t-144 -114q50 -6 104.5 -33.5t105.5 -74t84 -120.5t33 -161q0 -205 -120.5 -325t-341.5 -120z" />
    <glyph glyph-name="agrave" unicode="&#xe0;" horiz-adv-x="1124" 
d="M463 -31q-182 0 -281.5 93.5t-99.5 232.5q0 132 79.5 209.5t211.5 108.5q132 29 511 76q0 172 -74 253t-244 81q-258 0 -321 -232l-121 33q38 151 152.5 232t293.5 81q151 0 256 -60t146 -167q29 -74 29 -221v-689h-107v193q-64 -108 -176 -166t-255 -58zM203 294
q0 -40 14 -76.5t43.5 -69t83.5 -51.5t125 -19q167 0 273.5 88t128.5 238q13 72 13 177q-345 -36 -471 -68q-210 -56 -210 -219zM415 1582h109l111 -297h-110z" />
    <glyph glyph-name="aacute" unicode="&#xe1;" horiz-adv-x="1124" 
d="M463 -31q-182 0 -281.5 93.5t-99.5 232.5q0 132 79.5 209.5t211.5 108.5q132 29 511 76q0 172 -74 253t-244 81q-258 0 -321 -232l-121 33q38 151 152.5 232t293.5 81q151 0 256 -60t146 -167q29 -74 29 -221v-689h-107v193q-64 -108 -176 -166t-255 -58zM203 294
q0 -40 14 -76.5t43.5 -69t83.5 -51.5t125 -19q167 0 273.5 88t128.5 238q13 72 13 177q-345 -36 -471 -68q-210 -56 -210 -219zM517 1285l111 297h109l-110 -297h-110z" />
    <glyph glyph-name="acircumflex" unicode="&#xe2;" horiz-adv-x="1124" 
d="M463 -31q-182 0 -281.5 93.5t-99.5 232.5q0 132 79.5 209.5t211.5 108.5q132 29 511 76q0 172 -74 253t-244 81q-258 0 -321 -232l-121 33q38 151 152.5 232t293.5 81q151 0 256 -60t146 -167q29 -74 29 -221v-689h-107v193q-64 -108 -176 -166t-255 -58zM203 294
q0 -40 14 -76.5t43.5 -69t83.5 -51.5t125 -19q167 0 273.5 88t128.5 238q13 72 13 177q-345 -36 -471 -68q-210 -56 -210 -219zM300 1285l219 261h117l220 -261h-128l-150 176l-150 -176h-128z" />
    <glyph glyph-name="atilde" unicode="&#xe3;" horiz-adv-x="1124" 
d="M463 -31q-182 0 -281.5 93.5t-99.5 232.5q0 132 79.5 209.5t211.5 108.5q132 29 511 76q0 172 -74 253t-244 81q-258 0 -321 -232l-121 33q38 151 152.5 232t293.5 81q151 0 256 -60t146 -167q29 -74 29 -221v-689h-107v193q-64 -108 -176 -166t-255 -58zM203 294
q0 -40 14 -76.5t43.5 -69t83.5 -51.5t125 -19q167 0 273.5 88t128.5 238q13 72 13 177q-345 -36 -471 -68q-210 -56 -210 -219zM296 1299q-21 82 20 139t120 57q38 0 82.5 -16.5t78 -37t71.5 -37t65 -16.5q36 0 50.5 29t2.5 68h91q21 -81 -20 -140t-123 -59q-47 0 -103.5 27
t-107.5 54t-84 27q-39 0 -52 -29.5t-1 -65.5h-90z" />
    <glyph glyph-name="adieresis" unicode="&#xe4;" horiz-adv-x="1124" 
d="M463 -31q-182 0 -281.5 93.5t-99.5 232.5q0 132 79.5 209.5t211.5 108.5q132 29 511 76q0 172 -74 253t-244 81q-258 0 -321 -232l-121 33q38 151 152.5 232t293.5 81q151 0 256 -60t146 -167q29 -74 29 -221v-689h-107v193q-64 -108 -176 -166t-255 -58zM203 294
q0 -40 14 -76.5t43.5 -69t83.5 -51.5t125 -19q167 0 273.5 88t128.5 238q13 72 13 177q-345 -36 -471 -68q-210 -56 -210 -219zM326 1336v144h143v-144h-143zM706 1336v144h143v-144h-143z" />
    <glyph glyph-name="aring" unicode="&#xe5;" horiz-adv-x="1124" 
d="M463 -31q-182 0 -281.5 93.5t-99.5 232.5q0 132 79.5 209.5t211.5 108.5q132 29 511 76q0 172 -74 253t-244 81q-258 0 -321 -232l-121 33q38 151 152.5 232t293.5 81q151 0 256 -60t146 -167q29 -74 29 -221v-689h-107v193q-64 -108 -176 -166t-255 -58zM203 294
q0 -40 14 -76.5t43.5 -69t83.5 -51.5t125 -19q167 0 273.5 88t128.5 238q13 72 13 177q-345 -36 -471 -68q-210 -56 -210 -219zM366 1439q0 87 62.5 149.5t149.5 62.5q88 0 150 -62.5t62 -149.5q0 -89 -62 -150.5t-150 -61.5q-87 0 -149.5 62t-62.5 150zM465 1439
q0 -46 33.5 -79.5t79.5 -33.5q47 0 79.5 33.5t32.5 79.5q0 47 -32.5 79.5t-79.5 32.5q-46 0 -79.5 -33t-33.5 -79z" />
    <glyph glyph-name="ae" unicode="&#xe6;" horiz-adv-x="1933" 
d="M1376 -31q-155 0 -266 75.5t-169 209.5q-33 -78 -85.5 -135.5t-116 -89t-129.5 -46t-138 -14.5q-183 0 -286.5 88t-103.5 242q0 50 12.5 92.5t31 73t49.5 55.5t59 41t69 28t69 17.5t70 9.5t62 5t53 2l327 6q7 197 -69 295.5t-244 98.5q-125 0 -212 -53t-118 -168l-117 37
q35 143 157 220.5t290 77.5q151 0 251 -61t144 -173q62 112 166.5 173t243.5 61q157 0 265.5 -78t160 -215.5t48.5 -324.5h-845q7 -202 102 -318.5t266 -116.5q119 0 209.5 57.5t143.5 173.5l101 -47q-62 -144 -180.5 -221.5t-270.5 -77.5zM203 299q0 -106 70.5 -164
t195.5 -58t224.5 56t143.5 149q44 92 47 246l-318 -4q-37 -1 -60 -2t-65.5 -5.5t-70.5 -13t-62.5 -25t-55 -39.5t-35 -59t-14.5 -81zM1007 627h724q-17 192 -105.5 295t-252.5 103q-166 0 -258.5 -106.5t-107.5 -291.5z" />
    <glyph glyph-name="ccedilla" unicode="&#xe7;" horiz-adv-x="1119" 
d="M541 -490q-60 0 -127 30l33 89q49 -18 84 -18q41 0 65.5 26t24.5 62q0 22 -10 39t-29.5 29t-39.5 20t-48 17q-7 2 -10 3l60 164q-219 18 -338.5 174.5t-123.5 407.5q4 269 137.5 426.5t376.5 157.5q161 0 282.5 -78t170.5 -212l-115 -42q-42 102 -132 159.5t-207 57.5
q-189 0 -287 -127t-100 -342q2 -218 101 -343.5t286 -125.5q117 0 204 54.5t133 157.5l117 -40q-61 -130 -164 -202.5t-243 -82.5l-38 -104q123 -53 123 -173q0 -77 -55 -130.5t-131 -53.5z" />
    <glyph glyph-name="egrave" unicode="&#xe8;" horiz-adv-x="1185" 
d="M599 -31q-238 0 -377.5 157.5t-139.5 424.5q0 271 138.5 428.5t376.5 157.5q242 0 376 -163.5t130 -454.5h-894q8 -208 108.5 -321.5t279.5 -113.5q127 0 223.5 59t152.5 172l106 -47q-67 -142 -193 -220.5t-287 -78.5zM211 626h765q-18 195 -114 297t-263 102
q-171 0 -271 -103.5t-117 -295.5zM450 1582h109l111 -297h-110z" />
    <glyph glyph-name="eacute" unicode="&#xe9;" horiz-adv-x="1185" 
d="M599 -31q-238 0 -377.5 157.5t-139.5 424.5q0 271 138.5 428.5t376.5 157.5q242 0 376 -163.5t130 -454.5h-894q8 -208 108.5 -321.5t279.5 -113.5q127 0 223.5 59t152.5 172l106 -47q-67 -142 -193 -220.5t-287 -78.5zM211 626h765q-18 195 -114 297t-263 102
q-171 0 -271 -103.5t-117 -295.5zM563 1285l111 297h109l-110 -297h-110z" />
    <glyph glyph-name="ecircumflex" unicode="&#xea;" horiz-adv-x="1185" 
d="M599 -31q-238 0 -377.5 157.5t-139.5 424.5q0 271 138.5 428.5t376.5 157.5q242 0 376 -163.5t130 -454.5h-894q8 -208 108.5 -321.5t279.5 -113.5q127 0 223.5 59t152.5 172l106 -47q-67 -142 -193 -220.5t-287 -78.5zM211 626h765q-18 195 -114 297t-263 102
q-171 0 -271 -103.5t-117 -295.5zM318 1285l220 261h116l220 -261h-128l-150 176l-150 -176h-128z" />
    <glyph glyph-name="edieresis" unicode="&#xeb;" horiz-adv-x="1185" 
d="M599 -31q-238 0 -377.5 157.5t-139.5 424.5q0 271 138.5 428.5t376.5 157.5q242 0 376 -163.5t130 -454.5h-894q8 -208 108.5 -321.5t279.5 -113.5q127 0 223.5 59t152.5 172l106 -47q-67 -142 -193 -220.5t-287 -78.5zM211 626h765q-18 195 -114 297t-263 102
q-171 0 -271 -103.5t-117 -295.5zM335 1336v144h143v-144h-143zM715 1336v144h143v-144h-143z" />
    <glyph glyph-name="igrave" unicode="&#xec;" horiz-adv-x="445" 
d="M164 0v1106h118v-1106h-118zM55 1582h110l110 -297h-109z" />
    <glyph glyph-name="iacute" unicode="&#xed;" horiz-adv-x="445" 
d="M164 0v1106h118v-1106h-118zM170 1285l111 297h109l-110 -297h-110z" />
    <glyph glyph-name="icircumflex" unicode="&#xee;" horiz-adv-x="445" 
d="M164 0v1106h118v-1106h-118zM-52 1285l219 261h117l220 -261h-128l-151 176l-149 -176h-128z" />
    <glyph glyph-name="idieresis" unicode="&#xef;" horiz-adv-x="445" 
d="M164 0v1106h118v-1106h-118zM-39 1336v144h143v-144h-143zM341 1336v144h143v-144h-143z" />
    <glyph glyph-name="eth" unicode="&#xf0;" horiz-adv-x="1182" 
d="M593 -31q-236 -2 -372.5 147t-138.5 400q2 252 139 400.5t372 146.5q114 1 215.5 -43.5t167.5 -129.5q-35 289 -234 424l-115 -146l-82 68l102 128q-84 34 -186 41l16 105q137 -8 243 -56l119 148l81 -67l-107 -133q109 -76 177 -203q66 -116 88.5 -261t22.5 -419
q0 -252 -137 -402t-371 -148zM205 516q0 -205 101 -319.5t287 -114.5t285.5 116t99.5 320q0 202 -102 318t-283 114q-186 2 -287 -114.5t-101 -319.5z" />
    <glyph glyph-name="ntilde" unicode="&#xf1;" 
d="M953 575q0 214 -85.5 328.5t-256.5 114.5q-174 0 -261.5 -114.5t-87.5 -306.5v-597h-119v1106h108v-166q60 96 157.5 144t218.5 48q111 0 197.5 -41.5t140 -114t80.5 -166.5t27 -205v-605h-119v575zM307 1299q-21 82 20 139t120 57q38 0 82.5 -16.5t78 -37t71.5 -37
t65 -16.5q36 0 51 29t3 68h90q21 -81 -20 -140t-123 -59q-47 0 -103 27t-107 54t-84 27q-39 0 -52.5 -29.5t-1.5 -65.5h-90z" />
    <glyph glyph-name="ograve" unicode="&#xf2;" horiz-adv-x="1193" 
d="M597 -31q-242 0 -378.5 161t-136.5 425t138 423t377 159q243 0 379 -160t136 -422q0 -266 -136.5 -426t-378.5 -160zM208 555q0 -218 100.5 -344.5t288.5 -126.5q190 0 289.5 127t99.5 344q0 218 -99.5 342.5t-289.5 124.5q-192 0 -290.5 -126.5t-98.5 -340.5zM424 1582
h110l110 -297h-109z" />
    <glyph glyph-name="oacute" unicode="&#xf3;" horiz-adv-x="1193" 
d="M597 -31q-242 0 -378.5 161t-136.5 425t138 423t377 159q243 0 379 -160t136 -422q0 -266 -136.5 -426t-378.5 -160zM208 555q0 -218 100.5 -344.5t288.5 -126.5q190 0 289.5 127t99.5 344q0 218 -99.5 342.5t-289.5 124.5q-192 0 -290.5 -126.5t-98.5 -340.5zM540 1285
l110 297h110l-111 -297h-109z" />
    <glyph glyph-name="ocircumflex" unicode="&#xf4;" horiz-adv-x="1193" 
d="M597 -31q-242 0 -378.5 161t-136.5 425t138 423t377 159q243 0 379 -160t136 -422q0 -266 -136.5 -426t-378.5 -160zM208 555q0 -218 100.5 -344.5t288.5 -126.5q190 0 289.5 127t99.5 344q0 218 -99.5 342.5t-289.5 124.5q-192 0 -290.5 -126.5t-98.5 -340.5zM318 1285
l220 261h116l220 -261h-128l-150 176l-150 -176h-128z" />
    <glyph glyph-name="otilde" unicode="&#xf5;" horiz-adv-x="1193" 
d="M597 -31q-242 0 -378.5 161t-136.5 425t138 423t377 159q243 0 379 -160t136 -422q0 -266 -136.5 -426t-378.5 -160zM208 555q0 -218 100.5 -344.5t288.5 -126.5q190 0 289.5 127t99.5 344q0 218 -99.5 342.5t-289.5 124.5q-192 0 -290.5 -126.5t-98.5 -340.5zM307 1299
q-21 82 20 139t120 57q38 0 82.5 -16.5t78 -37t71.5 -37t65 -16.5q36 0 51 29t3 68h90q21 -81 -20 -140t-123 -59q-47 0 -103 27t-107 54t-84 27q-39 0 -52.5 -29.5t-1.5 -65.5h-90z" />
    <glyph glyph-name="odieresis" unicode="&#xf6;" horiz-adv-x="1193" 
d="M597 -31q-242 0 -378.5 161t-136.5 425t138 423t377 159q243 0 379 -160t136 -422q0 -266 -136.5 -426t-378.5 -160zM208 555q0 -218 100.5 -344.5t288.5 -126.5q190 0 289.5 127t99.5 344q0 218 -99.5 342.5t-289.5 124.5q-192 0 -290.5 -126.5t-98.5 -340.5zM336 1336
v144h143v-144h-143zM716 1336v144h143v-144h-143z" />
    <glyph glyph-name="divide" unicode="&#xf7;" horiz-adv-x="1105" 
d="M123 684v108h860v-108h-860zM481 402v147h147v-147h-147zM481 928v146h147v-146h-147z" />
    <glyph glyph-name="oslash" unicode="&#xf8;" horiz-adv-x="1193" 
d="M119 -5l-82 82l129 129q-84 144 -84 349q0 264 138 423t377 159q223 0 361 -141l117 115l82 -81l-129 -127q84 -144 84 -348q0 -266 -136.5 -426t-378.5 -160q-223 0 -361 143zM208 555q0 -153 50 -264l620 617q-102 114 -281 114q-192 0 -290.5 -126.5t-98.5 -340.5z
M317 200q102 -116 280 -116q190 0 289.5 127t99.5 344q0 156 -50 263z" />
    <glyph glyph-name="ugrave" unicode="&#xf9;" 
d="M568 -26q-111 0 -197.5 41.5t-140 114t-80.5 166.5t-27 205v605h119v-576q0 -214 85.5 -328t256.5 -114q174 0 261.5 114.5t87.5 306.5v597h119v-1106h-108v166q-60 -96 -157.5 -144t-218.5 -48zM445 1582h110l111 -297h-110z" />
    <glyph glyph-name="uacute" unicode="&#xfa;" 
d="M568 -26q-111 0 -197.5 41.5t-140 114t-80.5 166.5t-27 205v605h119v-576q0 -214 85.5 -328t256.5 -114q174 0 261.5 114.5t87.5 306.5v597h119v-1106h-108v166q-60 -96 -157.5 -144t-218.5 -48zM527 1285l111 297h110l-111 -297h-110z" />
    <glyph glyph-name="ucircumflex" unicode="&#xfb;" 
d="M568 -26q-111 0 -197.5 41.5t-140 114t-80.5 166.5t-27 205v605h119v-576q0 -214 85.5 -328t256.5 -114q174 0 261.5 114.5t87.5 306.5v597h119v-1106h-108v166q-60 -96 -157.5 -144t-218.5 -48zM308 1285l219 261h117l220 -261h-128l-150 176l-150 -176h-128z" />
    <glyph glyph-name="udieresis" unicode="&#xfc;" 
d="M568 -26q-111 0 -197.5 41.5t-140 114t-80.5 166.5t-27 205v605h119v-576q0 -214 85.5 -328t256.5 -114q174 0 261.5 114.5t87.5 306.5v597h119v-1106h-108v166q-60 -96 -157.5 -144t-218.5 -48zM325 1336v144h143v-144h-143zM705 1336v144h143v-144h-143z" />
    <glyph glyph-name="yacute" unicode="&#xfd;" horiz-adv-x="1057" 
d="M305 -492l182 492l-449 1106h126l381 -949l347 949h124l-588 -1598h-123zM469 1285l111 297h109l-110 -297h-110z" />
    <glyph glyph-name="thorn" unicode="&#xfe;" horiz-adv-x="1196" 
d="M143 1475h119v-535q129 197 377 197q147 0 256 -77.5t164 -208.5t55 -296q0 -168 -55.5 -299t-167 -209t-263.5 -78q-239 0 -367 201v-662h-118v1967zM251 555q0 -138 40 -243t124.5 -167.5t205.5 -62.5q118 0 202.5 63t124.5 168t40 242q0 136 -39 240t-124 166.5
t-207 62.5q-178 0 -272.5 -128.5t-94.5 -340.5z" />
    <glyph glyph-name="ydieresis" unicode="&#xff;" horiz-adv-x="1057" 
d="M305 -492l182 492l-449 1106h126l381 -949l347 949h124l-588 -1598h-123zM276 1336v144h144v-144h-144zM656 1336v144h144v-144h-144z" />
    <glyph glyph-name="Amacron" unicode="&#x100;" horiz-adv-x="1272" 
d="M41 0l522 1475h147l522 -1475h-125l-132 371h-678l-131 -371h-125zM336 482h600l-301 847zM386 1720v108h503v-108h-503z" />
    <glyph glyph-name="amacron" unicode="&#x101;" horiz-adv-x="1124" 
d="M463 -31q-182 0 -281.5 93.5t-99.5 232.5q0 132 79.5 209.5t211.5 108.5q132 29 511 76q0 172 -74 253t-244 81q-258 0 -321 -232l-121 33q38 151 152.5 232t293.5 81q151 0 256 -60t146 -167q29 -74 29 -221v-689h-107v193q-64 -108 -176 -166t-255 -58zM203 294
q0 -40 14 -76.5t43.5 -69t83.5 -51.5t125 -19q167 0 273.5 88t128.5 238q13 72 13 177q-345 -36 -471 -68q-210 -56 -210 -219zM356 1352v107h503v-107h-503z" />
    <glyph glyph-name="Abreve" unicode="&#x102;" horiz-adv-x="1272" 
d="M41 0l522 1475h147l522 -1475h-125l-132 371h-678l-131 -371h-125zM336 482h600l-301 847zM388 1857h102q0 -60 43.5 -103.5t103.5 -43.5q61 0 103.5 43.5t42.5 103.5h103q0 -103 -73 -176t-176 -73t-176 73t-73 176z" />
    <glyph glyph-name="abreve" unicode="&#x103;" horiz-adv-x="1124" 
d="M463 -31q-182 0 -281.5 93.5t-99.5 232.5q0 132 79.5 209.5t211.5 108.5q132 29 511 76q0 172 -74 253t-244 81q-258 0 -321 -232l-121 33q38 151 152.5 232t293.5 81q151 0 256 -60t146 -167q29 -74 29 -221v-689h-107v193q-64 -108 -176 -166t-255 -58zM203 294
q0 -40 14 -76.5t43.5 -69t83.5 -51.5t125 -19q167 0 273.5 88t128.5 238q13 72 13 177q-345 -36 -471 -68q-210 -56 -210 -219zM330 1488h102q0 -60 43.5 -103.5t103.5 -43.5q61 0 103.5 43.5t42.5 103.5h102q0 -103 -72.5 -176t-175.5 -73t-176 73t-73 176z" />
    <glyph glyph-name="Aogonek" unicode="&#x104;" horiz-adv-x="1272" 
d="M41 0l522 1475h147l522 -1475q-97 -62 -165.5 -146.5t-68.5 -152.5q0 -40 24.5 -66.5t59.5 -26.5q52 0 101 54l58 -69q-69 -88 -166 -88q-76 0 -131.5 58t-55.5 135q0 79 57.5 166.5t151.5 165.5l-122 341h-678l-131 -371h-125zM336 482h600l-301 847z" />
    <glyph glyph-name="aogonek" unicode="&#x105;" horiz-adv-x="1124" 
d="M463 -31q-182 0 -281.5 93.5t-99.5 232.5q0 132 79.5 209.5t211.5 108.5q132 29 511 76q0 172 -74 253t-244 81q-258 0 -321 -232l-121 33q38 151 152.5 232t293.5 81q151 0 256 -60t146 -167q29 -74 29 -221v-689q-97 -61 -165 -146t-68 -153q0 -40 24.5 -66.5
t59.5 -26.5q51 0 100 54l59 -69q-69 -88 -166 -88q-76 0 -132 58t-56 135q0 84 65.5 178t171.5 177v140q-64 -108 -176 -166t-255 -58zM203 294q0 -40 14 -76.5t43.5 -69t83.5 -51.5t125 -19q167 0 273.5 88t128.5 238q13 72 13 177q-345 -36 -471 -68q-210 -56 -210 -219z
" />
    <glyph glyph-name="Cacute" unicode="&#x106;" horiz-adv-x="1448" 
d="M732 -31q-162 0 -290 56.5t-211 158.5t-126.5 242.5t-43.5 310.5t43.5 310.5t126.5 242.5t211 158.5t290 56.5q251 0 413.5 -130t221.5 -359l-122 -30q-49 190 -179 297t-334 107q-177 0 -300.5 -84t-183 -229t-61.5 -340q-2 -194 58 -339.5t185 -229t302 -83.5
q204 0 334 106.5t179 296.5l122 -29q-59 -229 -221.5 -359.5t-413.5 -130.5zM687 1654l111 297h109l-110 -297h-110z" />
    <glyph glyph-name="cacute" unicode="&#x107;" horiz-adv-x="1119" 
d="M595 -31q-162 0 -278.5 75t-174 205t-60.5 304q4 269 137.5 426.5t376.5 157.5q161 0 282.5 -78t170.5 -212l-115 -42q-42 102 -132 159.5t-207 57.5q-189 0 -287 -127t-100 -342q2 -218 101 -343.5t286 -125.5q117 0 204 54.5t133 157.5l117 -40q-65 -141 -180.5 -214
t-273.5 -73zM559 1285l111 297h109l-110 -297h-110z" />
    <glyph glyph-name="Ccircumflex" unicode="&#x108;" horiz-adv-x="1448" 
d="M732 -31q-162 0 -290 56.5t-211 158.5t-126.5 242.5t-43.5 310.5t43.5 310.5t126.5 242.5t211 158.5t290 56.5q251 0 413.5 -130t221.5 -359l-122 -30q-49 190 -179 297t-334 107q-177 0 -300.5 -84t-183 -229t-61.5 -340q-2 -194 58 -339.5t185 -229t302 -83.5
q204 0 334 106.5t179 296.5l122 -29q-59 -229 -221.5 -359.5t-413.5 -130.5zM455 1654l219 261h117l220 -261h-128l-151 176l-149 -176h-128z" />
    <glyph glyph-name="ccircumflex" unicode="&#x109;" horiz-adv-x="1119" 
d="M595 -31q-162 0 -278.5 75t-174 205t-60.5 304q4 269 137.5 426.5t376.5 157.5q161 0 282.5 -78t170.5 -212l-115 -42q-42 102 -132 159.5t-207 57.5q-189 0 -287 -127t-100 -342q2 -218 101 -343.5t286 -125.5q117 0 204 54.5t133 157.5l117 -40q-65 -141 -180.5 -214
t-273.5 -73zM318 1285l220 261h116l220 -261h-128l-150 176l-150 -176h-128z" />
    <glyph glyph-name="Cdotaccent" unicode="&#x10a;" horiz-adv-x="1448" 
d="M732 -31q-162 0 -290 56.5t-211 158.5t-126.5 242.5t-43.5 310.5t43.5 310.5t126.5 242.5t211 158.5t290 56.5q251 0 413.5 -130t221.5 -359l-122 -30q-49 190 -179 297t-334 107q-177 0 -300.5 -84t-183 -229t-61.5 -340q-2 -194 58 -339.5t185 -229t302 -83.5
q204 0 334 106.5t179 296.5l122 -29q-59 -229 -221.5 -359.5t-413.5 -130.5zM676 1715v149h148v-149h-148z" />
    <glyph glyph-name="cdotaccent" unicode="&#x10b;" horiz-adv-x="1119" 
d="M595 -31q-162 0 -278.5 75t-174 205t-60.5 304q4 269 137.5 426.5t376.5 157.5q161 0 282.5 -78t170.5 -212l-115 -42q-42 102 -132 159.5t-207 57.5q-189 0 -287 -127t-100 -342q2 -218 101 -343.5t286 -125.5q117 0 204 54.5t133 157.5l117 -40q-65 -141 -180.5 -214
t-273.5 -73zM536 1347v148h148v-148h-148z" />
    <glyph glyph-name="Ccaron" unicode="&#x10c;" horiz-adv-x="1448" 
d="M732 -31q-162 0 -290 56.5t-211 158.5t-126.5 242.5t-43.5 310.5t43.5 310.5t126.5 242.5t211 158.5t290 56.5q251 0 413.5 -130t221.5 -359l-122 -30q-49 190 -179 297t-334 107q-177 0 -300.5 -84t-183 -229t-61.5 -340q-2 -194 58 -339.5t185 -229t302 -83.5
q204 0 334 106.5t179 296.5l122 -29q-59 -229 -221.5 -359.5t-413.5 -130.5zM505 1915h128l149 -176l151 176h128l-220 -261h-117z" />
    <glyph glyph-name="ccaron" unicode="&#x10d;" horiz-adv-x="1119" 
d="M595 -31q-162 0 -278.5 75t-174 205t-60.5 304q4 269 137.5 426.5t376.5 157.5q161 0 282.5 -78t170.5 -212l-115 -42q-42 102 -132 159.5t-207 57.5q-189 0 -287 -127t-100 -342q2 -218 101 -343.5t286 -125.5q117 0 204 54.5t133 157.5l117 -40q-65 -141 -180.5 -214
t-273.5 -73zM317 1546h128l150 -176l150 176h128l-220 -261h-116z" />
    <glyph glyph-name="Dcaron" unicode="&#x10e;" horiz-adv-x="1354" 
d="M143 0v1475h440q115 0 193 -11q161 -22 274 -125t166.5 -256.5t53.5 -345.5q0 -193 -53.5 -346.5t-166.5 -256t-274 -124.5q-70 -10 -193 -10h-440zM267 116h316q116 0 179 11q133 23 220 110t124.5 212t37.5 288q0 122 -21.5 223t-66.5 183t-119.5 135t-174.5 70
q-63 11 -179 11h-316v-1243zM314 1915h128l150 -176l150 176h128l-220 -261h-116z" />
    <glyph glyph-name="dcaron" unicode="&#x10f;" horiz-adv-x="1424" 
d="M568 -31q-152 0 -263.5 78t-167 209t-55.5 299q0 165 55 296t164 208.5t256 77.5q250 0 378 -199v537h118v-1475h-108v187q-60 -103 -156 -160.5t-221 -57.5zM208 555q0 -137 40 -242t124.5 -168t202.5 -63q121 0 205.5 62.5t124.5 167.5t40 243q0 212 -94.5 340.5
t-272.5 128.5q-122 0 -207 -62.5t-124 -166.5t-39 -240zM1273 1094l8 63q27 -2 43.5 8.5t22 30t7 44t-0.5 51.5h-80v200h148v-251q0 -80 -41.5 -120t-106.5 -26z" />
    <glyph glyph-name="Dcroat" unicode="&#x110;" horiz-adv-x="1337" 
d="M20 684v108h106v683h439q116 0 194 -11q161 -22 274 -125t166 -256.5t53 -345.5q0 -143 -31 -266.5t-91 -221t-155 -160t-216 -79.5q-70 -10 -194 -10h-439v684h-106zM250 116h315q116 0 179 11q133 23 220 110t124.5 212t37.5 288q0 122 -21.5 223t-66.5 183t-119.5 135
t-174.5 70q-63 11 -179 11h-315v-567h400v-108h-400v-568z" />
    <glyph glyph-name="dcroat" unicode="&#x111;" horiz-adv-x="1196" 
d="M568 -31q-152 0 -263.5 78t-167 209t-55.5 299q0 165 55 296t164 208.5t256 77.5q250 0 378 -199v284h-237v107h237v146h118v-146h148v-107h-148v-1222h-108v187q-60 -103 -156 -160.5t-221 -57.5zM208 555q0 -137 40 -242t124.5 -168t202.5 -63q121 0 205.5 62.5
t124.5 167.5t40 243q0 212 -94.5 340.5t-272.5 128.5q-122 0 -207 -62.5t-124 -166.5t-39 -240z" />
    <glyph glyph-name="Emacron" unicode="&#x112;" horiz-adv-x="1157" 
d="M143 0v1475h912v-115h-794v-560h671v-115h-671v-570h794v-115h-912zM349 1720v108h503v-108h-503z" />
    <glyph glyph-name="emacron" unicode="&#x113;" horiz-adv-x="1185" 
d="M599 -31q-238 0 -377.5 157.5t-139.5 424.5q0 271 138.5 428.5t376.5 157.5q242 0 376 -163.5t130 -454.5h-894q8 -208 108.5 -321.5t279.5 -113.5q127 0 223.5 59t152.5 172l106 -47q-67 -142 -193 -220.5t-287 -78.5zM211 626h765q-18 195 -114 297t-263 102
q-171 0 -271 -103.5t-117 -295.5zM366 1352v107h502v-107h-502z" />
    <glyph glyph-name="Edotaccent" unicode="&#x116;" horiz-adv-x="1157" 
d="M143 0v1475h912v-115h-794v-560h671v-115h-671v-570h794v-115h-912zM532 1715v149h149v-149h-149z" />
    <glyph glyph-name="edotaccent" unicode="&#x117;" horiz-adv-x="1185" 
d="M599 -31q-238 0 -377.5 157.5t-139.5 424.5q0 271 138.5 428.5t376.5 157.5q242 0 376 -163.5t130 -454.5h-894q8 -208 108.5 -321.5t279.5 -113.5q127 0 223.5 59t152.5 172l106 -47q-67 -142 -193 -220.5t-287 -78.5zM211 626h765q-18 195 -114 297t-263 102
q-171 0 -271 -103.5t-117 -295.5zM522 1347v148h149v-148h-149z" />
    <glyph glyph-name="Eogonek" unicode="&#x118;" horiz-adv-x="1157" 
d="M143 0v1475h912v-115h-794v-560h671v-115h-671v-570h794v-115q-97 -62 -165.5 -146.5t-68.5 -152.5q0 -40 24.5 -66.5t59.5 -26.5q52 0 101 54l58 -69q-69 -88 -166 -88q-76 0 -131.5 58t-55.5 135q0 71 47 149.5t127 152.5h-742z" />
    <glyph glyph-name="eogonek" unicode="&#x119;" horiz-adv-x="1185" 
d="M894 -474q-59 -24 -115.5 -12t-94.5 53q-76 79 -38 202q25 83 92 171q10 13 52 61q-93 -32 -191 -32q-238 0 -377.5 157.5t-139.5 424.5q0 271 138.5 428.5t376.5 157.5q242 0 376 -163.5t130 -454.5h-894q8 -208 108.5 -321.5t279.5 -113.5q127 0 223.5 59t152.5 172
l106 -47q-12 -26 -23 -45q-27 -53 -76 -122t-96 -129t-56 -73q-66 -101 -82 -161q-17 -65 16 -98q24 -24 55 -25t58 12.5t52 36.5l60 -71q-40 -44 -93 -67zM211 626h765q-18 195 -114 297t-263 102q-171 0 -271 -103.5t-117 -295.5z" />
    <glyph glyph-name="Ecaron" unicode="&#x11a;" horiz-adv-x="1157" 
d="M143 0v1475h912v-115h-794v-560h671v-115h-671v-570h794v-115h-912zM328 1915h128l149 -176l151 176h128l-220 -261h-117z" />
    <glyph glyph-name="ecaron" unicode="&#x11b;" horiz-adv-x="1185" 
d="M599 -31q-238 0 -377.5 157.5t-139.5 424.5q0 271 138.5 428.5t376.5 157.5q242 0 376 -163.5t130 -454.5h-894q8 -208 108.5 -321.5t279.5 -113.5q127 0 223.5 59t152.5 172l106 -47q-67 -142 -193 -220.5t-287 -78.5zM211 626h765q-18 195 -114 297t-263 102
q-171 0 -271 -103.5t-117 -295.5zM318 1546h128l150 -176l150 176h128l-220 -261h-116z" />
    <glyph glyph-name="Gcircumflex" unicode="&#x11c;" horiz-adv-x="1425" 
d="M729 -31q-211 0 -363 96.5t-228.5 269t-76.5 402.5q0 172 44 312.5t128 241.5t210.5 156.5t285.5 55.5q216 0 362 -101.5t207 -277.5l-116 -35q-53 140 -169 219.5t-281 80.5q-133 0 -237 -47.5t-170.5 -134.5t-101.5 -206t-36 -264t33.5 -264t101.5 -206t172 -134.5
t238 -47.5q251 -1 375.5 145t129.5 407h-367v107h490q4 -36 4 -88q0 -149 -39 -272.5t-115 -217t-199 -145.5t-282 -52zM433 1654l219 261h117l220 -261h-128l-150 176l-150 -176h-128z" />
    <glyph glyph-name="gcircumflex" unicode="&#x11d;" horiz-adv-x="1196" 
d="M573 -522q-134 0 -250 59t-185 185l107 64q48 -97 136.5 -143.5t192.5 -46.5q195 0 277.5 108t81.5 335v128q-128 -198 -365 -198q-152 0 -263.5 78t-167 209t-55.5 299q0 165 55 296t164 208.5t256 77.5q130 0 228.5 -56.5t159.5 -158.5v184h108v-1067q0 -105 -12 -184
q-27 -192 -142.5 -284.5t-325.5 -92.5zM208 555q0 -137 40 -242t124.5 -168t202.5 -63q121 0 205.5 62.5t124.5 167.5t40 243q0 212 -94.5 340.5t-272.5 128.5q-122 0 -207 -62.5t-124 -166.5t-39 -240zM297 1285l219 261h117l220 -261h-128l-151 176l-149 -176h-128z" />
    <glyph glyph-name="Gbreve" unicode="&#x11e;" horiz-adv-x="1425" 
d="M729 -31q-211 0 -363 96.5t-228.5 269t-76.5 402.5q0 172 44 312.5t128 241.5t210.5 156.5t285.5 55.5q216 0 362 -101.5t207 -277.5l-116 -35q-53 140 -169 219.5t-281 80.5q-133 0 -237 -47.5t-170.5 -134.5t-101.5 -206t-36 -264t33.5 -264t101.5 -206t172 -134.5
t238 -47.5q251 -1 375.5 145t129.5 407h-367v107h490q4 -36 4 -88q0 -149 -39 -272.5t-115 -217t-199 -145.5t-282 -52zM485 1857h103q0 -60 43 -103.5t103 -43.5q61 0 104 43.5t43 103.5h102q0 -103 -73 -176t-176 -73t-176 73t-73 176z" />
    <glyph glyph-name="gbreve" unicode="&#x11f;" horiz-adv-x="1196" 
d="M573 -522q-134 0 -250 59t-185 185l107 64q48 -97 136.5 -143.5t192.5 -46.5q195 0 277.5 108t81.5 335v128q-128 -198 -365 -198q-152 0 -263.5 78t-167 209t-55.5 299q0 165 55 296t164 208.5t256 77.5q130 0 228.5 -56.5t159.5 -158.5v184h108v-1067q0 -105 -12 -184
q-27 -192 -142.5 -284.5t-325.5 -92.5zM208 555q0 -137 40 -242t124.5 -168t202.5 -63q121 0 205.5 62.5t124.5 167.5t40 243q0 212 -94.5 340.5t-272.5 128.5q-122 0 -207 -62.5t-124 -166.5t-39 -240zM384 1488h102q0 -60 43.5 -103.5t103.5 -43.5q61 0 103.5 43.5
t42.5 103.5h103q0 -103 -73 -176t-176 -73t-176 73t-73 176z" />
    <glyph glyph-name="Gdotaccent" unicode="&#x120;" horiz-adv-x="1425" 
d="M729 -31q-211 0 -363 96.5t-228.5 269t-76.5 402.5q0 172 44 312.5t128 241.5t210.5 156.5t285.5 55.5q216 0 362 -101.5t207 -277.5l-116 -35q-53 140 -169 219.5t-281 80.5q-133 0 -237 -47.5t-170.5 -134.5t-101.5 -206t-36 -264t33.5 -264t101.5 -206t172 -134.5
t238 -47.5q251 -1 375.5 145t129.5 407h-367v107h490q4 -36 4 -88q0 -149 -39 -272.5t-115 -217t-199 -145.5t-282 -52zM675 1715v149h148v-149h-148z" />
    <glyph glyph-name="gdotaccent" unicode="&#x121;" horiz-adv-x="1196" 
d="M573 -522q-134 0 -250 59t-185 185l107 64q48 -97 136.5 -143.5t192.5 -46.5q195 0 277.5 108t81.5 335v128q-128 -198 -365 -198q-152 0 -263.5 78t-167 209t-55.5 299q0 165 55 296t164 208.5t256 77.5q130 0 228.5 -56.5t159.5 -158.5v184h108v-1067q0 -105 -12 -184
q-27 -192 -142.5 -284.5t-325.5 -92.5zM208 555q0 -137 40 -242t124.5 -168t202.5 -63q121 0 205.5 62.5t124.5 167.5t40 243q0 212 -94.5 340.5t-272.5 128.5q-122 0 -207 -62.5t-124 -166.5t-39 -240zM557 1347v148h149v-148h-149z" />
    <glyph glyph-name="uni0122" unicode="&#x122;" horiz-adv-x="1425" 
d="M729 -31q-211 0 -363 96.5t-228.5 269t-76.5 402.5q0 172 44 312.5t128 241.5t210.5 156.5t285.5 55.5q216 0 362 -101.5t207 -277.5l-116 -35q-53 140 -169 219.5t-281 80.5q-133 0 -237 -47.5t-170.5 -134.5t-101.5 -206t-36 -264t33.5 -264t101.5 -206t172 -134.5
t238 -47.5q251 -1 375.5 145t129.5 407h-367v107h490q4 -36 4 -88q0 -149 -39 -272.5t-115 -217t-199 -145.5t-282 -52zM665 -543v71q26 0 52.5 20.5t23.5 64.5h-76v146h146v-146q0 -76 -44.5 -116t-101.5 -40z" />
    <glyph glyph-name="uni0123" unicode="&#x123;" horiz-adv-x="1196" 
d="M573 -522q-134 0 -250 59t-185 185l107 64q48 -97 136.5 -143.5t192.5 -46.5q195 0 277.5 108t81.5 335v128q-128 -198 -365 -198q-152 0 -263.5 78t-167 209t-55.5 299q0 165 55 296t164 208.5t256 77.5q130 0 228.5 -56.5t159.5 -158.5v184h108v-1067q0 -105 -12 -184
q-27 -192 -142.5 -284.5t-325.5 -92.5zM208 555q0 -137 40 -242t124.5 -168t202.5 -63q121 0 205.5 62.5t124.5 167.5t40 243q0 212 -94.5 340.5t-272.5 128.5q-122 0 -207 -62.5t-124 -166.5t-39 -240zM537 1347v146q0 76 44.5 116t101.5 40v-71q-26 0 -53 -20.5t-24 -64.5
h77v-146h-146z" />
    <glyph glyph-name="Hcircumflex" unicode="&#x124;" horiz-adv-x="1377" 
d="M143 0v1475h118v-680h854v680h119v-1475h-119v680h-854v-680h-118zM410 1654l219 261h116l221 -261h-128l-151 176l-149 -176h-128z" />
    <glyph glyph-name="hcircumflex" unicode="&#x125;" 
d="M953 575q0 214 -85.5 328.5t-256.5 114.5q-174 0 -261.5 -114.5t-87.5 -306.5v-597h-119v1475h108v-535q60 96 157.5 144t218.5 48q111 0 197.5 -41.5t140 -114t80.5 -166.5t27 -205v-605h-119v575zM-82 1654l219 261h117l220 -261h-128l-150 176l-150 -176h-128z" />
    <glyph glyph-name="Hbar" unicode="&#x126;" horiz-adv-x="1418" 
d="M164 0v1019h-144v115h144v341h118v-341h854v341h118v-341h144v-115h-144v-1019h-118v680h-854v-680h-118zM282 795h854v224h-854v-224z" />
    <glyph glyph-name="hbar" unicode="&#x127;" 
d="M953 575q0 214 -85.5 328.5t-256.5 114.5q-174 0 -261.5 -114.5t-87.5 -306.5v-597h-119v1222h-137v107h137v146h108v-146h258v-107h-258v-282q60 96 157.5 144t218.5 48q111 0 197.5 -41.5t140 -114t80.5 -166.5t27 -205v-605h-119v575z" />
    <glyph glyph-name="Itilde" unicode="&#x128;" horiz-adv-x="445" 
d="M164 0v1475h118v-1475h-118zM-68 1668q-21 82 20 139t121 57q48 0 105 -27t108 -54t84 -27q36 0 50.5 29t2.5 68h90q21 -81 -19.5 -139.5t-122.5 -58.5q-37 0 -81 16.5t-77.5 37t-71.5 37t-65 16.5q-39 0 -52 -29t-1 -65h-91z" />
    <glyph glyph-name="itilde" unicode="&#x129;" horiz-adv-x="445" 
d="M164 0v1106h118v-1106h-118zM-68 1299q-21 82 20 139t121 57q38 0 82.5 -16.5t78 -37t71.5 -37t65 -16.5q36 0 50.5 29t2.5 68h90q21 -81 -19.5 -140t-122.5 -59q-47 0 -103.5 27t-107.5 54t-84 27q-39 0 -52 -29.5t-1 -65.5h-91z" />
    <glyph glyph-name="Imacron" unicode="&#x12a;" horiz-adv-x="445" 
d="M164 0v1475h118v-1475h-118zM-29 1720v108h503v-108h-503z" />
    <glyph glyph-name="imacron" unicode="&#x12b;" horiz-adv-x="445" 
d="M164 0v1106h118v-1106h-118zM-29 1352v107h503v-107h-503z" />
    <glyph glyph-name="Iogonek" unicode="&#x12e;" horiz-adv-x="445" 
d="M125 -495q-76 0 -131.5 58t-55.5 135q0 82 62.5 174.5t163.5 172.5v1430h118v-1475q-97 -62 -165.5 -146.5t-68.5 -152.5q0 -40 24.5 -66.5t59.5 -26.5q51 0 100 54l59 -69q-69 -88 -166 -88z" />
    <glyph glyph-name="iogonek" unicode="&#x12f;" horiz-adv-x="445" 
d="M164 1329v151h118v-151h-118zM-62 -302q0 82 62.5 174.5t163.5 172.5v1061h118v-1106q-97 -62 -165.5 -146.5t-68.5 -152.5q0 -40 24.5 -66.5t59.5 -26.5q51 0 100 54l59 -69q-69 -88 -166 -88q-76 0 -131.5 58t-55.5 135z" />
    <glyph glyph-name="Idotaccent" unicode="&#x130;" horiz-adv-x="445" 
d="M164 0v1475h118v-1475h-118zM148 1715v149h149v-149h-149z" />
    <glyph glyph-name="dotlessi" unicode="&#x131;" horiz-adv-x="445" 
d="M164 0v1106h118v-1106h-118z" />
    <glyph glyph-name="Jcircumflex" unicode="&#x134;" horiz-adv-x="924" 
d="M381 -29q-140 0 -243.5 79.5t-137.5 213.5l119 28q21 -90 93.5 -148t169.5 -58q68 0 129 31t95 95q16 29 24 68t9 69t1 94v1032h119v-1032v-37v-37.5t-0.5 -32t-2 -34t-3.5 -30t-5.5 -32.5t-8.5 -28t-11.5 -31.5t-15.5 -29.5q-51 -88 -137.5 -134t-193.5 -46zM421 1654
l219 261h117l220 -261h-128l-151 176l-149 -176h-128z" />
    <glyph glyph-name="jcircumflex" unicode="&#x135;" horiz-adv-x="486" 
d="M-20 -492v117h66q74 0 118 40t44 128v1313h119v-1327q0 -140 -62.5 -205.5t-196.5 -65.5h-88zM-11 1285l219 261h117l220 -261h-128l-151 176l-149 -176h-128z" />
    <glyph glyph-name="uni0136" unicode="&#x136;" horiz-adv-x="1179" 
d="M143 0v1475h118v-701l702 701h155l-705 -709l767 -766h-158l-761 754v-754h-118zM547 -543v71q26 0 53 20.5t24 64.5h-77v146h146v-146q0 -76 -44.5 -116t-101.5 -40z" />
    <glyph glyph-name="uni0137" unicode="&#x137;" horiz-adv-x="987" 
d="M143 0v1475h119v-902l523 533h165l-548 -553l626 -553h-183l-583 532v-532h-119zM466 -543v71q26 0 53 20.5t24 64.5h-77v146h146v-146q0 -76 -44.5 -116t-101.5 -40z" />
    <glyph glyph-name="Lacute" unicode="&#x139;" horiz-adv-x="1029" 
d="M164 0v1475h118v-1360h716v-115h-834zM170 1654l111 297h109l-110 -297h-110z" />
    <glyph glyph-name="lacute" unicode="&#x13a;" horiz-adv-x="445" 
d="M164 0v1475h118v-1475h-118zM170 1654l111 297h109l-110 -297h-110z" />
    <glyph glyph-name="uni013B" unicode="&#x13b;" horiz-adv-x="1029" 
d="M164 0v1475h118v-1360h716v-115h-834zM508 -543v71q26 0 53 20.5t24 64.5h-77v146h146v-146q0 -76 -44.5 -116t-101.5 -40z" />
    <glyph glyph-name="uni013C" unicode="&#x13c;" horiz-adv-x="445" 
d="M164 0v1475h118v-1475h-118zM150 -543v71q26 0 52.5 20.5t23.5 64.5h-76v146h146v-146q0 -76 -44.5 -116t-101.5 -40z" />
    <glyph glyph-name="Lcaron" unicode="&#x13d;" horiz-adv-x="1029" 
d="M164 0v1475h118v-1360h716v-115h-834zM629 1285l110 297h110l-111 -297h-109z" />
    <glyph glyph-name="lcaron" unicode="&#x13e;" horiz-adv-x="445" 
d="M164 0v1475h118v-1475h-118zM396 1285l111 297h109l-110 -297h-110z" />
    <glyph glyph-name="Lslash" unicode="&#x141;" horiz-adv-x="1036" 
d="M171 0v484l-78 -45v135l78 46v855h118v-789l377 216v-133l-377 -217v-437h717v-115h-835z" />
    <glyph glyph-name="lslash" unicode="&#x142;" horiz-adv-x="754" 
d="M319 0v652l-228 -131v135l228 131v688h118v-621l227 130v-133l-227 -130v-721h-118z" />
    <glyph glyph-name="Nacute" unicode="&#x143;" horiz-adv-x="1378" 
d="M143 0v1475h119l854 -1265v1265h119v-1475h-119l-854 1267v-1267h-119zM655 1654l111 297h110l-111 -297h-110z" />
    <glyph glyph-name="nacute" unicode="&#x144;" 
d="M953 575q0 214 -85.5 328.5t-256.5 114.5q-174 0 -261.5 -114.5t-87.5 -306.5v-597h-119v1106h108v-166q60 96 157.5 144t218.5 48q111 0 197.5 -41.5t140 -114t80.5 -166.5t27 -205v-605h-119v575zM571 1285l111 297h110l-111 -297h-110z" />
    <glyph glyph-name="uni0145" unicode="&#x145;" horiz-adv-x="1378" 
d="M143 0v1475h119l854 -1265v1265h119v-1475h-119l-854 1267v-1267h-119zM637 -543v71q26 0 53 20.5t24 64.5h-77v146h146v-146q0 -76 -44.5 -116t-101.5 -40z" />
    <glyph glyph-name="uni0146" unicode="&#x146;" 
d="M953 575q0 214 -85.5 328.5t-256.5 114.5q-174 0 -261.5 -114.5t-87.5 -306.5v-597h-119v1106h108v-166q60 96 157.5 144t218.5 48q111 0 197.5 -41.5t140 -114t80.5 -166.5t27 -205v-605h-119v575zM537 -543v71q26 0 52.5 20.5t23.5 64.5h-76v146h146v-146
q0 -76 -44.5 -116t-101.5 -40z" />
    <glyph glyph-name="Ncaron" unicode="&#x147;" horiz-adv-x="1378" 
d="M143 0v1475h119l854 -1265v1265h119v-1475h-119l-854 1267v-1267h-119zM438 1915h128l150 -176l150 176h128l-220 -261h-117z" />
    <glyph glyph-name="ncaron" unicode="&#x148;" 
d="M953 575q0 214 -85.5 328.5t-256.5 114.5q-174 0 -261.5 -114.5t-87.5 -306.5v-597h-119v1106h108v-166q60 96 157.5 144t218.5 48q111 0 197.5 -41.5t140 -114t80.5 -166.5t27 -205v-605h-119v575zM325 1546h128l149 -176l151 176h128l-221 -261h-116z" />
    <glyph glyph-name="Eng" unicode="&#x14a;" horiz-adv-x="1378" 
d="M1116 1475h119v-1668q0 -100 -43.5 -147t-136.5 -47q-49 0 -98 12v104q47 -7 64 -7q59 0 81.5 33.5t22.5 123.5q0 107 -56 192l-807 1196v-1267h-119v1475h119l854 -1265v1265z" />
    <glyph glyph-name="eng" unicode="&#x14b;" 
d="M947 -384q-79 -10 -153 9v103q94 -14 126.5 16t32.5 139v692q0 214 -85.5 328.5t-256.5 114.5q-174 0 -261.5 -114.5t-87.5 -306.5v-597h-119v1106h108v-166q60 96 157.5 144t218.5 48q111 0 197.5 -41.5t140 -114t80.5 -166.5t27 -205v-798q0 -166 -125 -191z" />
    <glyph glyph-name="Omacron" unicode="&#x14c;" horiz-adv-x="1463" 
d="M732 -31q-162 0 -290 56.5t-211 158.5t-126.5 242.5t-43.5 310.5t43.5 310.5t126.5 242.5t211 158.5t290 56.5q215 0 368 -98.5t227.5 -270t74.5 -399.5t-74.5 -399.5t-227.5 -270t-368 -98.5zM187 737q-1 -145 33.5 -264t101.5 -206t172 -134.5t238 -47.5
q177 0 301 83.5t183.5 228.5t59.5 340t-59.5 340t-183.5 229t-301 84q-133 0 -237 -47.5t-170.5 -135t-101.5 -206.5t-36 -264zM480 1720v108h503v-108h-503z" />
    <glyph glyph-name="omacron" unicode="&#x14d;" horiz-adv-x="1193" 
d="M597 -31q-242 0 -378.5 161t-136.5 425t138 423t377 159q243 0 379 -160t136 -422q0 -266 -136.5 -426t-378.5 -160zM208 555q0 -218 100.5 -344.5t288.5 -126.5q190 0 289.5 127t99.5 344q0 218 -99.5 342.5t-289.5 124.5q-192 0 -290.5 -126.5t-98.5 -340.5zM346 1352
v107h503v-107h-503z" />
    <glyph glyph-name="Ohungarumlaut" unicode="&#x150;" horiz-adv-x="1463" 
d="M732 -31q-162 0 -290 56.5t-211 158.5t-126.5 242.5t-43.5 310.5t43.5 310.5t126.5 242.5t211 158.5t290 56.5q215 0 368 -98.5t227.5 -270t74.5 -399.5t-74.5 -399.5t-227.5 -270t-368 -98.5zM187 737q-1 -145 33.5 -264t101.5 -206t172 -134.5t238 -47.5
q177 0 301 83.5t183.5 228.5t59.5 340t-59.5 340t-183.5 229t-301 84q-133 0 -237 -47.5t-170.5 -135t-101.5 -206.5t-36 -264zM489 1654l111 297h110l-111 -297h-110zM861 1654l111 297h109l-110 -297h-110z" />
    <glyph glyph-name="ohungarumlaut" unicode="&#x151;" horiz-adv-x="1193" 
d="M597 -31q-242 0 -378.5 161t-136.5 425t138 423t377 159q243 0 379 -160t136 -422q0 -266 -136.5 -426t-378.5 -160zM208 555q0 -218 100.5 -344.5t288.5 -126.5q190 0 289.5 127t99.5 344q0 218 -99.5 342.5t-289.5 124.5q-192 0 -290.5 -126.5t-98.5 -340.5zM357 1285
l111 297h110l-111 -297h-110zM728 1285l111 297h109l-110 -297h-110z" />
    <glyph glyph-name="OE" unicode="&#x152;" horiz-adv-x="2297" 
d="M732 -31q-162 0 -290 56.5t-211 158.5t-126.5 242.5t-43.5 310.5t43.5 310.5t126.5 242.5t211 158.5t290 56.5q189 0 328.5 -74.5t223.5 -212.5v257h911v-115h-793v-560h671v-115h-671v-570h793v-115h-911v257q-84 -138 -223.5 -213t-328.5 -75zM187 737
q-1 -145 33.5 -264t101.5 -206t172 -134.5t238 -47.5q177 0 301 83.5t183.5 228.5t59.5 340t-59.5 340t-183.5 229t-301 84q-133 0 -237 -47.5t-170.5 -135t-101.5 -206.5t-36 -264z" />
    <glyph glyph-name="oe" unicode="&#x153;" horiz-adv-x="2091" 
d="M1504 -31q-158 0 -275 72t-179 204q-62 -131 -178 -203.5t-275 -72.5q-242 0 -378.5 161t-136.5 425t138 423t377 159q160 0 276 -72.5t177 -202.5q62 132 178 203.5t274 71.5q242 0 376 -163.5t130 -454.5h-894q8 -207 109 -321t279 -114q127 0 223.5 59t152.5 172
l107 -47q-67 -142 -193 -220.5t-288 -78.5zM208 555q0 -218 100.5 -344.5t288.5 -126.5q190 0 289.5 127t99.5 344q0 218 -99.5 342.5t-289.5 124.5q-192 0 -290.5 -126.5t-98.5 -340.5zM1116 626h766q-19 196 -114.5 297.5t-263.5 101.5q-171 0 -271 -103.5t-117 -295.5z
" />
    <glyph glyph-name="Racute" unicode="&#x154;" horiz-adv-x="1271" 
d="M143 0v1475h556q43 0 100 -9q163 -25 258 -147t95 -294q0 -145 -68.5 -256.5t-190.5 -159.5l297 -609h-138l-279 574h-512v-574h-118zM261 690h436q47 0 91 8q115 24 177.5 115.5t62.5 211.5t-62.5 211.5t-177.5 114.5q-42 9 -91 9h-436v-670zM523 1654l111 297h109
l-110 -297h-110z" />
    <glyph glyph-name="racute" unicode="&#x155;" horiz-adv-x="712" 
d="M143 0v1106h108v-174q34 59 78 97q64 58 163.5 79t169.5 -2v-112q-167 38 -278 -57q-76 -66 -99 -162t-23 -227v-548h-119zM272 1285l111 297h110l-111 -297h-110z" />
    <glyph glyph-name="uni0156" unicode="&#x156;" horiz-adv-x="1271" 
d="M143 0v1475h556q43 0 100 -9q163 -25 258 -147t95 -294q0 -145 -68.5 -256.5t-190.5 -159.5l297 -609h-138l-279 574h-512v-574h-118zM261 690h436q47 0 91 8q115 24 177.5 115.5t62.5 211.5t-62.5 211.5t-177.5 114.5q-42 9 -91 9h-436v-670zM545 -543v71q26 0 53 20.5
t24 64.5h-77v146h146v-146q0 -76 -44.5 -116t-101.5 -40z" />
    <glyph glyph-name="uni0157" unicode="&#x157;" horiz-adv-x="712" 
d="M143 0v1106h108v-174q34 59 78 97q64 58 163.5 79t169.5 -2v-112q-167 38 -278 -57q-76 -66 -99 -162t-23 -227v-548h-119zM130 -543v71q26 0 53 20.5t24 64.5h-77v146h146v-146q0 -76 -44.5 -116t-101.5 -40z" />
    <glyph glyph-name="Rcaron" unicode="&#x158;" horiz-adv-x="1271" 
d="M143 0v1475h556q43 0 100 -9q163 -25 258 -147t95 -294q0 -145 -68.5 -256.5t-190.5 -159.5l297 -609h-138l-279 574h-512v-574h-118zM261 690h436q47 0 91 8q115 24 177.5 115.5t62.5 211.5t-62.5 211.5t-177.5 114.5q-42 9 -91 9h-436v-670zM299 1915h128l150 -176
l150 176h128l-220 -261h-117z" />
    <glyph glyph-name="rcaron" unicode="&#x159;" horiz-adv-x="712" 
d="M143 0v1106h108v-174q34 59 78 97q64 58 163.5 79t169.5 -2v-112q-167 38 -278 -57q-76 -66 -99 -162t-23 -227v-548h-119zM124 1546h128l149 -176l151 176h128l-220 -261h-117z" />
    <glyph glyph-name="Sacute" unicode="&#x15a;" horiz-adv-x="1233" 
d="M644 -31q-228 0 -384 111t-195 301l120 20q38 -148 162 -232.5t300 -84.5q180 0 292 84t112 222q0 50 -17 92t-41 68t-61 47.5t-64.5 32.5t-64.5 22l-371 111q-310 91 -310 346q0 177 138 286.5t355 109.5q218 -1 366.5 -117.5t180.5 -313.5l-122 -21q-22 152 -140 244.5
t-286 92.5q-160 1 -263 -78t-103 -199q0 -47 18.5 -85.5t44 -63.5t67 -46.5t72.5 -32.5t76 -24l297 -88q33 -10 55.5 -17t62 -24.5t67 -35.5t60.5 -48t53 -64.5t34 -83.5t14 -106q0 -196 -145 -310.5t-380 -114.5zM570 1654l111 297h110l-111 -297h-110z" />
    <glyph glyph-name="sacute" unicode="&#x15b;" horiz-adv-x="1063" 
d="M552 -29q-192 0 -316.5 81t-153.5 226l121 20q26 -99 121 -157t233 -58t218.5 58.5t80.5 159.5q0 44 -11.5 71.5t-51.5 53.5t-102.5 47.5t-177.5 52.5q-231 62 -314 125.5t-83 177.5q0 137 114.5 222.5t299.5 85.5t310.5 -89.5t139.5 -231.5l-121 -22q-18 106 -107.5 168
t-225.5 63q-128 2 -208.5 -50.5t-80.5 -138.5q0 -73 67.5 -116t262.5 -92q238 -61 325.5 -130.5t87.5 -197.5q0 -154 -114 -241.5t-314 -87.5zM482 1285l111 297h109l-110 -297h-110z" />
    <glyph glyph-name="Scircumflex" unicode="&#x15c;" horiz-adv-x="1233" 
d="M644 -31q-228 0 -384 111t-195 301l120 20q38 -148 162 -232.5t300 -84.5q180 0 292 84t112 222q0 50 -17 92t-41 68t-61 47.5t-64.5 32.5t-64.5 22l-371 111q-310 91 -310 346q0 177 138 286.5t355 109.5q218 -1 366.5 -117.5t180.5 -313.5l-122 -21q-22 152 -140 244.5
t-286 92.5q-160 1 -263 -78t-103 -199q0 -47 18.5 -85.5t44 -63.5t67 -46.5t72.5 -32.5t76 -24l297 -88q33 -10 55.5 -17t62 -24.5t67 -35.5t60.5 -48t53 -64.5t34 -83.5t14 -106q0 -196 -145 -310.5t-380 -114.5zM355 1654l219 261h117l220 -261h-128l-150 176l-150 -176
h-128z" />
    <glyph glyph-name="scircumflex" unicode="&#x15d;" horiz-adv-x="1063" 
d="M552 -29q-192 0 -316.5 81t-153.5 226l121 20q26 -99 121 -157t233 -58t218.5 58.5t80.5 159.5q0 44 -11.5 71.5t-51.5 53.5t-102.5 47.5t-177.5 52.5q-231 62 -314 125.5t-83 177.5q0 137 114.5 222.5t299.5 85.5t310.5 -89.5t139.5 -231.5l-121 -22q-18 106 -107.5 168
t-225.5 63q-128 2 -208.5 -50.5t-80.5 -138.5q0 -73 67.5 -116t262.5 -92q238 -61 325.5 -130.5t87.5 -197.5q0 -154 -114 -241.5t-314 -87.5zM274 1285l220 261h116l220 -261h-128l-150 176l-150 -176h-128z" />
    <glyph glyph-name="Scedilla" unicode="&#x15e;" horiz-adv-x="1233" 
d="M605 -490q-60 0 -127 30l34 89q49 -18 84 -18q41 0 65 26t24 62q0 19 -9 35t-17.5 24.5t-33.5 20t-34 14.5l-42 14l59 163q-214 8 -359.5 118.5t-183.5 292.5l120 20q38 -148 162 -232.5t300 -84.5q180 0 292 84t112 222q0 50 -17 92t-41 68t-61 47.5t-64.5 32.5
t-64.5 22l-371 111q-310 91 -310 346q0 177 138 286.5t355 109.5q218 -1 366.5 -117.5t180.5 -313.5l-122 -21q-22 152 -140 244.5t-286 92.5q-160 1 -263 -78t-103 -199q0 -47 18.5 -85.5t44 -63.5t67 -46.5t72.5 -32.5t76 -24l297 -88q33 -10 55.5 -17t62 -24.5t67 -35.5
t60.5 -48t53 -64.5t34 -83.5t14 -106q0 -183 -126 -295.5t-336 -127.5l-38 -104q123 -53 123 -173q0 -77 -55 -130.5t-132 -53.5z" />
    <glyph glyph-name="scedilla" unicode="&#x15f;" horiz-adv-x="1063" 
d="M519 -490q-60 0 -127 30l34 89q49 -18 84 -18q41 0 65 26t24 62q0 19 -9 35t-17.5 24.5t-33.5 20t-34 14.5l-42 14l60 164q-180 7 -296.5 87.5t-144.5 219.5l121 20q26 -99 121 -157t233 -58t218.5 58.5t80.5 159.5q0 44 -11.5 71.5t-51.5 53.5t-102.5 47.5t-177.5 52.5
q-231 62 -314 125.5t-83 177.5q0 137 114.5 222.5t299.5 85.5t310.5 -89.5t139.5 -231.5l-121 -22q-18 106 -107.5 168t-225.5 63q-128 2 -208.5 -50.5t-80.5 -138.5q0 -73 67.5 -116t262.5 -92q238 -61 325.5 -130.5t87.5 -197.5q0 -140 -95 -226t-263 -100l-39 -107
q123 -53 123 -173q0 -77 -55 -130.5t-132 -53.5z" />
    <glyph glyph-name="Scaron" unicode="&#x160;" horiz-adv-x="1233" 
d="M644 -31q-228 0 -384 111t-195 301l120 20q38 -148 162 -232.5t300 -84.5q180 0 292 84t112 222q0 50 -17 92t-41 68t-61 47.5t-64.5 32.5t-64.5 22l-371 111q-310 91 -310 346q0 177 138 286.5t355 109.5q218 -1 366.5 -117.5t180.5 -313.5l-122 -21q-22 152 -140 244.5
t-286 92.5q-160 1 -263 -78t-103 -199q0 -47 18.5 -85.5t44 -63.5t67 -46.5t72.5 -32.5t76 -24l297 -88q33 -10 55.5 -17t62 -24.5t67 -35.5t60.5 -48t53 -64.5t34 -83.5t14 -106q0 -196 -145 -310.5t-380 -114.5zM367 1915h128l149 -176l151 176h128l-221 -261h-116z" />
    <glyph glyph-name="scaron" unicode="&#x161;" horiz-adv-x="1063" 
d="M552 -29q-192 0 -316.5 81t-153.5 226l121 20q26 -99 121 -157t233 -58t218.5 58.5t80.5 159.5q0 44 -11.5 71.5t-51.5 53.5t-102.5 47.5t-177.5 52.5q-231 62 -314 125.5t-83 177.5q0 137 114.5 222.5t299.5 85.5t310.5 -89.5t139.5 -231.5l-121 -22q-18 106 -107.5 168
t-225.5 63q-128 2 -208.5 -50.5t-80.5 -138.5q0 -73 67.5 -116t262.5 -92q238 -61 325.5 -130.5t87.5 -197.5q0 -154 -114 -241.5t-314 -87.5zM279 1546h128l149 -176l151 176h128l-221 -261h-116z" />
    <glyph glyph-name="uni0162" unicode="&#x162;" horiz-adv-x="1215" 
d="M549 0v1360h-529v115h1175v-115h-528v-1360h-12l-53 -145q123 -53 123 -173q0 -77 -55 -131t-131 -54q-58 0 -127 31l33 89q49 -18 84 -18q41 0 65 26t24 62q0 19 -9 35t-17.5 24.5t-33.5 20t-34 14.5l-42 14l75 205h-8z" />
    <glyph glyph-name="uni0163" unicode="&#x163;" horiz-adv-x="798" 
d="M730 0q-105 -22 -195 -13l-45 -120q123 -53 123 -173q0 -77 -55 -130.5t-131 -53.5q-60 0 -127 30l34 89q49 -18 84 -18q41 0 65 26t24 62q0 19 -9 35t-17.5 24.5t-33.5 20t-34 14.5l-42 14l72 200q-101 38 -141 123q-16 34 -24 75t-9 70t-1 88v21v614h-248v108h248v307
h119v-307h343v-108h-343v-612v-37v-35.5t0.5 -28.5t2 -29t4 -23.5t6.5 -24.5t10 -21q35 -68 116.5 -86t203.5 5v-106z" />
    <glyph glyph-name="Tcaron" unicode="&#x164;" horiz-adv-x="1215" 
d="M549 0v1360h-529v115h1175v-115h-528v-1360h-118zM329 1915h128l149 -176l151 176h128l-220 -261h-117z" />
    <glyph glyph-name="tcaron" unicode="&#x165;" horiz-adv-x="798" 
d="M730 0q-92 -17 -174 -14.5t-151.5 39.5t-102.5 105q-16 34 -24 75t-9 70t-1 88v21v614h-248v108h248v307h119v-307h343v-108h-343v-612v-37v-35.5t0.5 -28.5t2 -29t4 -23.5t6.5 -24.5t10 -21q35 -68 116.5 -86t203.5 5v-106zM539 1285l110 297h110l-111 -297h-109z" />
    <glyph glyph-name="Tbar" unicode="&#x166;" horiz-adv-x="1215" 
d="M167 678v119h382v563h-529v115h1175v-115h-528v-563h381v-119h-381v-678h-118v678h-382z" />
    <glyph glyph-name="tbar" unicode="&#x167;" horiz-adv-x="839" 
d="M20 503v107h248v388h-248v108h248v307h119v-307h343v-108h-343v-388h350v-107h-350v-117v-37v-35.5t0.5 -28.5t2 -29t4 -23.5t6.5 -24.5t10 -21q35 -68 116.5 -86t203.5 5v-106q-92 -17 -174 -14.5t-151.5 39.5t-102.5 105q-16 34 -24 75t-9 70t-1 88v21v119h-248z" />
    <glyph glyph-name="Utilde" unicode="&#x168;" horiz-adv-x="1425" 
d="M713 -31q-252 0 -411 153.5t-159 404.5v948h119v-923q0 -97 28.5 -178t74.5 -134t105.5 -90t121 -53t121.5 -16t121 16.5t121 53t105.5 90t74 134t28.5 177.5v923h119v-948q0 -250 -159 -404t-410 -154zM430 1668q-21 82 20 139t120 57q48 0 105 -27t108 -54t84 -27
q36 0 51 29t3 68h90q21 -81 -20 -139.5t-123 -58.5q-37 0 -81 16.5t-77.5 37t-71.5 37t-65 16.5q-39 0 -52 -29t-1 -65h-90z" />
    <glyph glyph-name="utilde" unicode="&#x169;" 
d="M568 -26q-111 0 -197.5 41.5t-140 114t-80.5 166.5t-27 205v605h119v-576q0 -214 85.5 -328t256.5 -114q174 0 261.5 114.5t87.5 306.5v597h119v-1106h-108v166q-60 -96 -157.5 -144t-218.5 -48zM321 1299q-21 82 20 139t120 57q38 0 82.5 -16.5t78 -37t71.5 -37
t65 -16.5q36 0 50.5 29t2.5 68h90q21 -81 -19.5 -140t-122.5 -59q-47 0 -103.5 27t-107.5 54t-84 27q-39 0 -52 -29.5t-1 -65.5h-90z" />
    <glyph glyph-name="Umacron" unicode="&#x16a;" horiz-adv-x="1425" 
d="M713 -31q-252 0 -411 153.5t-159 404.5v948h119v-923q0 -97 28.5 -178t74.5 -134t105.5 -90t121 -53t121.5 -16t121 16.5t121 53t105.5 90t74 134t28.5 177.5v923h119v-948q0 -250 -159 -404t-410 -154zM462 1720v108h503v-108h-503z" />
    <glyph glyph-name="umacron" unicode="&#x16b;" 
d="M568 -26q-111 0 -197.5 41.5t-140 114t-80.5 166.5t-27 205v605h119v-576q0 -214 85.5 -328t256.5 -114q174 0 261.5 114.5t87.5 306.5v597h119v-1106h-108v166q-60 -96 -157.5 -144t-218.5 -48zM335 1352v107h503v-107h-503z" />
    <glyph glyph-name="Ubreve" unicode="&#x16c;" horiz-adv-x="1425" 
d="M713 -31q-252 0 -411 153.5t-159 404.5v948h119v-923q0 -97 28.5 -178t74.5 -134t105.5 -90t121 -53t121.5 -16t121 16.5t121 53t105.5 90t74 134t28.5 177.5v923h119v-948q0 -250 -159 -404t-410 -154zM464 1857h102q0 -60 43.5 -103.5t103.5 -43.5q61 0 103.5 43.5
t42.5 103.5h103q0 -103 -73 -176t-176 -73t-176 73t-73 176z" />
    <glyph glyph-name="ubreve" unicode="&#x16d;" 
d="M568 -26q-111 0 -197.5 41.5t-140 114t-80.5 166.5t-27 205v605h119v-576q0 -214 85.5 -328t256.5 -114q174 0 261.5 114.5t87.5 306.5v597h119v-1106h-108v166q-60 -96 -157.5 -144t-218.5 -48zM339 1488h102q0 -60 43.5 -103.5t103.5 -43.5q61 0 103.5 43.5t42.5 103.5
h103q0 -103 -73 -176t-176 -73t-176 73t-73 176z" />
    <glyph glyph-name="Uring" unicode="&#x16e;" horiz-adv-x="1425" 
d="M713 -31q-252 0 -411 153.5t-159 404.5v948h119v-923q0 -97 28.5 -178t74.5 -134t105.5 -90t121 -53t121.5 -16t121 16.5t121 53t105.5 90t74 134t28.5 177.5v923h119v-948q0 -250 -159 -404t-410 -154zM502 1807q0 87 62.5 149.5t149.5 62.5q88 0 150 -62.5t62 -149.5
q0 -89 -62 -150.5t-150 -61.5q-87 0 -149.5 62t-62.5 150zM601 1807q0 -46 33.5 -79t79.5 -33q47 0 79.5 33t32.5 79q0 47 -32.5 80t-79.5 33q-46 0 -79.5 -33.5t-33.5 -79.5z" />
    <glyph glyph-name="uring" unicode="&#x16f;" 
d="M568 -26q-111 0 -197.5 41.5t-140 114t-80.5 166.5t-27 205v605h119v-576q0 -214 85.5 -328t256.5 -114q174 0 261.5 114.5t87.5 306.5v597h119v-1106h-108v166q-60 -96 -157.5 -144t-218.5 -48zM376 1439q0 87 62.5 149.5t149.5 62.5q88 0 150 -62.5t62 -149.5
q0 -89 -62 -150.5t-150 -61.5q-87 0 -149.5 62t-62.5 150zM475 1439q0 -46 33.5 -79.5t79.5 -33.5q47 0 79.5 33.5t32.5 79.5q0 47 -32.5 79.5t-79.5 32.5q-46 0 -79.5 -33t-33.5 -79z" />
    <glyph glyph-name="Uhungarumlaut" unicode="&#x170;" horiz-adv-x="1425" 
d="M713 -31q-252 0 -411 153.5t-159 404.5v948h119v-923q0 -97 28.5 -178t74.5 -134t105.5 -90t121 -53t121.5 -16t121 16.5t121 53t105.5 90t74 134t28.5 177.5v923h119v-948q0 -250 -159 -404t-410 -154zM457 1654l110 297h110l-111 -297h-109zM828 1654l111 297h110
l-111 -297h-110z" />
    <glyph glyph-name="uhungarumlaut" unicode="&#x171;" 
d="M568 -26q-111 0 -197.5 41.5t-140 114t-80.5 166.5t-27 205v605h119v-576q0 -214 85.5 -328t256.5 -114q174 0 261.5 114.5t87.5 306.5v597h119v-1106h-108v166q-60 -96 -157.5 -144t-218.5 -48zM339 1285l111 297h109l-110 -297h-110zM710 1285l110 297h110l-111 -297
h-109z" />
    <glyph glyph-name="Uogonek" unicode="&#x172;" horiz-adv-x="1425" 
d="M713 -31q-252 0 -411 153.5t-159 404.5v948h119v-923q0 -97 28.5 -178t74.5 -134t105.5 -90t121 -53t121.5 -16t121 16.5t121 53t105.5 90t74 134t28.5 177.5v923h119v-948q0 -160 -67.5 -283.5t-188.5 -194.5q-87 -62 -144.5 -138.5t-57.5 -138.5q0 -40 25 -67t59 -27
q51 0 101 55l58 -69q-69 -88 -166 -88q-76 0 -131.5 58t-55.5 135q0 92 85 205q-47 -5 -86 -5z" />
    <glyph glyph-name="uogonek" unicode="&#x173;" 
d="M568 -26q-111 0 -197.5 41.5t-140 114t-80.5 166.5t-27 205v605h119v-576q0 -214 85.5 -328t256.5 -114q174 0 261.5 114.5t87.5 306.5v597h119v-1106q-97 -62 -165.5 -146.5t-68.5 -152.5q0 -40 24.5 -66.5t59.5 -26.5q51 0 100 54l59 -69q-69 -88 -166 -88
q-76 0 -131.5 58t-55.5 135q0 84 65.5 178.5t170.5 176.5v113q-60 -96 -157.5 -144t-218.5 -48z" />
    <glyph glyph-name="Wcircumflex" unicode="&#x174;" horiz-adv-x="1889" 
d="M461 0l-423 1475h122l361 -1268l361 1268h124l361 -1268l360 1268h124l-424 -1475h-120l-363 1264l-362 -1264h-121zM667 1654l219 261h116l221 -261h-128l-151 176l-149 -176h-128z" />
    <glyph glyph-name="wcircumflex" unicode="&#x175;" horiz-adv-x="1547" 
d="M379 0l-338 1106h121l277 -908l278 908h113l279 -908l279 908h118l-338 -1106h-110l-284 921l-285 -921h-110zM496 1285l219 261h116l221 -261h-128l-151 176l-149 -176h-128z" />
    <glyph glyph-name="Ycircumflex" unicode="&#x176;" horiz-adv-x="1100" 
d="M492 0v623l-492 852h136l415 -717l414 717h136l-491 -852v-623h-118zM272 1654l220 261h116l220 -261h-128l-150 176l-150 -176h-128z" />
    <glyph glyph-name="ycircumflex" unicode="&#x177;" horiz-adv-x="1057" 
d="M305 -492l182 492l-449 1106h126l381 -949l347 949h124l-588 -1598h-123zM267 1285l219 261h117l220 -261h-128l-150 176l-150 -176h-128z" />
    <glyph glyph-name="Ydieresis" unicode="&#x178;" horiz-adv-x="1100" 
d="M492 0v623l-492 852h136l415 -717l414 717h136l-491 -852v-623h-118zM290 1705v143h143v-143h-143zM670 1705v143h143v-143h-143z" />
    <glyph glyph-name="Zacute" unicode="&#x179;" horiz-adv-x="1223" 
d="M102 0v32l832 1328h-821v115h1008v-35l-827 -1326h824v-114h-1016zM544 1654l110 297h110l-111 -297h-109z" />
    <glyph glyph-name="zacute" unicode="&#x17a;" horiz-adv-x="1082" 
d="M41 0v32l756 958h-705v116h908v-35l-755 -955h710v-116h-914zM525 1285l111 297h109l-110 -297h-110z" />
    <glyph glyph-name="Zdotaccent" unicode="&#x17b;" horiz-adv-x="1223" 
d="M102 0v32l832 1328h-821v115h1008v-35l-827 -1326h824v-114h-1016zM588 1715v149h148v-149h-148z" />
    <glyph glyph-name="zdotaccent" unicode="&#x17c;" horiz-adv-x="1082" 
d="M41 0v32l756 958h-705v116h908v-35l-755 -955h710v-116h-914zM475 1347v148h149v-148h-149z" />
    <glyph glyph-name="Zcaron" unicode="&#x17d;" horiz-adv-x="1223" 
d="M102 0v32l832 1328h-821v115h1008v-35l-827 -1326h824v-114h-1016zM379 1915h128l149 -176l151 176h128l-220 -261h-117z" />
    <glyph glyph-name="zcaron" unicode="&#x17e;" horiz-adv-x="1082" 
d="M41 0v32l756 958h-705v116h908v-35l-755 -955h710v-116h-914zM287 1546h128l149 -176l151 176h128l-220 -261h-117z" />
    <glyph glyph-name="florin" unicode="&#x192;" horiz-adv-x="1476" 
d="M319 -31q-124 0 -254 61l50 103q1 0 15 -6t33 -12.5t43.5 -13.5t54 -11.5t56.5 -4.5q33 0 65 7.5t67.5 29t64 55t53 90.5t36.5 130l46 287h-383v108h401l55 337q14 85 49.5 152t80.5 108t100 68t104 37.5t97 10.5q60 0 122 -13.5t96 -27t41 -21.5l-57 -100q-3 3 -26.5 13
t-74.5 22t-101 12q-32 0 -63.5 -4.5t-73 -21.5t-74 -44t-60.5 -76.5t-39 -115.5l-56 -336h479v-108h-496l-50 -305q-16 -99 -51.5 -175t-77 -119.5t-92.5 -70.5t-93.5 -36t-86.5 -9z" />
    <glyph glyph-name="Ohorn" unicode="&#x1a0;" horiz-adv-x="1463" 
d="M732 -31q-162 0 -290 56.5t-211 158.5t-126.5 242.5t-43.5 310.5t43.5 310.5t126.5 242.5t211 158.5t290 56.5q105 0 190 -22v1q53 -15 88 -15t66 15q51 25 64.5 69.5t6.5 110.5h106q27 -176 -70 -242q-27 -18 -63 -28q138 -97 210 -266.5t72 -390.5q0 -228 -74.5 -399.5
t-227.5 -270t-368 -98.5zM187 737q-1 -145 33.5 -264t101.5 -206t172 -134.5t238 -47.5q177 0 301 83.5t183.5 228.5t59.5 340t-59.5 340t-183.5 229t-301 84q-133 0 -237 -47.5t-170.5 -135t-101.5 -206.5t-36 -264z" />
    <glyph glyph-name="ohorn" unicode="&#x1a1;" horiz-adv-x="1193" 
d="M597 -31q-242 0 -378.5 161t-136.5 425t138 423t377 159q95 0 182 -29q92 -25 149 2q51 25 64 69t6 111h107q26 -174 -71 -241q-44 -28 -94 -35q172 -157 172 -459q0 -266 -136.5 -426t-378.5 -160zM208 555q0 -218 100.5 -344.5t288.5 -126.5q190 0 289.5 127t99.5 344
q0 218 -99.5 342.5t-289.5 124.5q-192 0 -290.5 -126.5t-98.5 -340.5z" />
    <glyph glyph-name="Uhorn" unicode="&#x1af;" horiz-adv-x="1425" 
d="M713 -31q-252 0 -411 153.5t-159 404.5v948h119v-923q0 -97 28.5 -178t74.5 -134t105.5 -90t121 -53t121.5 -16t121 16.5t121 53t105.5 90t74 134t28.5 177.5v923h24q77 3 95 7q42 9 62 37.5t20 64t-3 75.5h106q26 -175 -69 -242q-46 -32 -116 -34v-856q0 -250 -159 -404
t-410 -154z" />
    <glyph glyph-name="uhorn" unicode="&#x1b0;" 
d="M568 -26q-111 0 -197.5 41.5t-140 114t-80.5 166.5t-27 205v605h119v-576q0 -214 85.5 -328t256.5 -114q174 0 261.5 114.5t87.5 306.5v597h13q77 3 95 7q42 9 62 37.5t20 64t-3 75.5h107q26 -173 -70 -241q-41 -29 -105 -34v-1015h-108v166q-60 -96 -157.5 -144
t-218.5 -48z" />
    <glyph glyph-name="uni0218" unicode="&#x218;" horiz-adv-x="1233" 
d="M644 -31q-228 0 -384 111t-195 301l120 20q38 -148 162 -232.5t300 -84.5q180 0 292 84t112 222q0 50 -17 92t-41 68t-61 47.5t-64.5 32.5t-64.5 22l-371 111q-310 91 -310 346q0 177 138 286.5t355 109.5q218 -1 366.5 -117.5t180.5 -313.5l-122 -21q-22 152 -140 244.5
t-286 92.5q-160 1 -263 -78t-103 -199q0 -47 18.5 -85.5t44 -63.5t67 -46.5t72.5 -32.5t76 -24l297 -88q33 -10 55.5 -17t62 -24.5t67 -35.5t60.5 -48t53 -64.5t34 -83.5t14 -106q0 -196 -145 -310.5t-380 -114.5zM597 -543v71q26 0 53 20.5t24 64.5h-77v146h146v-146
q0 -76 -44.5 -116t-101.5 -40z" />
    <glyph glyph-name="uni0219" unicode="&#x219;" horiz-adv-x="1063" 
d="M552 -29q-192 0 -316.5 81t-153.5 226l121 20q26 -99 121 -157t233 -58t218.5 58.5t80.5 159.5q0 44 -11.5 71.5t-51.5 53.5t-102.5 47.5t-177.5 52.5q-231 62 -314 125.5t-83 177.5q0 137 114.5 222.5t299.5 85.5t310.5 -89.5t139.5 -231.5l-121 -22q-18 106 -107.5 168
t-225.5 63q-128 2 -208.5 -50.5t-80.5 -138.5q0 -73 67.5 -116t262.5 -92q238 -61 325.5 -130.5t87.5 -197.5q0 -154 -114 -241.5t-314 -87.5zM467 -543v71q26 0 53 20.5t24 64.5h-77v146h146v-146q0 -76 -44.5 -116t-101.5 -40z" />
    <glyph glyph-name="uni021A" unicode="&#x21a;" horiz-adv-x="1215" 
d="M549 0v1360h-529v115h1175v-115h-528v-1360h-118zM535 -543v71q26 0 52.5 20.5t23.5 64.5h-76v146h146v-146q0 -76 -44.5 -116t-101.5 -40z" />
    <glyph glyph-name="uni021B" unicode="&#x21b;" horiz-adv-x="798" 
d="M730 0q-92 -17 -174 -14.5t-151.5 39.5t-102.5 105q-16 34 -24 75t-9 70t-1 88v21v614h-248v108h248v307h119v-307h343v-108h-343v-612v-37v-35.5t0.5 -28.5t2 -29t4 -23.5t6.5 -24.5t10 -21q35 -68 116.5 -86t203.5 5v-106zM333 -543v71q26 0 53 20.5t24 64.5h-77v146
h146v-146q0 -76 -44.5 -116t-101.5 -40z" />
    <glyph glyph-name="uni0259" unicode="&#x259;" horiz-adv-x="1185" 
d="M587 1137q238 0 377.5 -157.5t139.5 -424.5q0 -271 -138.5 -428.5t-376.5 -157.5q-242 0 -376 163.5t-130 454.5h894q-8 207 -109 321t-279 114q-127 0 -223.5 -59t-152.5 -172l-107 47q67 142 193 220.5t288 78.5zM209 480q19 -196 114.5 -297.5t263.5 -101.5
q171 0 271 103.5t117 295.5h-766z" />
    <glyph glyph-name="uni02BC" unicode="&#x2bc;" horiz-adv-x="411" 
d="M141 1141q27 -2 43.5 8.5t22 30t7 44t-0.5 51.5h-80v200h149v-251q0 -80 -42 -120.5t-107 -26.5z" />
    <glyph glyph-name="circumflex" unicode="&#x2c6;" horiz-adv-x="1034" 
d="M239 1654l219 261h116l221 -261h-128l-151 176l-149 -176h-128z" />
    <glyph glyph-name="caron" unicode="&#x2c7;" horiz-adv-x="1013" 
d="M239 1915h128l149 -176l151 176h128l-221 -261h-116z" />
    <glyph glyph-name="breve" unicode="&#x2d8;" horiz-adv-x="989" 
d="M495 1608q-103 0 -176 73t-73 176h102q0 -60 43.5 -103.5t103.5 -43.5q61 0 103.5 43.5t42.5 103.5h102q0 -103 -72.5 -176t-175.5 -73z" />
    <glyph glyph-name="dotaccent" unicode="&#x2d9;" horiz-adv-x="640" 
d="M246 1715v149h148v-149h-148z" />
    <glyph glyph-name="ring" unicode="&#x2da;" horiz-adv-x="942" 
d="M471 1595q-87 0 -149.5 62t-62.5 150q0 87 62.5 149.5t149.5 62.5q88 0 150 -62.5t62 -149.5q0 -89 -61.5 -150.5t-150.5 -61.5zM358 1807q0 -46 33.5 -79t79.5 -33q47 0 80 33t33 79q0 47 -33 80t-80 33q-46 0 -79.5 -33.5t-33.5 -79.5z" />
    <glyph glyph-name="ogonek" unicode="&#x2db;" horiz-adv-x="846" 
d="M433 -495q-76 0 -131.5 58t-55.5 135q0 91 76.5 194t194.5 187l73 -79q-97 -62 -165.5 -146.5t-68.5 -152.5q0 -40 24.5 -66.5t59.5 -26.5q52 0 101 54l58 -69q-69 -88 -166 -88z" />
    <glyph glyph-name="tilde" unicode="&#x2dc;" horiz-adv-x="1080" 
d="M688 1655q-37 0 -81 16.5t-77.5 37t-71.5 37t-65 16.5q-39 0 -52 -29t-1 -65h-90q-21 82 20 139t120 57q48 0 105 -27t108 -54t84 -27q36 0 50.5 29t2.5 68h90q21 -81 -19.5 -139.5t-122.5 -58.5z" />
    <glyph glyph-name="hungarumlaut" unicode="&#x2dd;" horiz-adv-x="1052" 
d="M705 1654h-110l111 297h109zM224 1654l111 297h109l-110 -297h-110z" />
    <glyph glyph-name="uni0374" unicode="&#x374;" horiz-adv-x="506" 
d="M232 1178h-109l110 297h110z" />
    <glyph glyph-name="uni0375" unicode="&#x375;" horiz-adv-x="506" 
d="M232 -407h-109l110 297h110z" />
    <glyph glyph-name="uni037E" unicode="&#x37e;" horiz-adv-x="599" 
d="M233 -134q27 -2 43.5 8.5t22 30t7 44t-0.5 51.5h-80v200h149v-251q0 -80 -42 -120.5t-107 -26.5zM225 957v149h149v-149h-149z" />
    <glyph glyph-name="tonos" unicode="&#x384;" horiz-adv-x="1228" 
d="M603 1178h-109l110 297h110z" />
    <glyph glyph-name="dieresistonos" unicode="&#x385;" horiz-adv-x="1228" 
d="M791 1336v144h138v-144h-138zM302 1336v144h138v-144h-138zM515 1285l111 297h109l-110 -297h-110z" />
    <glyph glyph-name="Alphatonos" unicode="&#x386;" horiz-adv-x="1277" 
d="M47 0l522 1475h147l522 -1475h-125l-132 371h-679l-130 -371h-125zM125 1178l111 297h109l-111 -297h-109zM342 482h599l-300 847z" />
    <glyph glyph-name="anoteleia" unicode="&#x387;" horiz-adv-x="1228" 
d="M221 550q-42 0 -70 27t-28 68t28 68t70 27q38 0 65.5 -27t27.5 -68t-27.5 -68t-65.5 -27z" />
    <glyph glyph-name="Epsilontonos" unicode="&#x388;" horiz-adv-x="1421" 
d="M408 0v1475h911v-115h-794v-560h671v-115h-671v-570h794v-115h-911zM40 1178l111 297h109l-110 -297h-110z" />
    <glyph glyph-name="Etatonos" unicode="&#x389;" horiz-adv-x="1638" 
d="M404 0v1475h118v-680h854v680h119v-1475h-119v680h-854v-680h-118zM36 1178l110 297h110l-111 -297h-109z" />
    <glyph glyph-name="Iotatonos" unicode="&#x38a;" horiz-adv-x="663" 
d="M401 0v1475h118v-1475h-118zM36 1178l110 297h110l-111 -297h-109z" />
    <glyph glyph-name="Omicrontonos" unicode="&#x38c;" horiz-adv-x="1654" 
d="M923 -31q-162 0 -290 56.5t-211 158.5t-126.5 242.5t-43.5 310.5t43.5 310.5t126.5 242.5t211 158.5t290 56.5q215 0 367.5 -98.5t227 -269.5t74.5 -400t-74.5 -400t-227 -269.5t-367.5 -98.5zM60 1178l111 297h110l-111 -297h-110zM378 737q-1 -145 33.5 -264
t101.5 -206t172 -134.5t238 -47.5t237 47.5t170.5 134.5t101 206t34.5 264q0 195 -59.5 340t-183 229t-300.5 84q-133 0 -237 -47.5t-170.5 -135t-101.5 -206.5t-36 -264z" />
    <glyph glyph-name="Upsilontonos" unicode="&#x38e;" horiz-adv-x="1462" 
d="M853 0v623l-492 852h137l414 -717l414 717h136l-490 -852v-623h-119zM74 1178l110 297h110l-111 -297h-109z" />
    <glyph glyph-name="Omegatonos" unicode="&#x38f;" horiz-adv-x="1685" 
d="M252 0v115h300q-143 111 -223 278t-80 377q0 124 29 235.5t86 202t137 157t187.5 102.5t231.5 36q205 0 358.5 -97t232 -262t78.5 -374q0 -210 -80 -377t-223 -278h298v-115h-473l2 115q61 32 119 87t110 131.5t85 182t36 222.5q3 131 -33.5 249t-105 207t-173.5 142
t-231 53q-125 0 -229 -52t-172.5 -140t-106 -204t-37.5 -245q0 -121 33 -229.5t86.5 -186t112 -131.5t120.5 -86v-115h-475zM63 1178l111 297h110l-111 -297h-110z" />
    <glyph glyph-name="iotadieresistonos" unicode="&#x390;" horiz-adv-x="727" 
d="M443 -10q-153 21 -212 139q-7 14 -12 29.5t-8.5 26.5t-6 31.5t-4 28.5t-2 33.5t-0.5 31v37.5v37v722h118v-720q0 -15 -0.5 -43.5t0 -39.5t1.5 -31.5t3.5 -32t7 -26t11.5 -27.5q40 -75 137 -88q99 -8 183 8v-106q-109 -25 -216 -10zM-24 1336v144h139v-144h-139zM190 1285
l111 297h110l-111 -297h-110zM465 1336v144h138v-144h-138z" />
    <glyph glyph-name="Alpha" unicode="&#x391;" horiz-adv-x="1272" 
d="M41 0l522 1475h147l522 -1475h-125l-132 371h-678l-131 -371h-125zM336 482h600l-301 847z" />
    <glyph glyph-name="Beta" unicode="&#x392;" horiz-adv-x="1243" 
d="M143 0v1475h565q172 0 287.5 -106.5t115.5 -264.5q0 -101 -49 -187t-132 -133q120 -53 187 -149.5t67 -228.5q0 -187 -121 -296.5t-312 -109.5h-608zM262 116h450q152 0 249 76t97 208q0 134 -91 226.5t-222 92.5h-483v-603zM262 833h445q117 0 198.5 78.5t81.5 196.5
q0 113 -79.5 183t-200.5 70h-445v-528z" />
    <glyph glyph-name="Gamma" unicode="&#x393;" horiz-adv-x="1075" 
d="M143 0v1475h912v-115h-794v-1360h-118z" />
    <glyph glyph-name="uni0394" unicode="&#x394;" horiz-adv-x="1272" 
d="M41 0l522 1475h147l522 -1475h-1191zM207 115h859l-431 1212z" />
    <glyph glyph-name="Epsilon" unicode="&#x395;" horiz-adv-x="1157" 
d="M143 0v1475h912v-115h-794v-560h671v-115h-671v-570h794v-115h-912z" />
    <glyph glyph-name="Zeta" unicode="&#x396;" horiz-adv-x="1223" 
d="M102 0v32l832 1328h-821v115h1008v-35l-827 -1326h824v-114h-1016z" />
    <glyph glyph-name="Eta" unicode="&#x397;" horiz-adv-x="1377" 
d="M143 0v1475h118v-680h854v680h119v-1475h-119v680h-854v-680h-118z" />
    <glyph glyph-name="Theta" unicode="&#x398;" horiz-adv-x="1463" 
d="M732 -31q-162 0 -290 56.5t-211 158.5t-126.5 242.5t-43.5 310.5t43.5 310.5t126.5 242.5t211 158.5t290 56.5q215 0 368 -98.5t227.5 -270t74.5 -399.5t-74.5 -399.5t-227.5 -270t-368 -98.5zM187 737q-1 -145 33.5 -264t101.5 -206t172 -134.5t238 -47.5
q177 0 301 83.5t183.5 228.5t59.5 340t-59.5 340t-183.5 229t-301 84q-133 0 -237 -47.5t-170.5 -135t-101.5 -206.5t-36 -264zM480 684v108h503v-108h-503z" />
    <glyph glyph-name="Iota" unicode="&#x399;" horiz-adv-x="445" 
d="M164 0v1475h118v-1475h-118z" />
    <glyph glyph-name="Kappa" unicode="&#x39a;" horiz-adv-x="1179" 
d="M143 0v1475h118v-701l702 701h155l-705 -709l767 -766h-158l-761 754v-754h-118z" />
    <glyph glyph-name="Lambda" unicode="&#x39b;" horiz-adv-x="1211" 
d="M532 1475h147l522 -1475h-125l-472 1327l-469 -1327h-125z" />
    <glyph glyph-name="Mu" unicode="&#x39c;" horiz-adv-x="1712" 
d="M143 0v1475h110l604 -1305l598 1305h114v-1473h-116v1201l-549 -1203h-96l-550 1203v-1203h-115z" />
    <glyph glyph-name="Nu" unicode="&#x39d;" horiz-adv-x="1378" 
d="M143 0v1475h119l854 -1265v1265h119v-1475h-119l-854 1267v-1267h-119z" />
    <glyph glyph-name="Xi" unicode="&#x39e;" horiz-adv-x="1393" 
d="M143 1360v115h1107v-115h-1107zM143 0v115h1107v-115h-1107zM246 680v115h902v-115h-902z" />
    <glyph glyph-name="Omicron" unicode="&#x39f;" horiz-adv-x="1463" 
d="M732 -31q-162 0 -290 56.5t-211 158.5t-126.5 242.5t-43.5 310.5t43.5 310.5t126.5 242.5t211 158.5t290 56.5q215 0 368 -98.5t227.5 -270t74.5 -399.5t-74.5 -399.5t-227.5 -270t-368 -98.5zM187 737q-1 -145 33.5 -264t101.5 -206t172 -134.5t238 -47.5
q177 0 301 83.5t183.5 228.5t59.5 340t-59.5 340t-183.5 229t-301 84q-133 0 -237 -47.5t-170.5 -135t-101.5 -206.5t-36 -264z" />
    <glyph glyph-name="Pi" unicode="&#x3a0;" horiz-adv-x="1393" 
d="M143 0v1475h1107v-1475h-117v1360h-872v-1360h-118z" />
    <glyph glyph-name="Rho" unicode="&#x3a1;" horiz-adv-x="1213" 
d="M143 0v1475h556q43 0 100 -9q163 -25 258 -147t95 -294t-95 -294t-258 -148q-57 -9 -100 -9h-438v-574h-118zM261 690h436q47 0 91 8q115 24 177.5 115.5t62.5 211.5t-62.5 211.5t-177.5 114.5q-42 9 -91 9h-436v-670z" />
    <glyph glyph-name="Sigma" unicode="&#x3a3;" horiz-adv-x="1341" 
d="M143 0v110l618 627l-618 624v114h1055v-115h-876l599 -606v-33l-599 -606h843v-115h-1022z" />
    <glyph glyph-name="Tau" unicode="&#x3a4;" horiz-adv-x="1215" 
d="M549 0v1360h-529v115h1175v-115h-528v-1360h-118z" />
    <glyph glyph-name="Upsilon" unicode="&#x3a5;" horiz-adv-x="1100" 
d="M492 0v623l-492 852h136l415 -717l414 717h136l-491 -852v-623h-118z" />
    <glyph glyph-name="Phi" unicode="&#x3a6;" horiz-adv-x="1436" 
d="M659 191q-114 -19 -221.5 12t-191 104t-134.5 197t-51 279q0 125 33 230.5t90.5 178.5t133 120.5t163 63.5t178.5 1v98h118v-98q91 15 178.5 -1t163 -63.5t133 -120.5t90.5 -178.5t33 -230.5q0 -155 -51 -279t-134.5 -197t-191 -104t-221.5 -12v-191h-118v191zM185 783
q0 -236 135.5 -370t338.5 -106v957q-202 28 -338 -108.5t-136 -372.5zM777 307q202 -28 338 106t136 369t-136.5 372.5t-337.5 109.5v-957z" />
    <glyph glyph-name="Chi" unicode="&#x3a7;" horiz-adv-x="1207" 
d="M20 0l515 748l-502 727h142l428 -630l429 630h143l-502 -727l514 -748h-143l-441 648l-440 -648h-143z" />
    <glyph glyph-name="Psi" unicode="&#x3a8;" horiz-adv-x="1438" 
d="M660 371q-179 5 -303 94.5t-179 240.5q-35 93 -35 205v564h115v-470q0 -126 20 -209q34 -142 135 -227.5t247 -86.5v993h118v-993q147 0 248.5 87t135.5 229q19 83 19 207v470h114v-564q0 -117 -34 -204q-55 -152 -180 -242t-303 -94v-371h-118v371z" />
    <glyph glyph-name="uni03A9" unicode="&#x3a9;" horiz-adv-x="1463" 
d="M65 0v115h300q-143 111 -223.5 278t-80.5 377q0 124 29 235.5t86 202t137 157t187.5 102.5t231.5 36q155 0 282 -56t211.5 -154.5t130.5 -232.5t46 -290q0 -210 -80 -377t-223 -278h298v-115h-473l2 115q61 32 119 87t110 131.5t85 182t36 222.5q3 130 -33.5 248.5
t-105 207.5t-174 142t-231.5 53q-125 0 -229 -52t-172.5 -140t-106 -204t-37.5 -245q0 -121 33 -229.5t87 -186t112.5 -131.5t120.5 -86v-115h-475z" />
    <glyph glyph-name="Iotadieresis" unicode="&#x3aa;" horiz-adv-x="445" 
d="M164 0v1475h118v-1475h-118zM-39 1705v143h143v-143h-143zM341 1705v143h143v-143h-143z" />
    <glyph glyph-name="Upsilondieresis" unicode="&#x3ab;" horiz-adv-x="1100" 
d="M492 0v623l-492 852h136l415 -717l414 717h136l-491 -852v-623h-118zM290 1705v143h143v-143h-143zM670 1705v143h143v-143h-143z" />
    <glyph glyph-name="alphatonos" unicode="&#x3ac;" horiz-adv-x="1233" 
d="M569 -31q-152 0 -264 77.5t-167.5 208.5t-55.5 298t55.5 297.5t168 208.5t266.5 78q148 0 255.5 -74t155.5 -206v249h108v-1106h-108v251q-49 -133 -157.5 -207.5t-256.5 -74.5zM208 554q0 -209 96 -340.5t273 -131.5q179 0 273.5 130.5t94.5 342.5t-94.5 340.5
t-272.5 128.5q-180 0 -275 -129t-95 -341zM542 1285l110 297h110l-111 -297h-109z" />
    <glyph glyph-name="epsilontonos" unicode="&#x3ad;" horiz-adv-x="1027" 
d="M484 -31q-175 0 -288.5 92.5t-113.5 242.5q0 88 39.5 164t116.5 109q-129 86 -129 244q0 145 104.5 230.5t267.5 85.5q277 0 437 -190l-82 -80q-60 71 -151 113t-193 42q-114 0 -188.5 -53.5t-74.5 -153.5q0 -93 71.5 -141.5t195.5 -48.5h146v-106h-147
q-154 0 -223 -48.5t-69 -154.5q0 -108 79.5 -170t212.5 -62q253 0 377 229l97 -58q-71 -137 -194 -211.5t-291 -74.5zM429 1285l111 297h109l-110 -297h-110z" />
    <glyph glyph-name="etatonos" unicode="&#x3ae;" 
d="M953 575q0 214 -85.5 328.5t-256.5 114.5q-174 0 -261.5 -114.5t-87.5 -306.5v-597h-119v1106h108v-166q60 96 157.5 144t218.5 48q111 0 197.5 -41.5t140 -114t80.5 -166.5t27 -205v-605h-119v575zM571 1285l111 297h110l-111 -297h-110z" />
    <glyph glyph-name="iotatonos" unicode="&#x3af;" horiz-adv-x="694" 
d="M410 -10q-153 21 -212 139q-16 33 -24 74t-9 70t-1 89v22v722h119v-720q0 -16 -0.5 -50.5t0 -47t2.5 -34.5t7 -37t13 -31q40 -75 137 -88q100 -8 184 8v-106q-109 -25 -216 -10zM172 1285l111 297h109l-110 -297h-110z" />
    <glyph glyph-name="upsilondieresistonos" unicode="&#x3b0;" horiz-adv-x="1166" 
d="M123 504v602h119v-576q0 -214 85.5 -328t256.5 -114q170 0 255.5 114.5t85.5 327.5v576h118v-602q0 -156 -47 -272.5t-152 -187t-260 -70.5q-117 0 -206.5 40t-144.5 112t-82.5 167t-27.5 211zM270 1336v144h139v-144h-139zM483 1285l111 297h109l-110 -297h-110z
M759 1336v144h138v-144h-138z" />
    <glyph glyph-name="alpha" unicode="&#x3b1;" horiz-adv-x="1233" 
d="M569 -31q-152 0 -264 77.5t-167.5 208.5t-55.5 298t55.5 297.5t168 208.5t266.5 78q148 0 255.5 -74t155.5 -206v249h108v-1106h-108v251q-49 -133 -157.5 -207.5t-256.5 -74.5zM208 554q0 -209 96 -340.5t273 -131.5q179 0 273.5 130.5t94.5 342.5t-94.5 340.5
t-272.5 128.5q-180 0 -275 -129t-95 -341z" />
    <glyph glyph-name="beta" unicode="&#x3b2;" horiz-adv-x="1136" 
d="M143 1106q0 94 27 169q38 108 134.5 169t238.5 61q183 0 292.5 -102t109.5 -282q0 -118 -50 -202t-145 -114q56 -8 111.5 -36t105 -75.5t80 -123.5t30.5 -169q0 -192 -125.5 -312t-346.5 -120q-223 0 -345 132v-593h-117v1598zM266 425q0 -85 17 -142q27 -89 119 -143
t209 -54q151 0 247 89.5t96 232.5q0 150 -109 234t-301 89v112q123 15 200 83.5t77 195.5q0 124 -74.5 196.5t-201.5 72.5q-91 0 -160 -40.5t-97 -122.5q-22 -69 -22 -170v-633z" />
    <glyph glyph-name="gamma" unicode="&#x3b3;" horiz-adv-x="1009" 
d="M442 -369v369l-401 1106h123l341 -945l342 945h122l-402 -1106v-369h-125z" />
    <glyph glyph-name="delta" unicode="&#x3b4;" horiz-adv-x="1193" 
d="M596 -29q-242 0 -378 146t-136 389q0 209 101.5 349.5t281.5 168.5q-105 40 -165.5 100t-60.5 154q0 80 47 138.5t139 77.5q46 11 120 11h394v-102h-369q-61 0 -102 -10q-52 -12 -82.5 -41.5t-30.5 -75.5q0 -32 18 -59t48.5 -48t80.5 -42t103.5 -39.5t128.5 -42.5l57 -18
q154 -53 237.5 -188t83.5 -324q0 -247 -137 -395.5t-379 -148.5zM212 515q0 -201 99 -315t286 -114q188 0 286.5 115.5t98.5 316.5q0 199 -98.5 311.5t-286.5 112.5q-190 0 -287.5 -114.5t-97.5 -312.5z" />
    <glyph glyph-name="epsilon" unicode="&#x3b5;" horiz-adv-x="1027" 
d="M484 -31q-175 0 -288.5 92.5t-113.5 242.5q0 88 39.5 164t116.5 109q-129 86 -129 244q0 145 104.5 230.5t267.5 85.5q277 0 437 -190l-82 -80q-60 71 -151 113t-193 42q-114 0 -188.5 -53.5t-74.5 -153.5q0 -93 71.5 -141.5t195.5 -48.5h146v-106h-147
q-154 0 -223 -48.5t-69 -154.5q0 -108 79.5 -170t212.5 -62q253 0 377 229l97 -58q-71 -137 -194 -211.5t-291 -74.5z" />
    <glyph glyph-name="zeta" unicode="&#x3b6;" horiz-adv-x="1017" 
d="M871 -246q6 86 -7 135t-57 73.5t-97.5 31t-157.5 6.5q-56 0 -99 2.5t-94.5 11.5t-89 24t-74.5 42.5t-60.5 65.5t-38 93.5t-14.5 125.5q0 79 20.5 149t89 175t191.5 236q310 319 427 437h-667v113h841v-106q-353 -361 -480 -487q-172 -177 -235 -289t-63 -219
q0 -149 95.5 -205.5t302.5 -56.5q106 0 178 -14q109 -22 165 -104.5t34 -239.5h-110z" />
    <glyph glyph-name="eta" unicode="&#x3b7;" 
d="M953 575q0 214 -85.5 328.5t-256.5 114.5q-174 0 -261.5 -114.5t-87.5 -306.5v-597h-119v1106h108v-166q60 96 157.5 144t218.5 48q111 0 197.5 -41.5t140 -114t80.5 -166.5t27 -205v-605h-119v575z" />
    <glyph glyph-name="theta" unicode="&#x3b8;" horiz-adv-x="1326" 
d="M664 -31q-115 0 -211 41t-164 113t-115 169.5t-69.5 209.5t-22.5 235q0 154 36.5 290.5t106.5 243.5t183 169.5t256 62.5q142 0 255 -62.5t182.5 -169.5t106 -243.5t36.5 -290.5q0 -128 -22.5 -241.5t-69 -210.5t-114.5 -167t-163.5 -109.5t-210.5 -39.5zM209 684
q6 -167 58 -300.5t155 -216t242 -82.5q105 0 189 47t139 130t86.5 190t37.5 232h-907zM210 791h907q-6 167 -57.5 300t-154 215.5t-241.5 82.5q-105 0 -189.5 -47t-140 -130t-87 -190t-37.5 -231z" />
    <glyph glyph-name="iota" unicode="&#x3b9;" horiz-adv-x="694" 
d="M410 -10q-153 21 -212 139q-16 33 -24 74t-9 70t-1 89v22v722h119v-720q0 -16 -0.5 -50.5t0 -47t2.5 -34.5t7 -37t13 -31q40 -75 137 -88q100 -8 184 8v-106q-109 -25 -216 -10z" />
    <glyph glyph-name="kappa" unicode="&#x3ba;" horiz-adv-x="987" 
d="M143 0v1106h119v-533l523 533h165l-548 -553l626 -553h-183l-583 532v-532h-119z" />
    <glyph glyph-name="lambda" unicode="&#x3bb;" horiz-adv-x="1050" 
d="M483 1106q-6 17 -18 47q-15 40 -22.5 58.5t-20.5 48.5t-22 44t-23.5 33.5t-29 28t-34 18.5t-42.5 13t-51 3h-52v105h64q64 0 108 -9q22 -5 42.5 -15t37 -20.5t33 -30t28 -33t26 -41.5t22 -43.5t21 -49.5t19.5 -49.5t20 -54.5t19 -53l402 -1106h-123l-341 945l-342 -945
h-122z" />
    <glyph glyph-name="uni03BC" unicode="&#x3bc;" horiz-adv-x="1215" 
d="M143 -492v1598h119v-576q0 -213 85.5 -327.5t255.5 -114.5q175 0 262.5 114.5t87.5 306.5v597h119v-1106h-107v168q-60 -97 -157.5 -145.5t-218.5 -48.5q-227 0 -338 169v-635h-108z" />
    <glyph glyph-name="nu" unicode="&#x3bd;" horiz-adv-x="1009" 
d="M442 0l-401 1106h122l342 -945l341 945h123l-402 -1106h-125z" />
    <glyph glyph-name="xi" unicode="&#x3be;" horiz-adv-x="1113" 
d="M994 -246q5 70 -4.5 115t-28.5 72t-67 39.5t-96.5 16t-139.5 3.5q-576 0 -576 427q0 144 65.5 235t186.5 125q-94 47 -148.5 134.5t-54.5 204.5q0 94 37 168t101 119t145 68.5t174 23.5q178 0 304 -81.5t200 -225.5l-108 -63q-67 127 -159.5 191.5t-236.5 64.5
q-149 0 -240 -69t-91 -199q0 -126 87 -197t244 -79q45 -2 165 -2v-115q-19 0 -169 -6q-89 -4 -153 -18t-116.5 -45t-79.5 -86.5t-27 -135.5q0 -171 124.5 -248.5t372.5 -78.5q120 0 198 -14q109 -22 168 -104.5t34 -239.5h-111z" />
    <glyph glyph-name="omicron" unicode="&#x3bf;" horiz-adv-x="1193" 
d="M597 -31q-242 0 -378.5 161t-136.5 425t138 423t377 159q243 0 379 -160t136 -422q0 -266 -136.5 -426t-378.5 -160zM208 555q0 -218 100.5 -344.5t288.5 -126.5q190 0 289.5 127t99.5 344q0 218 -99.5 342.5t-289.5 124.5q-192 0 -290.5 -126.5t-98.5 -340.5z" />
    <glyph glyph-name="pi" unicode="&#x3c0;" horiz-adv-x="1325" 
d="M280 0v993h-232v113h1229v-113h-231v-993h-119v993h-529v-993h-118z" />
    <glyph glyph-name="rho" unicode="&#x3c1;" horiz-adv-x="1197" 
d="M143 489q0 119 5 168q19 215 144.5 347.5t334.5 132.5q156 0 268 -78t166 -207.5t54 -296.5q0 -168 -55.5 -299.5t-166 -209t-259.5 -77.5q-126 0 -223 54.5t-150 146.5v-662h-118v981zM261 556q0 -214 92 -344t270 -130q177 0 273 131.5t96 341.5q0 102 -23 187
t-67.5 148.5t-115.5 98.5t-163 35q-179 0 -270.5 -127t-91.5 -341z" />
    <glyph glyph-name="uni03C2" unicode="&#x3c2;" horiz-adv-x="1119" 
d="M878 -246q4 58 -1 98.5t-21 67t-39.5 41.5t-62.5 23t-82 11t-105 5h-11q-86 3 -156.5 24t-119 52.5t-85 76t-57.5 89t-34 97.5t-17.5 96.5t-4.5 89.5q0 293 133 452.5t374 159.5q166 0 287.5 -76t172.5 -214l-115 -42q-42 103 -132.5 160t-211.5 57q-123 0 -209.5 -62
t-127.5 -166.5t-42 -241.5q0 -57 6.5 -109.5t29.5 -115t61 -108t106.5 -76.5t159.5 -31q143 0 214 -14q110 -23 166 -106t34 -238h-110z" />
    <glyph glyph-name="sigma" unicode="&#x3c3;" horiz-adv-x="1217" 
d="M597 -31q-233 0 -374 159.5t-141 410.5q0 227 113 377.5t308 181.5q54 8 189 8h482v-113h-249q88 -71 137.5 -189.5t49.5 -264.5q0 -252 -141 -411t-374 -159zM208 539q0 -208 102.5 -331.5t286.5 -123.5q187 0 288 124t101 331q0 205 -101.5 328t-287.5 124
q-126 0 -215 -59.5t-131.5 -160.5t-42.5 -232z" />
    <glyph glyph-name="tau" unicode="&#x3c4;" horiz-adv-x="1037" 
d="M696 -10q-152 21 -211 139q-8 16 -14 31.5t-9.5 35.5t-5.5 31t-3 38t-1 35v42.5v41.5v609h-401v113h919v-113h-401v-607q0 -15 -0.5 -43.5t0 -39.5t1.5 -31.5t3.5 -32t7 -26t11.5 -27.5q40 -75 137 -88q101 -8 183 8v-106q-109 -25 -216 -10z" />
    <glyph glyph-name="upsilon" unicode="&#x3c5;" horiz-adv-x="1166" 
d="M123 504v602h119v-576q0 -214 85.5 -328t256.5 -114q170 0 255.5 114.5t85.5 327.5v576h118v-602q0 -156 -47 -272.5t-152 -187t-260 -70.5q-117 0 -206.5 40t-144.5 112t-82.5 167t-27.5 211z" />
    <glyph glyph-name="phi" unicode="&#x3c6;" horiz-adv-x="1485" 
d="M670 -22q-121 -19 -228.5 12t-187 103.5t-126 191t-46.5 266.5t46.5 267t126 192t187 104.5t228.5 12.5v342h112v-342q121 19 228.5 -12.5t187 -104.5t126 -192t46.5 -267t-46.5 -266.5t-126 -191t-187 -103.5t-228.5 -12v-439h-112v439zM206 551q0 -89 19 -164
t52.5 -127t78.5 -91t96.5 -57t107 -25.5t110.5 4.5v924q-55 12 -111 4t-107.5 -26t-96.5 -57.5t-78 -92t-52 -127.5t-19 -165zM782 91q85 -14 165.5 5.5t148 71.5t109 151t41.5 232q0 77 -14 144t-39 116.5t-60 89.5t-76 63.5t-86.5 39.5t-93 16.5t-95.5 -5.5v-924z" />
    <glyph glyph-name="chi" unicode="&#x3c7;" horiz-adv-x="1060" 
d="M20 0l442 559l-431 547h143l357 -458l356 458h143l-431 -547l441 -559h-145l-364 470l-365 -470h-146z" />
    <glyph glyph-name="psi" unicode="&#x3c8;" horiz-adv-x="1397" 
d="M641 -36q-175 5 -302 96t-181 240q-35 92 -35 205v601h115v-508q0 -131 19 -209q34 -139 140.5 -225t243.5 -88v1030h116v-1030q138 2 245 89.5t140 226.5q18 77 18 206v508h115v-601q0 -115 -35 -205q-53 -146 -179.5 -238.5t-303.5 -97.5v-425h-116v425z" />
    <glyph glyph-name="omega" unicode="&#x3c9;" horiz-adv-x="1574" 
d="M488 -33q-199 0 -302.5 142t-103.5 380q0 225 92 385.5t285 262.5l69 -104q-170 -93 -245 -220.5t-75 -314.5q0 -186 74 -300.5t215 -114.5q58 0 101 20t68 51.5t39.5 80.5t19.5 98t5 113v257h115v-257q0 -63 5 -111t19.5 -97.5t39.5 -81.5t68 -52.5t101 -20.5
q96 0 163 57t96.5 148.5t29.5 209.5q0 189 -75.5 316.5t-243.5 218.5l69 104q195 -103 285.5 -263.5t90.5 -384.5q0 -239 -104 -380.5t-300 -141.5q-107 0 -187 49t-115 147q-35 -98 -114 -147t-185 -49z" />
    <glyph glyph-name="iotadieresis" unicode="&#x3ca;" horiz-adv-x="659" 
d="M410 -10q-153 21 -212 139q-16 33 -24 74t-9 70t-1 89v22v722h119v-720q0 -16 -0.5 -50.5t0 -47t2.5 -34.5t7 -37t13 -31q40 -75 137 -88q100 -8 184 8v-106q-109 -25 -216 -10zM-39 1336v144h143v-144h-143zM341 1336v144h143v-144h-143z" />
    <glyph glyph-name="upsilondieresis" unicode="&#x3cb;" horiz-adv-x="1166" 
d="M123 504v602h119v-576q0 -214 85.5 -328t256.5 -114q170 0 255.5 114.5t85.5 327.5v576h118v-602q0 -156 -47 -272.5t-152 -187t-260 -70.5q-117 0 -206.5 40t-144.5 112t-82.5 167t-27.5 211zM322 1336v144h143v-144h-143zM701 1336v144h144v-144h-144z" />
    <glyph glyph-name="omicrontonos" unicode="&#x3cc;" horiz-adv-x="1193" 
d="M597 -31q-242 0 -378.5 161t-136.5 425t138 423t377 159q243 0 379 -160t136 -422q0 -266 -136.5 -426t-378.5 -160zM208 555q0 -218 100.5 -344.5t288.5 -126.5q190 0 289.5 127t99.5 344q0 218 -99.5 342.5t-289.5 124.5q-192 0 -290.5 -126.5t-98.5 -340.5zM540 1285
l110 297h110l-111 -297h-109z" />
    <glyph glyph-name="upsilontonos" unicode="&#x3cd;" horiz-adv-x="1166" 
d="M123 504v602h119v-576q0 -214 85.5 -328t256.5 -114q170 0 255.5 114.5t85.5 327.5v576h118v-602q0 -156 -47 -272.5t-152 -187t-260 -70.5q-117 0 -206.5 40t-144.5 112t-82.5 167t-27.5 211zM502 1285l110 297h110l-111 -297h-109z" />
    <glyph glyph-name="omegatonos" unicode="&#x3ce;" horiz-adv-x="1574" 
d="M488 -33q-199 0 -302.5 142t-103.5 380q0 225 92 385.5t285 262.5l69 -104q-170 -93 -245 -220.5t-75 -314.5q0 -186 74 -300.5t215 -114.5q58 0 101 20t68 51.5t39.5 80.5t19.5 98t5 113v257h115v-257q0 -63 5 -111t19.5 -97.5t39.5 -81.5t68 -52.5t101 -20.5
q96 0 163 57t96.5 148.5t29.5 209.5q0 189 -75.5 316.5t-243.5 218.5l69 104q195 -103 285.5 -263.5t90.5 -384.5q0 -239 -104 -380.5t-300 -141.5q-107 0 -187 49t-115 147q-35 -98 -114 -147t-185 -49zM713 1285l110 297h110l-111 -297h-109z" />
    <glyph glyph-name="uni0400" unicode="&#x400;" horiz-adv-x="1157" 
d="M143 0v1475h912v-115h-794v-560h671v-115h-671v-570h794v-115h-912zM469 1951h110l110 -297h-109z" />
    <glyph glyph-name="uni0401" unicode="&#x401;" horiz-adv-x="1157" 
d="M143 0v1475h912v-115h-794v-560h671v-115h-671v-570h794v-115h-912zM311 1705v143h144v-143h-144zM691 1705v143h144v-143h-144z" />
    <glyph glyph-name="uni0402" unicode="&#x402;" horiz-adv-x="1302" 
d="M146 0v1362h-146v113h584v-113h-330v-427q126 202 441 202q255 0 390.5 -140t135.5 -417q0 -268 -128.5 -424t-379.5 -156v119q187 0 288 124t101 349q0 221 -104 324.5t-310 103.5q-324 0 -397 -255q-26 -89 -26 -270v-495h-119z" />
    <glyph glyph-name="uni0403" unicode="&#x403;" horiz-adv-x="1075" 
d="M143 0v1475h912v-115h-794v-1360h-118zM392 1654l111 297h109l-110 -297h-110z" />
    <glyph glyph-name="uni0404" unicode="&#x404;" horiz-adv-x="1462" 
d="M763 -31q-160 0 -289.5 59.5t-212.5 163.5t-126 243.5t-40 301.5q4 232 80 403.5t226.5 268t361.5 96.5q246 0 414.5 -133.5t223.5 -375.5l-122 -18q-41 190 -176.5 299t-336.5 112q-166 2 -287.5 -74.5t-184.5 -209t-72 -310.5h547v-115h-547q10 -249 128 -406
q139 -186 416 -189q186 -3 321 100.5t187 287.5l117 -32q-55 -222 -222.5 -347t-405.5 -125z" />
    <glyph glyph-name="uni0405" unicode="&#x405;" horiz-adv-x="1233" 
d="M644 -31q-228 0 -384 111t-195 301l120 20q38 -148 162 -232.5t300 -84.5q180 0 292 84t112 222q0 50 -17 92t-41 68t-61 47.5t-64.5 32.5t-64.5 22l-371 111q-310 91 -310 346q0 177 138 286.5t355 109.5q218 -1 366.5 -117.5t180.5 -313.5l-122 -21q-22 152 -140 244.5
t-286 92.5q-160 1 -263 -78t-103 -199q0 -47 18.5 -85.5t44 -63.5t67 -46.5t72.5 -32.5t76 -24l297 -88q33 -10 55.5 -17t62 -24.5t67 -35.5t60.5 -48t53 -64.5t34 -83.5t14 -106q0 -196 -145 -310.5t-380 -114.5z" />
    <glyph glyph-name="uni0406" unicode="&#x406;" horiz-adv-x="445" 
d="M164 0v1475h118v-1475h-118z" />
    <glyph glyph-name="uni0407" unicode="&#x407;" horiz-adv-x="445" 
d="M164 0v1475h118v-1475h-118zM-39 1705v143h143v-143h-143zM341 1705v143h143v-143h-143z" />
    <glyph glyph-name="uni0408" unicode="&#x408;" horiz-adv-x="924" 
d="M381 -29q-140 0 -243.5 79.5t-137.5 213.5l119 28q21 -90 93.5 -148t169.5 -58q68 0 129 31t95 95q16 29 24 68t9 69t1 94v1032h119v-1032v-37v-37.5t-0.5 -32t-2 -34t-3.5 -30t-5.5 -32.5t-8.5 -28t-11.5 -31.5t-15.5 -29.5q-51 -88 -137.5 -134t-193.5 -46z" />
    <glyph glyph-name="uni0409" unicode="&#x409;" horiz-adv-x="2225" 
d="M1135 0v1360h-676q-2 -31 -9.5 -151.5t-10.5 -163t-10.5 -146t-14.5 -168t-17.5 -156t-23.5 -178.5q-7 -49 -13.5 -83.5t-16.5 -77t-20 -72t-26 -61.5t-34 -51.5t-42.5 -37t-53.5 -23.5t-66.5 -4.5t-80.5 13.5v111q28 -3 48.5 -3t39.5 3t32.5 12t26 21t22 33.5t18 46
t16.5 62t15 78t15 97.5q62 396 88 1014h911v-575h439q49 0 98 -8q163 -26 258.5 -148t95.5 -294t-95 -294.5t-259 -147.5q-49 -8 -98 -8h-556zM1252 115h437q49 0 90 9q116 23 178 114t62 212q0 120 -62 211t-178 115q-43 8 -90 8h-437v-669z" />
    <glyph glyph-name="uni040A" unicode="&#x40a;" horiz-adv-x="2137" 
d="M143 0v1475h118v-576h787v576h117v-575h439q49 0 98 -8q163 -26 258.5 -148t95.5 -294t-95 -294.5t-259 -147.5q-49 -8 -98 -8h-556v784h-787v-784h-118zM1165 115h437q49 0 90 9q116 23 178 114t62 212q0 120 -62 211t-178 115q-43 8 -90 8h-437v-669z" />
    <glyph glyph-name="uni040B" unicode="&#x40b;" horiz-adv-x="1304" 
d="M0 1362v113h584v-113h-322v-500q154 88 369 88q141 0 245 -40t165.5 -114.5t90.5 -171t29 -218.5v-406h-119v360q0 232 -98.5 351.5t-314.5 119.5q-114 0 -209 -29.5t-158 -75.5v-726h-119v1362h-143z" />
    <glyph glyph-name="uni040C" unicode="&#x40c;" horiz-adv-x="1179" 
d="M143 0v1475h118v-701l702 701h155l-705 -709l767 -766h-158l-761 754v-754h-118zM564 1654l111 297h109l-110 -297h-110z" />
    <glyph glyph-name="uni040D" unicode="&#x40d;" horiz-adv-x="1378" 
d="M143 0v1475h119v-1265l854 1265h119v-1475h-119v1267l-854 -1267h-119zM549 1951h109l111 -297h-110z" />
    <glyph glyph-name="uni040E" unicode="&#x40e;" horiz-adv-x="1266" 
d="M410 0l157 334l-529 1141h129l462 -1012l469 1012h126l-682 -1475h-132zM370 1857h102q0 -60 43 -103.5t103 -43.5q61 0 104 43.5t43 103.5h102q0 -103 -73 -176t-176 -73t-175.5 73t-72.5 176z" />
    <glyph glyph-name="uni040F" unicode="&#x40f;" horiz-adv-x="1477" 
d="M680 -246v246h-537v1475h118v-1360h956v1360h117v-1475h-536v-246h-118z" />
    <glyph glyph-name="uni0410" unicode="&#x410;" horiz-adv-x="1272" 
d="M41 0l522 1475h147l522 -1475h-125l-132 371h-678l-131 -371h-125zM336 482h600l-301 847z" />
    <glyph glyph-name="uni0411" unicode="&#x411;" horiz-adv-x="1213" 
d="M143 0v1475h886v-115h-768v-467h438q49 0 100 -8q161 -24 257 -146.5t96 -292.5q0 -171 -95.5 -292.5t-257.5 -145.5q-51 -8 -100 -8h-556zM261 115h436q47 0 91 8q115 23 177.5 113t62.5 210t-62.5 210.5t-177.5 113.5q-44 8 -91 8h-436v-663z" />
    <glyph glyph-name="uni0412" unicode="&#x412;" horiz-adv-x="1243" 
d="M143 0v1475h565q172 0 287.5 -106.5t115.5 -264.5q0 -101 -49 -187t-132 -133q120 -53 187 -149.5t67 -228.5q0 -187 -121 -296.5t-312 -109.5h-608zM262 116h450q152 0 249 76t97 208q0 134 -91 226.5t-222 92.5h-483v-603zM262 833h445q117 0 198.5 78.5t81.5 196.5
q0 113 -79.5 183t-200.5 70h-445v-528z" />
    <glyph glyph-name="uni0413" unicode="&#x413;" horiz-adv-x="1075" 
d="M143 0v1475h912v-115h-794v-1360h-118z" />
    <glyph glyph-name="uni0414" unicode="&#x414;" horiz-adv-x="1501" 
d="M79 115q56 0 99.5 19.5t71.5 55t48 81t32 102.5t20 113.5t15 119.5q2 21 3 31q9 80 16 157.5t12.5 168t8.5 150.5t9 179.5t9 182.5h892v-1360h104v-361h-119v246h-1103v-246h-118v361zM334 115h863v1245h-661q-26 -517 -52 -768q-20 -201 -51 -311t-99 -166z" />
    <glyph glyph-name="uni0415" unicode="&#x415;" horiz-adv-x="1157" 
d="M143 0v1475h912v-115h-794v-560h671v-115h-671v-570h794v-115h-912z" />
    <glyph glyph-name="uni0416" unicode="&#x416;" horiz-adv-x="1807" 
d="M20 0l687 766l-625 709h154l609 -698v698h118v-698l609 698h153l-624 -709l686 -766h-157l-667 751v-751h-118v751l-669 -751h-156z" />
    <glyph glyph-name="uni0417" unicode="&#x417;" horiz-adv-x="1184" 
d="M598 -31q-211 0 -345.5 89t-187.5 229l112 57q39 -117 148.5 -188t276.5 -71q184 0 288 87.5t104 239.5q0 78 -28 133t-81.5 85.5t-117.5 44.5t-149 17q-150 6 -168 6v115q121 0 164 2q155 7 243 84t88 204q0 134 -93.5 211t-244.5 77q-259 0 -389 -256l-107 63
q71 142 199 224.5t300 82.5q93 0 176 -26t147 -74.5t101 -126t37 -173.5q0 -122 -56 -214t-147 -135q119 -33 185.5 -121.5t66.5 -225.5q0 -201 -140.5 -320.5t-381.5 -119.5z" />
    <glyph glyph-name="uni0418" unicode="&#x418;" horiz-adv-x="1378" 
d="M1235 0h-119v1267l-854 -1267h-119v1475h119v-1265l854 1265h119v-1475z" />
    <glyph glyph-name="uni0419" unicode="&#x419;" horiz-adv-x="1378" 
d="M143 0v1475h119v-1265l854 1265h119v-1475h-119v1267l-854 -1267h-119zM457 1857h102q0 -60 43.5 -103.5t103.5 -43.5q61 0 103.5 43.5t42.5 103.5h102q0 -103 -72.5 -176t-175.5 -73t-176 73t-73 176z" />
    <glyph glyph-name="uni041A" unicode="&#x41a;" horiz-adv-x="1179" 
d="M143 0v1475h118v-701l702 701h155l-705 -709l767 -766h-158l-761 754v-754h-118z" />
    <glyph glyph-name="uni041B" unicode="&#x41b;" horiz-adv-x="1416" 
d="M41 111q28 -3 48.5 -3t39 3t32.5 12t26.5 21t22 33.5t17.5 46t16 62t15 78t15 97.5q62 396 88 1014h912v-1475h-118v1360h-676q-2 -31 -9.5 -151.5t-10.5 -163t-10.5 -146t-14.5 -168t-17.5 -156t-23.5 -178.5q-9 -56 -16 -94t-18 -85t-24.5 -78t-32.5 -63.5t-43.5 -50
t-56 -30t-72 -11t-89.5 14.5v111z" />
    <glyph glyph-name="uni041C" unicode="&#x41c;" horiz-adv-x="1712" 
d="M143 0v1475h110l604 -1305l598 1305h114v-1473h-116v1201l-549 -1203h-96l-550 1203v-1203h-115z" />
    <glyph glyph-name="uni041D" unicode="&#x41d;" horiz-adv-x="1377" 
d="M143 0v1475h118v-680h854v680h119v-1475h-119v680h-854v-680h-118z" />
    <glyph glyph-name="uni041E" unicode="&#x41e;" horiz-adv-x="1463" 
d="M732 -31q-162 0 -290 56.5t-211 158.5t-126.5 242.5t-43.5 310.5t43.5 310.5t126.5 242.5t211 158.5t290 56.5q215 0 368 -98.5t227.5 -270t74.5 -399.5t-74.5 -399.5t-227.5 -270t-368 -98.5zM187 737q-1 -145 33.5 -264t101.5 -206t172 -134.5t238 -47.5
q177 0 301 83.5t183.5 228.5t59.5 340t-59.5 340t-183.5 229t-301 84q-133 0 -237 -47.5t-170.5 -135t-101.5 -206.5t-36 -264z" />
    <glyph glyph-name="uni041F" unicode="&#x41f;" horiz-adv-x="1393" 
d="M143 0v1475h1107v-1475h-117v1360h-872v-1360h-118z" />
    <glyph glyph-name="uni0420" unicode="&#x420;" horiz-adv-x="1213" 
d="M143 0v1475h556q43 0 100 -9q163 -25 258 -147t95 -294t-95 -294t-258 -148q-57 -9 -100 -9h-438v-574h-118zM261 690h436q47 0 91 8q115 24 177.5 115.5t62.5 211.5t-62.5 211.5t-177.5 114.5q-42 9 -91 9h-436v-670z" />
    <glyph glyph-name="uni0421" unicode="&#x421;" horiz-adv-x="1448" 
d="M732 -31q-162 0 -290 56.5t-211 158.5t-126.5 242.5t-43.5 310.5t43.5 310.5t126.5 242.5t211 158.5t290 56.5q251 0 413.5 -130t221.5 -359l-122 -30q-49 190 -179 297t-334 107q-177 0 -300.5 -84t-183 -229t-61.5 -340q-2 -194 58 -339.5t185 -229t302 -83.5
q204 0 334 106.5t179 296.5l122 -29q-59 -229 -221.5 -359.5t-413.5 -130.5z" />
    <glyph glyph-name="uni0422" unicode="&#x422;" horiz-adv-x="1215" 
d="M549 0v1360h-529v115h1175v-115h-528v-1360h-118z" />
    <glyph glyph-name="uni0423" unicode="&#x423;" horiz-adv-x="1266" 
d="M410 0l157 334l-529 1141h129l462 -1012l469 1012h126l-682 -1475h-132z" />
    <glyph glyph-name="uni0424" unicode="&#x424;" horiz-adv-x="1436" 
d="M659 191q-114 -19 -221.5 12t-191 104t-134.5 197t-51 279q0 125 33 230.5t90.5 178.5t133 120.5t163 63.5t178.5 1v98h118v-98q91 15 178.5 -1t163 -63.5t133 -120.5t90.5 -178.5t33 -230.5q0 -155 -51 -279t-134.5 -197t-191 -104t-221.5 -12v-191h-118v191zM185 783
q0 -236 135.5 -370t338.5 -106v957q-202 28 -338 -108.5t-136 -372.5zM777 307q202 -28 338 106t136 369t-136.5 372.5t-337.5 109.5v-957z" />
    <glyph glyph-name="uni0425" unicode="&#x425;" horiz-adv-x="1207" 
d="M20 0l515 748l-502 727h142l428 -630l429 630h143l-502 -727l514 -748h-143l-441 648l-440 -648h-143z" />
    <glyph glyph-name="uni0426" unicode="&#x426;" horiz-adv-x="1443" 
d="M1306 -177v177h-1163v1475h118v-1362h891v1362h118v-1362h153v-290h-117z" />
    <glyph glyph-name="uni0427" unicode="&#x427;" horiz-adv-x="1304" 
d="M1042 0v612q-154 -88 -368 -88q-114 0 -203.5 26.5t-150.5 74t-101 116.5t-58 150t-18 178v406h119v-361q0 -232 99 -351.5t315 -119.5q114 0 208 30t158 76v726h119v-1475h-119z" />
    <glyph glyph-name="uni0428" unicode="&#x428;" horiz-adv-x="1829" 
d="M143 0v1475h118v-1360h595v1360h118v-1360h594v1360h119v-1475h-1544z" />
    <glyph glyph-name="uni0429" unicode="&#x429;" horiz-adv-x="1860" 
d="M1722 -177v177h-1579v1475h118v-1360h595v1360h118v-1360h594v1360h119v-1362h153v-290h-118z" />
    <glyph glyph-name="uni042A" unicode="&#x42a;" horiz-adv-x="1238" 
d="M171 0v1367h-188v108h306v-575h438q49 0 98 -8q163 -26 259 -148t96 -294t-95.5 -294.5t-259.5 -147.5q-49 -8 -98 -8h-556zM289 115h436q49 0 90 9q116 23 178.5 114.5t62.5 211.5t-62.5 211t-178.5 115q-43 8 -90 8h-436v-669z" />
    <glyph glyph-name="uni042B" unicode="&#x42b;" horiz-adv-x="1557" 
d="M143 0v1475h118v-575h438q50 0 99 -8q163 -26 258.5 -148t95.5 -294t-95 -294.5t-259 -147.5q-49 -8 -99 -8h-556zM261 115h436q49 0 90 9q116 23 178.5 114.5t62.5 211.5t-62.5 211t-178.5 115q-43 8 -90 8h-436v-669zM1295 0v1475h118v-1475h-118z" />
    <glyph glyph-name="uni042C" unicode="&#x42c;" horiz-adv-x="1233" 
d="M143 0v1475h118v-575h438q50 0 99 -8q163 -26 258.5 -148t95.5 -294t-95 -294.5t-259 -147.5q-49 -8 -99 -8h-556zM261 115h436q49 0 90 9q116 23 178.5 114.5t62.5 211.5t-62.5 211t-178.5 115q-43 8 -90 8h-436v-669z" />
    <glyph glyph-name="uni042D" unicode="&#x42d;" horiz-adv-x="1428" 
d="M699 -31q-238 0 -405 125t-222 347l116 32q52 -184 187 -287.5t321 -100.5q277 3 416 189q118 157 128 406h-547v115h547q-9 178 -72 310.5t-184.5 209t-287.5 74.5q-201 -3 -336.5 -112t-176.5 -299l-122 18q55 242 223.5 375.5t414.5 133.5q211 0 361.5 -96.5
t226.5 -268t80 -403.5q3 -162 -40 -301.5t-126 -243.5t-212.5 -163.5t-289.5 -59.5z" />
    <glyph glyph-name="uni042E" unicode="&#x42e;" horiz-adv-x="1858" 
d="M143 0v1475h118v-678h375q5 116 31 219.5t74 193t114.5 154.5t159.5 102t202 37q142 0 255 -62.5t182.5 -169.5t106 -243.5t36.5 -290.5q0 -128 -22.5 -241.5t-69 -210.5t-114.5 -167t-163.5 -109.5t-210.5 -39.5q-109 0 -202 37.5t-159.5 102.5t-114.5 155t-74 194
t-31 220h-375v-678h-118zM761 737q-1 -105 17 -201.5t55.5 -178.5t91 -142.5t128.5 -95t164 -34.5q110 0 197.5 52.5t142.5 143t84 207t30 249.5q2 178 -47.5 323.5t-155 237t-251.5 91.5q-110 0 -198 -52.5t-143 -143t-84.5 -207t-30.5 -249.5z" />
    <glyph glyph-name="uni042F" unicode="&#x42f;" horiz-adv-x="1271" 
d="M1128 0h-117v574h-512l-279 -574h-138l297 609q-122 48 -190.5 159.5t-68.5 256.5q0 172 95 294t258 147q57 9 99 9h556v-1475zM244 1025q0 -120 62 -211.5t177 -115.5q44 -8 91 -8h437v670h-437q-49 0 -91 -9q-115 -23 -177 -114.5t-62 -211.5z" />
    <glyph glyph-name="uni0430" unicode="&#x430;" horiz-adv-x="1124" 
d="M463 -31q-182 0 -281.5 93.5t-99.5 232.5q0 132 79.5 209.5t211.5 108.5q132 29 511 76q0 172 -74 253t-244 81q-258 0 -321 -232l-121 33q38 151 152.5 232t293.5 81q151 0 256 -60t146 -167q29 -74 29 -221v-689h-107v193q-64 -108 -176 -166t-255 -58zM203 294
q0 -40 14 -76.5t43.5 -69t83.5 -51.5t125 -19q167 0 273.5 88t128.5 238q13 72 13 177q-345 -36 -471 -68q-210 -56 -210 -219z" />
    <glyph glyph-name="uni0431" unicode="&#x431;" horiz-adv-x="1183" 
d="M582 -31q-236 0 -365.5 152t-133.5 457q-2 129 16.5 285t44.5 238q25 78 75.5 145.5t116.5 109.5q74 50 183.5 77t257 44.5t195.5 27.5l14 -109q-19 -3 -169.5 -23.5t-253.5 -46.5t-169 -68q-165 -100 -189 -410q63 101 171 155.5t240 54.5q223 0 354.5 -149.5
t131.5 -395.5q0 -250 -139.5 -397.5t-380.5 -146.5zM209 513q0 -201 99.5 -315t283.5 -114q185 0 285 115.5t100 313.5q0 200 -102 314.5t-285 114.5q-182 0 -281.5 -114t-99.5 -315z" />
    <glyph glyph-name="uni0432" unicode="&#x432;" horiz-adv-x="1081" 
d="M143 0v1106h440q100 0 176 -20q96 -25 151.5 -102t55.5 -181q0 -110 -64 -185q-26 -33 -68 -53q27 -6 69 -31q117 -73 117 -237q0 -111 -53.5 -183t-143.5 -97q-59 -17 -175 -17h-505zM262 106h383q55 0 118 14q66 16 99 65t33 114q0 79 -48 131.5t-131 63.5q-32 5 -99 5
h-355v-393zM262 606h344q69 0 119 17q57 19 87 67.5t30 109.5q0 64 -31.5 112t-88.5 68q-55 18 -141 18h-319v-392z" />
    <glyph glyph-name="uni0433" unicode="&#x433;" horiz-adv-x="942" 
d="M143 0v1106h748v-115h-630v-991h-118z" />
    <glyph glyph-name="uni0434" unicode="&#x434;" horiz-adv-x="1201" 
d="M61 108q91 0 135 56.5t72 192.5q26 125 40.5 287.5t27.5 461.5h700v-998h104v-354h-115v246h-848v-246h-116v354zM292 108h626v890h-468q-28 -520 -71 -688q-21 -83 -38.5 -128t-48.5 -74z" />
    <glyph glyph-name="uni0435" unicode="&#x435;" horiz-adv-x="1185" 
d="M599 -31q-238 0 -377.5 157.5t-139.5 424.5q0 271 138.5 428.5t376.5 157.5q242 0 376 -163.5t130 -454.5h-894q8 -208 108.5 -321.5t279.5 -113.5q127 0 223.5 59t152.5 172l106 -47q-67 -142 -193 -220.5t-287 -78.5zM211 626h765q-18 195 -114 297t-263 102
q-171 0 -271 -103.5t-117 -295.5z" />
    <glyph glyph-name="uni0436" unicode="&#x436;" horiz-adv-x="1385" 
d="M20 0l488 553l-469 553h135l462 -550v550h113v-550l461 550h137l-469 -553l487 -553h-139l-477 550v-550h-113v550l-476 -550h-140z" />
    <glyph glyph-name="uni0437" unicode="&#x437;" horiz-adv-x="1027" 
d="M543 -31q-168 0 -291 74.5t-194 211.5l97 58q124 -229 377 -229q133 0 212.5 62t79.5 170q0 106 -69 154.5t-223 48.5h-147v106h146q124 0 195.5 48.5t71.5 141.5q0 100 -74.5 153.5t-187.5 53.5q-102 0 -193.5 -42t-151.5 -113l-81 80q160 190 436 190q163 0 268 -85.5
t105 -230.5q0 -158 -129 -244q77 -32 116 -108.5t39 -164.5q0 -150 -113.5 -242.5t-288.5 -92.5z" />
    <glyph glyph-name="uni0438" unicode="&#x438;" horiz-adv-x="1138" 
d="M995 1106v-1106h-115v908l-633 -908h-104v1106h116v-904l633 904h103z" />
    <glyph glyph-name="uni0439" unicode="&#x439;" horiz-adv-x="1138" 
d="M995 1106v-1106h-115v908l-633 -908h-104v1106h116v-904l633 904h103zM336 1488h102q0 -60 43.5 -103.5t103.5 -43.5q61 0 103.5 43.5t42.5 103.5h103q0 -103 -73 -176t-176 -73t-176 73t-73 176z" />
    <glyph glyph-name="uni043A" unicode="&#x43a;" horiz-adv-x="987" 
d="M143 0v1106h119v-533l523 533h165l-548 -553l626 -553h-183l-583 532v-532h-119z" />
    <glyph glyph-name="uni043B" unicode="&#x43b;" horiz-adv-x="1159" 
d="M41 106q23 -4 42 -4.5t33.5 4.5t26 11.5t20.5 19t15 25.5t11.5 32t9 36.5t7.5 42.5q42 246 78 833h732v-1106h-119v991h-499q-40 -571 -86 -795q-9 -44 -18 -74t-23 -57t-33.5 -42t-47 -24t-64 -8.5t-85.5 9.5v106z" />
    <glyph glyph-name="uni043C" unicode="&#x43c;" horiz-adv-x="1394" 
d="M143 0v1106h111l443 -952l443 952h111v-1106h-116v843l-391 -843h-95l-390 843v-843h-116z" />
    <glyph glyph-name="uni043D" unicode="&#x43d;" horiz-adv-x="1188" 
d="M143 0v1106h118v-496h667v496h118v-1106h-118v496h-667v-496h-118z" />
    <glyph glyph-name="uni043E" unicode="&#x43e;" horiz-adv-x="1193" 
d="M597 -31q-242 0 -378.5 161t-136.5 425t138 423t377 159q243 0 379 -160t136 -422q0 -266 -136.5 -426t-378.5 -160zM208 555q0 -218 100.5 -344.5t288.5 -126.5q190 0 289.5 127t99.5 344q0 218 -99.5 342.5t-289.5 124.5q-192 0 -290.5 -126.5t-98.5 -340.5z" />
    <glyph glyph-name="uni043F" unicode="&#x43f;" horiz-adv-x="1138" 
d="M143 0v1106h852v-1106h-117v991h-617v-991h-118z" />
    <glyph glyph-name="uni0440" unicode="&#x440;" horiz-adv-x="1196" 
d="M628 -31q-239 0 -367 201v-662h-118v1598h108v-184q61 102 159.5 158.5t228.5 56.5q147 0 256 -77.5t164 -208.5t55 -296q0 -168 -55.5 -299t-167 -209t-263.5 -78zM251 555q0 -138 40 -243t124.5 -167.5t205.5 -62.5q118 0 202.5 63t124.5 168t40 242q0 136 -39 240
t-124 166.5t-207 62.5q-178 0 -272.5 -128.5t-94.5 -340.5z" />
    <glyph glyph-name="uni0441" unicode="&#x441;" horiz-adv-x="1119" 
d="M595 -31q-162 0 -278.5 75t-174 205t-60.5 304q4 269 137.5 426.5t376.5 157.5q161 0 282.5 -78t170.5 -212l-115 -42q-42 102 -132 159.5t-207 57.5q-189 0 -287 -127t-100 -342q2 -218 101 -343.5t286 -125.5q117 0 204 54.5t133 157.5l117 -40q-65 -141 -180.5 -214
t-273.5 -73z" />
    <glyph glyph-name="uni0442" unicode="&#x442;" horiz-adv-x="1020" 
d="M452 0v993h-401v113h919v-113h-401v-993h-117z" />
    <glyph glyph-name="uni0443" unicode="&#x443;" horiz-adv-x="1057" 
d="M305 -492l182 492l-449 1106h126l381 -949l347 949h124l-588 -1598h-123z" />
    <glyph glyph-name="uni0444" unicode="&#x444;" horiz-adv-x="1452" 
d="M670 -22q-121 -19 -228.5 12t-187 103.5t-126 191t-46.5 266.5t46.5 267t126 192t187 104.5t228.5 12.5v342h112v-342q121 19 228.5 -12.5t187 -104.5t126 -192t46.5 -267t-46.5 -266.5t-126 -191t-187 -103.5t-228.5 -12v-439h-112v439zM206 551q0 -89 19 -164
t52.5 -127t78.5 -91t96.5 -57t107 -25.5t110.5 4.5v924q-55 12 -111 4t-107.5 -26t-96.5 -57.5t-78 -92t-52 -127.5t-19 -165zM782 91q85 -14 165.5 5.5t148 71.5t109 151t41.5 232q0 77 -14 144t-39 116.5t-60 89.5t-76 63.5t-86.5 39.5t-93 16.5t-95.5 -5.5v-924z" />
    <glyph glyph-name="uni0445" unicode="&#x445;" horiz-adv-x="1060" 
d="M20 0l442 559l-431 547h143l357 -458l356 458h143l-431 -547l441 -559h-145l-364 470l-365 -470h-146z" />
    <glyph glyph-name="uni0446" unicode="&#x446;" horiz-adv-x="1240" 
d="M1102 -177v177h-959v1106h118v-991h617v991h117v-993h225v-290h-118z" />
    <glyph glyph-name="uni0447" unicode="&#x447;" horiz-adv-x="1092" 
d="M830 425q-142 -72 -318 -72q-167 0 -273 74.5t-138 213.5q-19 86 -19 229v236h119v-236q0 -98 11 -162q43 -250 322 -250q84 0 162.5 21.5t133.5 59.5v567h119v-1106h-119v425z" />
    <glyph glyph-name="uni0448" unicode="&#x448;" horiz-adv-x="1530" 
d="M143 0v1106h116v-993h450v993h115v-993h448v993h116v-1106h-1245z" />
    <glyph glyph-name="uni0449" unicode="&#x449;" horiz-adv-x="1566" 
d="M1428 -177v177h-1285v1106h116v-993h450v993h115v-993h448v993h116v-993h158v-290h-118z" />
    <glyph glyph-name="uni044A" unicode="&#x44a;" horiz-adv-x="1116" 
d="M189 0l-2 998h-146v108h266v-432h280q110 0 169 -11q278 -50 278 -326q0 -134 -69.5 -216.5t-179.5 -106.5q-65 -14 -182 -14h-414zM307 108h281q122 0 170 13q152 44 152 216q0 98 -43 149t-126 68q-56 12 -153 12h-281v-458z" />
    <glyph glyph-name="uni044B" unicode="&#x44b;" horiz-adv-x="1325" 
d="M144 0l-1 1106h120v-432h214q111 0 170 -11q279 -52 279 -326q0 -133 -69.5 -216t-179.5 -107q-67 -14 -182 -14h-351zM263 108h216q122 0 170 13q153 44 153 216q0 97 -43.5 148t-125.5 69q-56 12 -154 12h-216v-458zM1064 0v1106h118v-1106h-118z" />
    <glyph glyph-name="uni044C" unicode="&#x44c;" horiz-adv-x="1072" 
d="M144 0l-1 1106h120v-432h279q111 0 170 -11q278 -50 278 -326q0 -134 -70 -216.5t-180 -106.5q-65 -14 -181 -14h-415zM263 108h281q122 0 169 13q153 44 153 216q0 97 -43.5 148t-125.5 69q-58 12 -153 12h-281v-458z" />
    <glyph glyph-name="uni044D" unicode="&#x44d;" horiz-adv-x="1119" 
d="M526 -31q-159 0 -274.5 73t-180.5 214l116 40q46 -103 133 -157.5t204 -54.5q176 0 273 110.5t111 305.5h-537v107h537q-12 192 -109 303.5t-274 111.5q-118 0 -208 -57t-132 -160l-114 42q49 135 171 212.5t288 77.5q238 0 372.5 -158.5t134.5 -425.5q0 -268 -136 -426
t-375 -158z" />
    <glyph glyph-name="uni044E" unicode="&#x44e;" horiz-adv-x="1579" 
d="M982 -31q-223 0 -356 143t-148 382h-217v-494h-118v1106h118v-494h215q15 242 149 383.5t356 141.5q163 0 280.5 -74.5t176.5 -205t59 -302.5q0 -266 -136.5 -426t-378.5 -160zM593 555q0 -218 99.5 -344.5t285.5 -126.5q194 0 293.5 126t99.5 345t-100 343t-291 124
q-184 0 -285.5 -123t-101.5 -344z" />
    <glyph glyph-name="uni044F" unicode="&#x44f;" horiz-adv-x="1111" 
d="M848 0v432h-280q-20 0 -56 2l-296 -434h-134l304 451q-118 24 -191.5 103.5t-73.5 210.5q0 128 70.5 212.5t178.5 112.5q63 16 182 16h414l2 -1106h-120zM245 767q0 -86 46 -139.5t124 -73.5q58 -14 152 -14h281v458h-281q-112 0 -168 -17q-63 -19 -108.5 -72.5
t-45.5 -141.5z" />
    <glyph glyph-name="uni0450" unicode="&#x450;" horiz-adv-x="1185" 
d="M599 -31q-238 0 -377.5 157.5t-139.5 424.5q0 271 138.5 428.5t376.5 157.5q242 0 376 -163.5t130 -454.5h-894q8 -208 108.5 -321.5t279.5 -113.5q127 0 223.5 59t152.5 172l106 -47q-67 -142 -193 -220.5t-287 -78.5zM211 626h765q-18 195 -114 297t-263 102
q-171 0 -271 -103.5t-117 -295.5zM450 1582h109l111 -297h-110z" />
    <glyph glyph-name="uni0451" unicode="&#x451;" horiz-adv-x="1185" 
d="M599 -31q-238 0 -377.5 157.5t-139.5 424.5q0 271 138.5 428.5t376.5 157.5q242 0 376 -163.5t130 -454.5h-894q8 -208 108.5 -321.5t279.5 -113.5q127 0 223.5 59t152.5 172l106 -47q-67 -142 -193 -220.5t-287 -78.5zM211 626h765q-18 195 -114 297t-263 102
q-171 0 -271 -103.5t-117 -295.5zM335 1336v144h143v-144h-143zM715 1336v144h143v-144h-143z" />
    <glyph glyph-name="uni0452" unicode="&#x452;" 
d="M946 -384q-75 -13 -152 9v103q94 -14 126.5 16t32.5 139v692q0 214 -85.5 328.5t-256.5 114.5q-174 0 -261.5 -114.5t-87.5 -306.5v-597h-119v1222h-137v107h137v146h108v-146h258v-107h-258v-284q60 97 157.5 145.5t218.5 48.5q111 0 197.5 -41.5t140 -114t80.5 -166.5
t27 -205v-798q0 -168 -126 -191z" />
    <glyph glyph-name="uni0453" unicode="&#x453;" horiz-adv-x="942" 
d="M143 0v1106h748v-115h-630v-991h-118zM385 1285l111 297h109l-110 -297h-110z" />
    <glyph glyph-name="uni0454" unicode="&#x454;" horiz-adv-x="1119" 
d="M593 -31q-239 0 -375 158t-136 426q0 267 134.5 425.5t372.5 158.5q166 0 288.5 -77.5t171.5 -212.5l-115 -42q-42 103 -132 160t-208 57q-177 0 -274 -111.5t-109 -303.5h538v-107h-538q14 -195 111 -305.5t273 -110.5q117 0 204 54.5t133 157.5l117 -40
q-65 -141 -181 -214t-275 -73z" />
    <glyph glyph-name="uni0455" unicode="&#x455;" horiz-adv-x="1063" 
d="M552 -29q-192 0 -316.5 81t-153.5 226l121 20q26 -99 121 -157t233 -58t218.5 58.5t80.5 159.5q0 44 -11.5 71.5t-51.5 53.5t-102.5 47.5t-177.5 52.5q-231 62 -314 125.5t-83 177.5q0 137 114.5 222.5t299.5 85.5t310.5 -89.5t139.5 -231.5l-121 -22q-18 106 -107.5 168
t-225.5 63q-128 2 -208.5 -50.5t-80.5 -138.5q0 -73 67.5 -116t262.5 -92q238 -61 325.5 -130.5t87.5 -197.5q0 -154 -114 -241.5t-314 -87.5z" />
    <glyph glyph-name="uni0456" unicode="&#x456;" horiz-adv-x="445" 
d="M164 1329v151h118v-151h-118zM164 0v1106h118v-1106h-118z" />
    <glyph glyph-name="uni0457" unicode="&#x457;" horiz-adv-x="445" 
d="M164 0v1106h118v-1106h-118zM-39 1336v144h143v-144h-143zM341 1336v144h143v-144h-143z" />
    <glyph glyph-name="uni0458" unicode="&#x458;" horiz-adv-x="486" 
d="M-20 -492v117h66q74 0 118 40t44 128v1313h119v-1327q0 -140 -62.5 -205.5t-196.5 -65.5h-88zM208 1329v151h119v-151h-119z" />
    <glyph glyph-name="uni0459" unicode="&#x459;" horiz-adv-x="1701" 
d="M41 106q23 -4 42 -4.5t33.5 4t26 11.5t20 19.5t15 25t12 32t9 37t7.5 42.5q41 226 78 833h673v-432h215q110 0 169 -11q57 -10 105 -32t88 -59.5t63 -96.5t23 -135q0 -139 -69.5 -220t-179.5 -106q-66 -14 -182 -14h-349l-2 991h-440q-40 -571 -86 -795q-9 -44 -18 -74
t-23 -57t-33.5 -42t-47 -24t-64 -8.5t-85.5 9.5v106zM957 108h217q118 0 169 13q153 42 153 220q0 177 -169 213q-60 12 -153 12h-217v-458z" />
    <glyph glyph-name="uni045A" unicode="&#x45a;" horiz-adv-x="1626" 
d="M143 0v1106h118v-432h501v432h120v-432h215q110 0 169 -11q57 -10 104.5 -32t88 -59.5t63 -96.5t22.5 -135q0 -139 -69.5 -220t-179.5 -106q-66 -14 -182 -14h-349l-2 566h-501v-566h-118zM882 108h216q119 0 170 13q152 42 152 220q0 177 -169 213q-60 12 -153 12h-216
v-458z" />
    <glyph glyph-name="uni045B" unicode="&#x45b;" 
d="M953 575q0 214 -85.5 328.5t-256.5 114.5q-174 0 -261.5 -114.5t-87.5 -306.5v-597h-119v1222h-137v107h137v146h108v-146h258v-107h-258v-282q60 96 157.5 144t218.5 48q111 0 197.5 -41.5t140 -114t80.5 -166.5t27 -205v-605h-119v575z" />
    <glyph glyph-name="uni045C" unicode="&#x45c;" horiz-adv-x="987" 
d="M143 0v1106h119v-533l523 533h165l-548 -553l626 -553h-183l-583 532v-532h-119zM414 1285l110 297h110l-111 -297h-109z" />
    <glyph glyph-name="uni045D" unicode="&#x45d;" horiz-adv-x="1138" 
d="M995 1106v-1106h-115v908l-633 -908h-104v1106h116v-904l633 904h103zM479 1582h110l110 -297h-109z" />
    <glyph glyph-name="uni045E" unicode="&#x45e;" horiz-adv-x="1057" 
d="M305 -492l182 492l-449 1106h126l381 -949l347 949h124l-588 -1598h-123zM329 1488h102q0 -60 43.5 -103.5t103.5 -43.5q61 0 103.5 43.5t42.5 103.5h102q0 -103 -72.5 -176t-175.5 -73t-176 73t-73 176z" />
    <glyph glyph-name="uni045F" unicode="&#x45f;" horiz-adv-x="1138" 
d="M536 -246v246h-393v1106h118v-991h617v991h117v-1106h-342v-246h-117z" />
    <glyph glyph-name="uni0490" unicode="&#x490;" horiz-adv-x="1095" 
d="M143 0v1475h814v177h118v-292h-814v-1360h-118z" />
    <glyph glyph-name="uni0491" unicode="&#x491;" horiz-adv-x="942" 
d="M143 0v1106h630v177h118v-292h-630v-991h-118z" />
    <glyph glyph-name="uni04AE" unicode="&#x4ae;" horiz-adv-x="1100" 
d="M492 0v623l-492 852h136l415 -717l414 717h136l-491 -852v-623h-118z" />
    <glyph glyph-name="uni04AF" unicode="&#x4af;" horiz-adv-x="1009" 
d="M442 -369v369l-401 1106h123l341 -945l342 945h122l-402 -1106v-369h-125z" />
    <glyph glyph-name="uni04BA" unicode="&#x4ba;" horiz-adv-x="1304" 
d="M262 1475v-613q154 88 369 88q141 0 245 -40t165.5 -114.5t90.5 -171t29 -218.5v-406h-119v360q0 232 -98.5 351.5t-314.5 119.5q-114 0 -209 -29.5t-158 -75.5v-726h-119v1475h119z" />
    <glyph glyph-name="uni04BB" unicode="&#x4bb;" horiz-adv-x="1126" 
d="M296 681q142 72 318 72q167 0 273 -74.5t138 -213.5q19 -86 19 -229v-236h-118v236q0 93 -12 162q-43 250 -321 250q-84 0 -163 -21.5t-134 -59.5v-567h-119v1106h119v-425z" />
    <glyph glyph-name="uni04E8" unicode="&#x4e8;" horiz-adv-x="1504" 
d="M732 -31q-162 0 -290 56.5t-211 158.5t-126.5 242.5t-43.5 310.5t43.5 310.5t126.5 242.5t211 158.5t290 56.5q215 0 368 -98.5t227.5 -270t74.5 -399.5t-74.5 -399.5t-227.5 -270t-368 -98.5zM188 678q12 -271 152.5 -432t391.5 -161q168 0 288.5 75.5t183 207
t71.5 310.5h-1087zM189 797h1086q-14 272 -153.5 432.5t-389.5 160.5q-168 0 -288 -75.5t-182.5 -207t-72.5 -310.5z" />
    <glyph glyph-name="uni04E9" unicode="&#x4e9;" horiz-adv-x="1193" 
d="M597 -31q-242 0 -378.5 161t-136.5 425t138 423t377 159q243 0 379 -160t136 -422q0 -266 -136.5 -426t-378.5 -160zM210 607h774q-11 195 -109.5 305t-277.5 110q-180 0 -278 -111.5t-109 -303.5zM210 500q12 -194 111.5 -305t275.5 -111q178 0 276.5 111.5t110.5 304.5
h-774z" />
    <glyph glyph-name="Wgrave" unicode="&#x1e80;" horiz-adv-x="1889" 
d="M461 0l-423 1475h122l361 -1268l361 1268h124l361 -1268l360 1268h124l-424 -1475h-120l-363 1264l-362 -1264h-121zM771 1951h110l110 -297h-109z" />
    <glyph glyph-name="wgrave" unicode="&#x1e81;" horiz-adv-x="1547" 
d="M379 0l-338 1106h121l277 -908l278 908h113l279 -908l279 908h118l-338 -1106h-110l-284 921l-285 -921h-110zM600 1582h110l110 -297h-109z" />
    <glyph glyph-name="Wacute" unicode="&#x1e82;" horiz-adv-x="1889" 
d="M461 0l-423 1475h122l361 -1268l361 1268h124l361 -1268l360 1268h124l-424 -1475h-120l-363 1264l-362 -1264h-121zM898 1654l111 297h109l-110 -297h-110z" />
    <glyph glyph-name="wacute" unicode="&#x1e83;" horiz-adv-x="1547" 
d="M379 0l-338 1106h121l277 -908l278 908h113l279 -908l279 908h118l-338 -1106h-110l-284 921l-285 -921h-110zM727 1285l111 297h109l-110 -297h-110z" />
    <glyph glyph-name="Wdieresis" unicode="&#x1e84;" horiz-adv-x="1889" 
d="M461 0l-423 1475h122l361 -1268l361 1268h124l361 -1268l360 1268h124l-424 -1475h-120l-363 1264l-362 -1264h-121zM684 1705v143h143v-143h-143zM1064 1705v143h143v-143h-143z" />
    <glyph glyph-name="wdieresis" unicode="&#x1e85;" horiz-adv-x="1547" 
d="M379 0l-338 1106h121l277 -908l278 908h113l279 -908l279 908h118l-338 -1106h-110l-284 921l-285 -921h-110zM512 1336v144h143v-144h-143zM892 1336v144h143v-144h-143z" />
    <glyph glyph-name="uni1E9E" unicode="&#x1e9e;" horiz-adv-x="1420" 
d="M831 -31q-89 0 -189 31v117q92 -27 185 -27q153 0 251.5 85.5t98.5 238.5q0 143 -108.5 228.5t-303.5 91.5l-8 95l266 463q-146 94 -317 94q-173 0 -279 -81.5t-136 -215.5q-23 -107 -23 -269v-820h-125v899q0 139 24 235q26 104 82.5 179.5t132.5 115.5t156.5 58
t172.5 18q238 0 471 -166l-283 -504q74 -8 143 -38t127 -80.5t93 -129.5t35 -174q0 -208 -124 -326t-342 -118z" />
    <glyph glyph-name="uni1EA0" unicode="&#x1ea0;" horiz-adv-x="1272" 
d="M41 0l522 1475h147l522 -1475h-125l-132 371h-678l-131 -371h-125zM336 482h600l-301 847zM562 -391v150h149v-150h-149z" />
    <glyph glyph-name="uni1EA1" unicode="&#x1ea1;" horiz-adv-x="1124" 
d="M463 -31q-182 0 -281.5 93.5t-99.5 232.5q0 132 79.5 209.5t211.5 108.5q132 29 511 76q0 172 -74 253t-244 81q-258 0 -321 -232l-121 33q38 151 152.5 232t293.5 81q151 0 256 -60t146 -167q29 -74 29 -221v-689h-107v193q-64 -108 -176 -166t-255 -58zM203 294
q0 -40 14 -76.5t43.5 -69t83.5 -51.5t125 -19q167 0 273.5 88t128.5 238q13 72 13 177q-345 -36 -471 -68q-210 -56 -210 -219zM473 -391v150h149v-150h-149z" />
    <glyph glyph-name="uni1EA2" unicode="&#x1ea2;" horiz-adv-x="1272" 
d="M41 0l522 1475h147l522 -1475h-125l-132 371h-678l-131 -371h-125zM336 482h600l-301 847zM483 1932q37 40 86.5 58t101.5 2.5t86 -66.5q34 -56 26.5 -110.5t-43.5 -100t-90 -69.5l-52 60q63 31 86 78t-3 89q-29 41 -71.5 36.5t-82.5 -41.5z" />
    <glyph glyph-name="uni1EA3" unicode="&#x1ea3;" horiz-adv-x="1124" 
d="M463 -31q-182 0 -281.5 93.5t-99.5 232.5q0 132 79.5 209.5t211.5 108.5q132 29 511 76q0 172 -74 253t-244 81q-258 0 -321 -232l-121 33q38 151 152.5 232t293.5 81q151 0 256 -60t146 -167q29 -74 29 -221v-689h-107v193q-64 -108 -176 -166t-255 -58zM203 294
q0 -40 14 -76.5t43.5 -69t83.5 -51.5t125 -19q167 0 273.5 88t128.5 238q13 72 13 177q-345 -36 -471 -68q-210 -56 -210 -219zM423 1565q37 40 86 58t101 2.5t86 -66.5q34 -56 27 -111t-43.5 -100.5t-89.5 -69.5l-52 60q63 31 86 78t-3 89q-29 41 -71.5 36.5t-82.5 -41.5z
" />
    <glyph glyph-name="uni1EA4" unicode="&#x1ea4;" horiz-adv-x="1272" 
d="M41 0l522 1475h147l522 -1475h-125l-132 371h-678l-131 -371h-125zM336 482h600l-301 847zM357 1654l220 261h116l220 -261h-128l-150 176l-150 -176h-128zM883 1869l110 297h110l-111 -297h-109z" />
    <glyph glyph-name="uni1EA5" unicode="&#x1ea5;" horiz-adv-x="1124" 
d="M463 -31q-182 0 -281.5 93.5t-99.5 232.5q0 132 79.5 209.5t211.5 108.5q132 29 511 76q0 172 -74 253t-244 81q-258 0 -321 -232l-121 33q38 151 152.5 232t293.5 81q151 0 256 -60t146 -167q29 -74 29 -221v-689h-107v193q-64 -108 -176 -166t-255 -58zM203 294
q0 -40 14 -76.5t43.5 -69t83.5 -51.5t125 -19q167 0 273.5 88t128.5 238q13 72 13 177q-345 -36 -471 -68q-210 -56 -210 -219zM307 1285l219 261h117l220 -261h-128l-150 176l-150 -176h-128zM833 1500l110 297h110l-111 -297h-109z" />
    <glyph glyph-name="uni1EA6" unicode="&#x1ea6;" horiz-adv-x="1272" 
d="M41 0l522 1475h147l522 -1475h-125l-132 371h-678l-131 -371h-125zM336 482h600l-301 847zM357 1654l220 261h116l220 -261h-128l-150 176l-150 -176h-128zM764 2166h109l111 -297h-110z" />
    <glyph glyph-name="uni1EA7" unicode="&#x1ea7;" horiz-adv-x="1124" 
d="M463 -31q-182 0 -281.5 93.5t-99.5 232.5q0 132 79.5 209.5t211.5 108.5q132 29 511 76q0 172 -74 253t-244 81q-258 0 -321 -232l-121 33q38 151 152.5 232t293.5 81q151 0 256 -60t146 -167q29 -74 29 -221v-689h-107v193q-64 -108 -176 -166t-255 -58zM203 294
q0 -40 14 -76.5t43.5 -69t83.5 -51.5t125 -19q167 0 273.5 88t128.5 238q13 72 13 177q-345 -36 -471 -68q-210 -56 -210 -219zM316 1285l220 261h116l220 -261h-128l-150 176l-150 -176h-128zM723 1797h110l110 -297h-109z" />
    <glyph glyph-name="uni1EA8" unicode="&#x1ea8;" horiz-adv-x="1272" 
d="M41 0l522 1475h147l522 -1475h-125l-132 371h-678l-131 -371h-125zM336 482h600l-301 847zM358 1654l220 261h116l220 -261h-128l-150 176l-150 -176h-128zM879 1932q37 40 86 58t101 2.5t86 -66.5q34 -56 27 -110.5t-43.5 -100t-89.5 -69.5l-53 60q63 31 86 78t-3 89
q-29 41 -71 36.5t-82 -41.5z" />
    <glyph glyph-name="uni1EA9" unicode="&#x1ea9;" horiz-adv-x="1124" 
d="M463 -31q-182 0 -281.5 93.5t-99.5 232.5q0 132 79.5 209.5t211.5 108.5q132 29 511 76q0 172 -74 253t-244 81q-258 0 -321 -232l-121 33q38 151 152.5 232t293.5 81q151 0 256 -60t146 -167q29 -74 29 -221v-689h-107v193q-64 -108 -176 -166t-255 -58zM203 294
q0 -40 14 -76.5t43.5 -69t83.5 -51.5t125 -19q167 0 273.5 88t128.5 238q13 72 13 177q-345 -36 -471 -68q-210 -56 -210 -219zM286 1285l219 261h117l220 -261h-128l-151 176l-149 -176h-128zM806 1564q37 40 86 58t101 2.5t86 -66.5q34 -56 27 -111t-43.5 -100.5
t-89.5 -69.5l-52 60q63 31 86 78t-3 89q-29 41 -71.5 36.5t-82.5 -41.5z" />
    <glyph glyph-name="uni1EAA" unicode="&#x1eaa;" horiz-adv-x="1272" 
d="M41 0l522 1475h147l522 -1475h-125l-132 371h-678l-131 -371h-125zM336 482h600l-301 847zM349 1979q-21 82 20 139t120 57q48 0 105 -27t108 -54t84 -27q36 0 51 29.5t3 68.5h90q21 -81 -20 -140t-123 -59q-47 0 -103 27t-107 54t-84 27q-39 0 -52.5 -29.5t-1.5 -65.5
h-90zM355 1654l219 261h117l220 -261h-128l-150 176l-150 -176h-128z" />
    <glyph glyph-name="uni1EAB" unicode="&#x1eab;" horiz-adv-x="1124" 
d="M463 -31q-182 0 -281.5 93.5t-99.5 232.5q0 132 79.5 209.5t211.5 108.5q132 29 511 76q0 172 -74 253t-244 81q-258 0 -321 -232l-121 33q38 151 152.5 232t293.5 81q151 0 256 -60t146 -167q29 -74 29 -221v-689h-107v193q-64 -108 -176 -166t-255 -58zM203 294
q0 -40 14 -76.5t43.5 -69t83.5 -51.5t125 -19q167 0 273.5 88t128.5 238q13 72 13 177q-345 -36 -471 -68q-210 -56 -210 -219zM295 1611q-21 82 19.5 138.5t120.5 56.5q48 0 105 -27t108 -53.5t84 -26.5q36 0 50.5 29t2.5 68h91q21 -81 -20 -140t-123 -59q-47 0 -103.5 27
t-107.5 54t-84 27q-39 0 -52 -29t-1 -65h-90zM301 1285l219 261h117l220 -261h-128l-150 176l-150 -176h-128z" />
    <glyph glyph-name="uni1EAC" unicode="&#x1eac;" horiz-adv-x="1272" 
d="M41 0l522 1475h147l522 -1475h-125l-132 371h-678l-131 -371h-125zM336 482h600l-301 847zM358 1654l220 261h116l220 -261h-128l-150 176l-150 -176h-128zM562 -391v150h149v-150h-149z" />
    <glyph glyph-name="uni1EAD" unicode="&#x1ead;" horiz-adv-x="1124" 
d="M463 -31q-182 0 -281.5 93.5t-99.5 232.5q0 132 79.5 209.5t211.5 108.5q132 29 511 76q0 172 -74 253t-244 81q-258 0 -321 -232l-121 33q38 151 152.5 232t293.5 81q151 0 256 -60t146 -167q29 -74 29 -221v-689h-107v193q-64 -108 -176 -166t-255 -58zM203 294
q0 -40 14 -76.5t43.5 -69t83.5 -51.5t125 -19q167 0 273.5 88t128.5 238q13 72 13 177q-345 -36 -471 -68q-210 -56 -210 -219zM300 1285l219 261h117l220 -261h-128l-150 176l-150 -176h-128zM473 -391v150h149v-150h-149z" />
    <glyph glyph-name="uni1EAE" unicode="&#x1eae;" horiz-adv-x="1272" 
d="M41 0l522 1475h147l522 -1475h-125l-132 371h-678l-131 -371h-125zM336 482h600l-301 847zM387 1857h102q0 -60 43.5 -103.5t103.5 -43.5q61 0 103.5 43.5t42.5 103.5h103q0 -103 -73 -176t-176 -73t-176 73t-73 176zM578 1900l110 296h110l-111 -296h-109z" />
    <glyph glyph-name="uni1EAF" unicode="&#x1eaf;" horiz-adv-x="1124" 
d="M463 -31q-182 0 -281.5 93.5t-99.5 232.5q0 132 79.5 209.5t211.5 108.5q132 29 511 76q0 172 -74 253t-244 81q-258 0 -321 -232l-121 33q38 151 152.5 232t293.5 81q151 0 256 -60t146 -167q29 -74 29 -221v-689h-107v193q-64 -108 -176 -166t-255 -58zM203 294
q0 -40 14 -76.5t43.5 -69t83.5 -51.5t125 -19q167 0 273.5 88t128.5 238q13 72 13 177q-345 -36 -471 -68q-210 -56 -210 -219zM329 1488h102q0 -60 43.5 -103.5t103.5 -43.5q61 0 103.5 43.5t42.5 103.5h102q0 -103 -72.5 -176t-175.5 -73t-176 73t-73 176zM518 1531
l111 297h109l-110 -297h-110z" />
    <glyph glyph-name="uni1EB0" unicode="&#x1eb0;" horiz-adv-x="1272" 
d="M41 0l522 1475h147l522 -1475h-125l-132 371h-678l-131 -371h-125zM336 482h600l-301 847zM387 1857h102q0 -60 43 -103.5t104 -43.5q60 0 103 43.5t43 103.5h103q0 -103 -73 -176t-176 -73t-176 73t-73 176zM475 2196h110l110 -296h-109z" />
    <glyph glyph-name="uni1EB1" unicode="&#x1eb1;" horiz-adv-x="1124" 
d="M463 -31q-182 0 -281.5 93.5t-99.5 232.5q0 132 79.5 209.5t211.5 108.5q132 29 511 76q0 172 -74 253t-244 81q-258 0 -321 -232l-121 33q38 151 152.5 232t293.5 81q151 0 256 -60t146 -167q29 -74 29 -221v-689h-107v193q-64 -108 -176 -166t-255 -58zM203 294
q0 -40 14 -76.5t43.5 -69t83.5 -51.5t125 -19q167 0 273.5 88t128.5 238q13 72 13 177q-345 -36 -471 -68q-210 -56 -210 -219zM336 1488h102q0 -60 43 -103.5t104 -43.5q60 0 103 43.5t43 103.5h103q0 -103 -73 -176t-176 -73t-176 73t-73 176zM424 1828h110l110 -297h-109
z" />
    <glyph glyph-name="uni1EB2" unicode="&#x1eb2;" horiz-adv-x="1272" 
d="M41 0l522 1475h147l522 -1475h-125l-132 371h-678l-131 -371h-125zM336 482h600l-301 847zM387 1857h102q0 -60 43.5 -103.5t103.5 -43.5q61 0 103.5 43.5t42.5 103.5h103q0 -103 -73 -176t-176 -73t-176 73t-73 176zM457 2165q37 40 86 58t101 2.5t86 -66.5
q34 -56 27 -111t-43.5 -100.5t-89.5 -69.5l-53 60q63 31 86 78t-3 89q-29 41 -71 36.5t-82 -41.5z" />
    <glyph glyph-name="uni1EB3" unicode="&#x1eb3;" horiz-adv-x="1124" 
d="M463 -31q-182 0 -281.5 93.5t-99.5 232.5q0 132 79.5 209.5t211.5 108.5q132 29 511 76q0 172 -74 253t-244 81q-258 0 -321 -232l-121 33q38 151 152.5 232t293.5 81q151 0 256 -60t146 -167q29 -74 29 -221v-689h-107v193q-64 -108 -176 -166t-255 -58zM203 294
q0 -40 14 -76.5t43.5 -69t83.5 -51.5t125 -19q167 0 273.5 88t128.5 238q13 72 13 177q-345 -36 -471 -68q-210 -56 -210 -219zM346 1488h103q0 -60 43 -103.5t103 -43.5q61 0 103.5 43.5t42.5 103.5h103q0 -103 -73 -176t-176 -73t-176 73t-73 176zM416 1796q37 40 86 58
t101 2.5t86 -66.5q34 -56 27 -111t-43.5 -100.5t-89.5 -69.5l-53 61q63 31 86 78t-3 89q-29 41 -71 36.5t-82 -41.5z" />
    <glyph glyph-name="uni1EB4" unicode="&#x1eb4;" horiz-adv-x="1272" 
d="M41 0l522 1475h147l522 -1475h-125l-132 371h-678l-131 -371h-125zM333 1925q-21 82 20 139t120 57q48 0 105 -27t108 -54t84 -27q36 0 50.5 29t2.5 68h90q21 -81 -19.5 -139.5t-122.5 -58.5q-47 0 -103.5 27t-107.5 53.5t-84 26.5q-39 0 -52 -29t-1 -65h-90zM336 482
h600l-301 847zM373 1857h102q0 -60 43.5 -103.5t103.5 -43.5q61 0 103.5 43.5t42.5 103.5h102q0 -103 -72.5 -176t-175.5 -73t-176 73t-73 176z" />
    <glyph glyph-name="uni1EB5" unicode="&#x1eb5;" horiz-adv-x="1124" 
d="M463 -31q-182 0 -281.5 93.5t-99.5 232.5q0 132 79.5 209.5t211.5 108.5q132 29 511 76q0 172 -74 253t-244 81q-258 0 -321 -232l-121 33q38 151 152.5 232t293.5 81q151 0 256 -60t146 -167q29 -74 29 -221v-689h-107v193q-64 -108 -176 -166t-255 -58zM203 294
q0 -40 14 -76.5t43.5 -69t83.5 -51.5t125 -19q167 0 273.5 88t128.5 238q13 72 13 177q-345 -36 -471 -68q-210 -56 -210 -219zM262 1556q-21 82 20 139t120 57q48 0 105 -27t108 -53.5t84 -26.5q36 0 51 29t3 68h90q21 -81 -20 -140t-123 -59q-47 0 -103 27t-107 54t-84 27
q-39 0 -52.5 -29.5t-1.5 -65.5h-90zM301 1488h102q0 -60 43.5 -103.5t103.5 -43.5q61 0 103.5 43.5t42.5 103.5h103q0 -103 -73 -176t-176 -73t-176 73t-73 176z" />
    <glyph glyph-name="uni1EB6" unicode="&#x1eb6;" horiz-adv-x="1272" 
d="M41 0l522 1475h147l522 -1475h-125l-132 371h-678l-131 -371h-125zM336 482h600l-301 847zM388 1857h102q0 -60 43.5 -103.5t103.5 -43.5q61 0 103.5 43.5t42.5 103.5h103q0 -103 -73 -176t-176 -73t-176 73t-73 176zM562 -391v150h149v-150h-149z" />
    <glyph glyph-name="uni1EB7" unicode="&#x1eb7;" horiz-adv-x="1124" 
d="M463 -31q-182 0 -281.5 93.5t-99.5 232.5q0 132 79.5 209.5t211.5 108.5q132 29 511 76q0 172 -74 253t-244 81q-258 0 -321 -232l-121 33q38 151 152.5 232t293.5 81q151 0 256 -60t146 -167q29 -74 29 -221v-689h-107v193q-64 -108 -176 -166t-255 -58zM203 294
q0 -40 14 -76.5t43.5 -69t83.5 -51.5t125 -19q167 0 273.5 88t128.5 238q13 72 13 177q-345 -36 -471 -68q-210 -56 -210 -219zM330 1488h102q0 -60 43.5 -103.5t103.5 -43.5q61 0 103.5 43.5t42.5 103.5h102q0 -103 -72.5 -176t-175.5 -73t-176 73t-73 176zM473 -391v150
h149v-150h-149z" />
    <glyph glyph-name="uni1EB8" unicode="&#x1eb8;" horiz-adv-x="1228" 
d="M524 -391v150h149v-150h-149zM143 0v1475h912v-115h-794v-560h671v-115h-671v-570h794v-115h-912z" />
    <glyph glyph-name="uni1EB9" unicode="&#x1eb9;" horiz-adv-x="1185" 
d="M599 -31q-238 0 -377.5 157.5t-139.5 424.5q0 271 138.5 428.5t376.5 157.5q242 0 376 -163.5t130 -454.5h-894q8 -208 108.5 -321.5t279.5 -113.5q127 0 223.5 59t152.5 172l106 -47q-67 -142 -193 -220.5t-287 -78.5zM211 626h765q-18 195 -114 297t-263 102
q-171 0 -271 -103.5t-117 -295.5zM525 -391v150h149v-150h-149z" />
    <glyph glyph-name="uni1EBA" unicode="&#x1eba;" horiz-adv-x="1157" 
d="M143 0v1475h912v-115h-794v-560h671v-115h-671v-570h794v-115h-912zM452 1932q37 40 86 58t101 2.5t86 -66.5q34 -56 26.5 -110.5t-43.5 -100t-90 -69.5l-52 60q63 31 86 78t-3 89q-29 41 -71 36.5t-82 -41.5z" />
    <glyph glyph-name="uni1EBB" unicode="&#x1ebb;" horiz-adv-x="1228" 
d="M454 1565q37 40 86 58t101 2.5t86 -66.5q34 -56 27 -111t-43.5 -100.5t-89.5 -69.5l-53 60q63 31 86 78t-3 89q-29 41 -71 36.5t-82 -41.5zM82 551q0 271 138.5 428.5t376.5 157.5q242 0 376 -163.5t130 -454.5h-894q8 -208 108.5 -321.5t279.5 -113.5q127 0 223.5 59
t152.5 172l106 -47q-67 -142 -193 -220.5t-287 -78.5q-238 0 -377.5 157.5t-139.5 424.5zM211 626h765q-18 195 -114 297t-263 102q-171 0 -271 -103.5t-117 -295.5z" />
    <glyph glyph-name="uni1EBC" unicode="&#x1ebc;" horiz-adv-x="1157" 
d="M143 0v1475h912v-115h-794v-560h671v-115h-671v-570h794v-115h-912zM305 1668q-21 82 20 139t120 57q48 0 105 -27t108 -54t84 -27q36 0 51 29t3 68h90q21 -81 -20 -139.5t-123 -58.5q-47 0 -103 26.5t-107 53.5t-84 27q-39 0 -52.5 -29t-1.5 -65h-90z" />
    <glyph glyph-name="uni1EBD" unicode="&#x1ebd;" horiz-adv-x="1185" 
d="M599 -31q-238 0 -377.5 157.5t-139.5 424.5q0 271 138.5 428.5t376.5 157.5q242 0 376 -163.5t130 -454.5h-894q8 -208 108.5 -321.5t279.5 -113.5q127 0 223.5 59t152.5 172l106 -47q-67 -142 -193 -220.5t-287 -78.5zM211 626h765q-18 195 -114 297t-263 102
q-171 0 -271 -103.5t-117 -295.5zM309 1299q-21 82 20 139t121 57q48 0 104.5 -26.5t107.5 -53.5t84 -27q36 0 51 29t3 68h90q21 -81 -19.5 -140t-122.5 -59q-47 0 -103.5 27t-107.5 54t-84 27q-39 0 -52.5 -29.5t-1.5 -65.5h-90z" />
    <glyph glyph-name="uni1EBE" unicode="&#x1ebe;" horiz-adv-x="1157" 
d="M143 0v1475h912v-115h-794v-560h671v-115h-671v-570h794v-115h-912zM309 1654l219 261h117l220 -261h-128l-150 176l-150 -176h-128zM835 1869l110 297h110l-111 -297h-109z" />
    <glyph glyph-name="uni1EBF" unicode="&#x1ebf;" horiz-adv-x="1185" 
d="M599 -31q-238 0 -377.5 157.5t-139.5 424.5q0 271 138.5 428.5t376.5 157.5q242 0 376 -163.5t130 -454.5h-894q8 -208 108.5 -321.5t279.5 -113.5q127 0 223.5 59t152.5 172l106 -47q-67 -142 -193 -220.5t-287 -78.5zM211 626h765q-18 195 -114 297t-263 102
q-171 0 -271 -103.5t-117 -295.5zM340 1285l219 261h117l220 -261h-128l-151 176l-149 -176h-128zM865 1500l111 297h109l-110 -297h-110z" />
    <glyph glyph-name="uni1EC0" unicode="&#x1ec0;" horiz-adv-x="1157" 
d="M143 0v1475h912v-115h-794v-560h671v-115h-671v-570h794v-115h-912zM356 1654l219 261h117l220 -261h-128l-150 176l-150 -176h-128zM763 2166h109l111 -297h-110z" />
    <glyph glyph-name="uni1EC1" unicode="&#x1ec1;" horiz-adv-x="1185" 
d="M599 -31q-238 0 -377.5 157.5t-139.5 424.5q0 271 138.5 428.5t376.5 157.5q242 0 376 -163.5t130 -454.5h-894q8 -208 108.5 -321.5t279.5 -113.5q127 0 223.5 59t152.5 172l106 -47q-67 -142 -193 -220.5t-287 -78.5zM211 626h765q-18 195 -114 297t-263 102
q-171 0 -271 -103.5t-117 -295.5zM317 1285l220 261h116l220 -261h-128l-150 176l-150 -176h-128zM724 1797h110l110 -297h-109z" />
    <glyph glyph-name="uni1EC2" unicode="&#x1ec2;" horiz-adv-x="1228" 
d="M329 1654l219 261h117l220 -261h-128l-151 176l-149 -176h-128zM143 0v1475h912v-115h-794v-560h671v-115h-671v-570h794v-115h-912zM848 1932q37 40 86 58t101 2.5t86 -66.5q34 -56 27 -110.5t-43.5 -100t-89.5 -69.5l-52 60q63 31 86 78t-3 89q-29 41 -71.5 36.5
t-82.5 -41.5z" />
    <glyph glyph-name="uni1EC3" unicode="&#x1ec3;" horiz-adv-x="1185" 
d="M599 -31q-238 0 -377.5 157.5t-139.5 424.5q0 271 138.5 428.5t376.5 157.5q242 0 376 -163.5t130 -454.5h-894q8 -208 108.5 -321.5t279.5 -113.5q127 0 223.5 59t152.5 172l106 -47q-67 -142 -193 -220.5t-287 -78.5zM211 626h765q-18 195 -114 297t-263 102
q-171 0 -271 -103.5t-117 -295.5zM331 1285l219 261h117l220 -261h-128l-151 176l-149 -176h-128zM850 1564q37 40 86 58t101 2.5t86 -66.5q34 -56 27 -111t-43.5 -100.5t-89.5 -69.5l-52 60q63 31 86 78t-3 89q-29 41 -71.5 36.5t-82.5 -41.5z" />
    <glyph glyph-name="uni1EC4" unicode="&#x1ec4;" horiz-adv-x="1157" 
d="M143 0v1475h912v-115h-794v-560h671v-115h-671v-570h794v-115h-912zM310 1979q-21 82 20 139t121 57q48 0 105 -27t108 -54t84 -27q36 0 50.5 29.5t2.5 68.5h90q21 -81 -19.5 -140t-122.5 -59q-47 0 -103.5 27t-107.5 54t-84 27q-39 0 -52.5 -29.5t-1.5 -65.5h-90z
M316 1654l220 261h116l220 -261h-128l-150 176l-150 -176h-128z" />
    <glyph glyph-name="uni1EC5" unicode="&#x1ec5;" horiz-adv-x="1185" 
d="M599 -31q-238 0 -377.5 157.5t-139.5 424.5q0 271 138.5 428.5t376.5 157.5q242 0 376 -163.5t130 -454.5h-894q8 -208 108.5 -321.5t279.5 -113.5q127 0 223.5 59t152.5 172l106 -47q-67 -142 -193 -220.5t-287 -78.5zM211 626h765q-18 195 -114 297t-263 102
q-171 0 -271 -103.5t-117 -295.5zM319 1611q-21 82 20 138.5t121 56.5q48 0 105 -27t108 -53.5t84 -26.5q36 0 50.5 29t2.5 68h90q21 -81 -19.5 -140t-122.5 -59q-47 0 -103.5 27t-107.5 54t-84 27q-39 0 -52 -29t-1 -65h-91zM326 1285l219 261h117l220 -261h-128l-151 176
l-149 -176h-128z" />
    <glyph glyph-name="uni1EC6" unicode="&#x1ec6;" horiz-adv-x="1157" 
d="M143 0v1475h912v-115h-794v-560h671v-115h-671v-570h794v-115h-912zM310 1654l219 261h117l220 -261h-128l-150 176l-150 -176h-128zM524 -391v150h149v-150h-149z" />
    <glyph glyph-name="uni1EC7" unicode="&#x1ec7;" horiz-adv-x="1185" 
d="M599 -31q-238 0 -377.5 157.5t-139.5 424.5q0 271 138.5 428.5t376.5 157.5q242 0 376 -163.5t130 -454.5h-894q8 -208 108.5 -321.5t279.5 -113.5q127 0 223.5 59t152.5 172l106 -47q-67 -142 -193 -220.5t-287 -78.5zM211 626h765q-18 195 -114 297t-263 102
q-171 0 -271 -103.5t-117 -295.5zM318 1285l220 261h116l220 -261h-128l-150 176l-150 -176h-128zM518 -391v150h149v-150h-149z" />
    <glyph glyph-name="uni1EC8" unicode="&#x1ec8;" horiz-adv-x="445" 
d="M164 0v1475h118v-1475h-118zM60 1932q37 40 86.5 58t101.5 2.5t86 -66.5q34 -56 26.5 -110.5t-43.5 -100t-90 -69.5l-52 60q63 31 86 78t-3 89q-29 41 -71.5 36.5t-82.5 -41.5z" />
    <glyph glyph-name="uni1EC9" unicode="&#x1ec9;" horiz-adv-x="445" 
d="M164 0v1106h118v-1106h-118zM54 1565q37 40 86.5 58t101.5 2.5t86 -66.5q34 -56 26.5 -111t-44 -100.5t-89.5 -69.5l-52 60q63 31 86 78t-3 89q-29 41 -71.5 36.5t-82.5 -41.5z" />
    <glyph glyph-name="uni1ECA" unicode="&#x1eca;" horiz-adv-x="445" 
d="M164 0v1475h118v-1475h-118zM148 -391v150h149v-150h-149z" />
    <glyph glyph-name="uni1ECB" unicode="&#x1ecb;" horiz-adv-x="445" 
d="M164 1329v151h118v-151h-118zM148 -391v150h149v-150h-149zM164 0v1106h118v-1106h-118z" />
    <glyph glyph-name="uni1ECC" unicode="&#x1ecc;" horiz-adv-x="1463" 
d="M732 -31q-162 0 -290 56.5t-211 158.5t-126.5 242.5t-43.5 310.5t43.5 310.5t126.5 242.5t211 158.5t290 56.5q215 0 368 -98.5t227.5 -270t74.5 -399.5t-74.5 -399.5t-227.5 -270t-368 -98.5zM187 737q-1 -145 33.5 -264t101.5 -206t172 -134.5t238 -47.5
q177 0 301 83.5t183.5 228.5t59.5 340t-59.5 340t-183.5 229t-301 84q-133 0 -237 -47.5t-170.5 -135t-101.5 -206.5t-36 -264zM637 -391v150h148v-150h-148z" />
    <glyph glyph-name="uni1ECD" unicode="&#x1ecd;" horiz-adv-x="1193" 
d="M597 -31q-242 0 -378.5 161t-136.5 425t138 423t377 159q243 0 379 -160t136 -422q0 -266 -136.5 -426t-378.5 -160zM208 555q0 -218 100.5 -344.5t288.5 -126.5q190 0 289.5 127t99.5 344q0 218 -99.5 342.5t-289.5 124.5q-192 0 -290.5 -126.5t-98.5 -340.5zM522 -391
v150h149v-150h-149z" />
    <glyph glyph-name="uni1ECE" unicode="&#x1ece;" horiz-adv-x="1463" 
d="M732 -31q-162 0 -290 56.5t-211 158.5t-126.5 242.5t-43.5 310.5t43.5 310.5t126.5 242.5t211 158.5t290 56.5q215 0 368 -98.5t227.5 -270t74.5 -399.5t-74.5 -399.5t-227.5 -270t-368 -98.5zM187 737q-1 -145 33.5 -264t101.5 -206t172 -134.5t238 -47.5
q177 0 301 83.5t183.5 228.5t59.5 340t-59.5 340t-183.5 229t-301 84q-133 0 -237 -47.5t-170.5 -135t-101.5 -206.5t-36 -264zM608 1932q37 40 86.5 58t101.5 2.5t86 -66.5q34 -56 26.5 -110.5t-43.5 -100t-90 -69.5l-52 60q63 31 86 78t-3 89q-29 41 -71.5 36.5
t-82.5 -41.5z" />
    <glyph glyph-name="uni1ECF" unicode="&#x1ecf;" horiz-adv-x="1193" 
d="M597 -31q-242 0 -378.5 161t-136.5 425t138 423t377 159q243 0 379 -160t136 -422q0 -266 -136.5 -426t-378.5 -160zM208 555q0 -218 100.5 -344.5t288.5 -126.5q190 0 289.5 127t99.5 344q0 218 -99.5 342.5t-289.5 124.5q-192 0 -290.5 -126.5t-98.5 -340.5zM454 1565
q37 40 86 58t101 2.5t86 -66.5q34 -56 27 -111t-43.5 -100.5t-89.5 -69.5l-53 60q63 31 86 78t-3 89q-29 41 -71 36.5t-82 -41.5z" />
    <glyph glyph-name="uni1ED0" unicode="&#x1ed0;" horiz-adv-x="1463" 
d="M732 -31q-162 0 -290 56.5t-211 158.5t-126.5 242.5t-43.5 310.5t43.5 310.5t126.5 242.5t211 158.5t290 56.5q215 0 368 -98.5t227.5 -270t74.5 -399.5t-74.5 -399.5t-227.5 -270t-368 -98.5zM187 737q-1 -145 33.5 -264t101.5 -206t172 -134.5t238 -47.5
q177 0 301 83.5t183.5 228.5t59.5 340t-59.5 340t-183.5 229t-301 84q-133 0 -237 -47.5t-170.5 -135t-101.5 -206.5t-36 -264zM465 1654l219 261h117l220 -261h-128l-151 176l-149 -176h-128zM990 1869l111 297h109l-110 -297h-110z" />
    <glyph glyph-name="uni1ED1" unicode="&#x1ed1;" horiz-adv-x="1193" 
d="M597 -31q-242 0 -378.5 161t-136.5 425t138 423t377 159q243 0 379 -160t136 -422q0 -266 -136.5 -426t-378.5 -160zM208 555q0 -218 100.5 -344.5t288.5 -126.5q190 0 289.5 127t99.5 344q0 218 -99.5 342.5t-289.5 124.5q-192 0 -290.5 -126.5t-98.5 -340.5zM330 1285
l219 261h117l220 -261h-128l-151 176l-149 -176h-128zM855 1500l111 297h109l-110 -297h-110z" />
    <glyph glyph-name="uni1ED2" unicode="&#x1ed2;" horiz-adv-x="1463" 
d="M732 -31q-162 0 -290 56.5t-211 158.5t-126.5 242.5t-43.5 310.5t43.5 310.5t126.5 242.5t211 158.5t290 56.5q215 0 368 -98.5t227.5 -270t74.5 -399.5t-74.5 -399.5t-227.5 -270t-368 -98.5zM187 737q-1 -145 33.5 -264t101.5 -206t172 -134.5t238 -47.5
q177 0 301 83.5t183.5 228.5t59.5 340t-59.5 340t-183.5 229t-301 84q-133 0 -237 -47.5t-170.5 -135t-101.5 -206.5t-36 -264zM455 1654l219 261h117l220 -261h-128l-151 176l-149 -176h-128zM860 2166h110l110 -297h-109z" />
    <glyph glyph-name="uni1ED3" unicode="&#x1ed3;" horiz-adv-x="1193" 
d="M597 -31q-242 0 -378.5 161t-136.5 425t138 423t377 159q243 0 379 -160t136 -422q0 -266 -136.5 -426t-378.5 -160zM208 555q0 -218 100.5 -344.5t288.5 -126.5q190 0 289.5 127t99.5 344q0 218 -99.5 342.5t-289.5 124.5q-192 0 -290.5 -126.5t-98.5 -340.5zM342 1285
l219 261h117l220 -261h-128l-150 176l-150 -176h-128zM749 1797h109l111 -297h-110z" />
    <glyph glyph-name="uni1ED4" unicode="&#x1ed4;" horiz-adv-x="1463" 
d="M732 -31q-162 0 -290 56.5t-211 158.5t-126.5 242.5t-43.5 310.5t43.5 310.5t126.5 242.5t211 158.5t290 56.5q215 0 368 -98.5t227.5 -270t74.5 -399.5t-74.5 -399.5t-227.5 -270t-368 -98.5zM187 737q-1 -145 33.5 -264t101.5 -206t172 -134.5t238 -47.5
q177 0 301 83.5t183.5 228.5t59.5 340t-59.5 340t-183.5 229t-301 84q-133 0 -237 -47.5t-170.5 -135t-101.5 -206.5t-36 -264zM484 1654l219 261h117l220 -261h-128l-150 176l-150 -176h-128zM1005 1932q37 40 86 58t101 2.5t86 -66.5q34 -56 26.5 -110.5t-43.5 -100
t-90 -69.5l-52 60q63 31 86 78t-3 89q-29 41 -71 36.5t-82 -41.5z" />
    <glyph glyph-name="uni1ED5" unicode="&#x1ed5;" horiz-adv-x="1193" 
d="M597 -31q-242 0 -378.5 161t-136.5 425t138 423t377 159q243 0 379 -160t136 -422q0 -266 -136.5 -426t-378.5 -160zM208 555q0 -218 100.5 -344.5t288.5 -126.5q190 0 289.5 127t99.5 344q0 218 -99.5 342.5t-289.5 124.5q-192 0 -290.5 -126.5t-98.5 -340.5zM317 1285
l220 261h116l220 -261h-128l-150 176l-150 -176h-128zM838 1564q37 40 86 58t101 2.5t86 -66.5q34 -56 27 -111t-43.5 -100.5t-89.5 -69.5l-53 60q63 31 86 78t-3 89q-29 41 -71 36.5t-82 -41.5z" />
    <glyph glyph-name="uni1ED6" unicode="&#x1ed6;" horiz-adv-x="1463" 
d="M732 -31q-162 0 -290 56.5t-211 158.5t-126.5 242.5t-43.5 310.5t43.5 310.5t126.5 242.5t211 158.5t290 56.5q215 0 368 -98.5t227.5 -270t74.5 -399.5t-74.5 -399.5t-227.5 -270t-368 -98.5zM187 737q-1 -145 33.5 -264t101.5 -206t172 -134.5t238 -47.5
q177 0 301 83.5t183.5 228.5t59.5 340t-59.5 340t-183.5 229t-301 84q-133 0 -237 -47.5t-170.5 -135t-101.5 -206.5t-36 -264zM441 1979q-21 82 20 139t121 57q48 0 105 -27t108 -54t84 -27q36 0 50.5 29.5t2.5 68.5h90q21 -81 -19.5 -140t-122.5 -59q-47 0 -103.5 27
t-107.5 54t-84 27q-39 0 -52.5 -29.5t-1.5 -65.5h-90zM447 1654l220 261h116l221 -261h-128l-151 176l-150 -176h-128z" />
    <glyph glyph-name="uni1ED7" unicode="&#x1ed7;" horiz-adv-x="1193" 
d="M597 -31q-242 0 -378.5 161t-136.5 425t138 423t377 159q243 0 379 -160t136 -422q0 -266 -136.5 -426t-378.5 -160zM208 555q0 -218 100.5 -344.5t288.5 -126.5q190 0 289.5 127t99.5 344q0 218 -99.5 342.5t-289.5 124.5q-192 0 -290.5 -126.5t-98.5 -340.5zM319 1611
q-21 82 20 138.5t121 56.5q48 0 105 -27t108 -53.5t84 -26.5q36 0 50.5 29t2.5 68h90q21 -81 -19.5 -140t-122.5 -59q-47 0 -103.5 27t-107.5 54t-84 27q-39 0 -52 -29t-1 -65h-91zM326 1285l219 261h117l220 -261h-128l-151 176l-149 -176h-128z" />
    <glyph glyph-name="uni1ED8" unicode="&#x1ed8;" horiz-adv-x="1463" 
d="M732 -31q-162 0 -290 56.5t-211 158.5t-126.5 242.5t-43.5 310.5t43.5 310.5t126.5 242.5t211 158.5t290 56.5q215 0 368 -98.5t227.5 -270t74.5 -399.5t-74.5 -399.5t-227.5 -270t-368 -98.5zM187 737q-1 -145 33.5 -264t101.5 -206t172 -134.5t238 -47.5
q177 0 301 83.5t183.5 228.5t59.5 340t-59.5 340t-183.5 229t-301 84q-133 0 -237 -47.5t-170.5 -135t-101.5 -206.5t-36 -264zM454 1654l219 261h117l220 -261h-128l-151 176l-149 -176h-128zM657 -391v150h149v-150h-149z" />
    <glyph glyph-name="uni1ED9" unicode="&#x1ed9;" horiz-adv-x="1193" 
d="M597 -31q-242 0 -378.5 161t-136.5 425t138 423t377 159q243 0 379 -160t136 -422q0 -266 -136.5 -426t-378.5 -160zM208 555q0 -218 100.5 -344.5t288.5 -126.5q190 0 289.5 127t99.5 344q0 218 -99.5 342.5t-289.5 124.5q-192 0 -290.5 -126.5t-98.5 -340.5zM318 1285
l220 261h116l220 -261h-128l-150 176l-150 -176h-128zM526 -391v150h149v-150h-149z" />
    <glyph glyph-name="uni1EDA" unicode="&#x1eda;" horiz-adv-x="1463" 
d="M1253 1664q27 -176 -70 -242q-27 -18 -63 -28q138 -97 210 -266.5t72 -390.5q0 -228 -74.5 -399.5t-227.5 -270t-368 -98.5q-162 0 -290 56.5t-211 158.5t-126.5 242.5t-43.5 310.5t43.5 310.5t126.5 242.5t211 158.5t290 56.5q105 0 190 -22v1q53 -15 88 -15t66 15
q51 25 64.5 69.5t6.5 110.5h106zM187 737q-1 -145 33.5 -264t101.5 -206t172 -134.5t238 -47.5q177 0 301 83.5t183.5 228.5t59.5 340t-59.5 340t-183.5 229t-301 84q-133 0 -237 -47.5t-170.5 -135t-101.5 -206.5t-36 -264zM697 1654l111 297h110l-111 -297h-110z" />
    <glyph glyph-name="uni1EDB" unicode="&#x1edb;" horiz-adv-x="1238" 
d="M1105 1290q26 -174 -71 -241q-44 -28 -94 -35q172 -157 172 -459q0 -266 -136.5 -426t-378.5 -160t-378.5 161t-136.5 425t138 423t377 159q95 0 182 -29q92 -25 149 2q51 25 64 69t6 111h107zM208 555q0 -218 100.5 -344.5t288.5 -126.5q190 0 289.5 127t99.5 344
q0 218 -99.5 342.5t-289.5 124.5q-192 0 -290.5 -126.5t-98.5 -340.5zM540 1285l110 297h110l-111 -297h-109z" />
    <glyph glyph-name="uni1EDC" unicode="&#x1edc;" horiz-adv-x="1463" 
d="M1253 1664q27 -176 -70 -242q-27 -18 -63 -28q138 -97 210 -266.5t72 -390.5q0 -228 -74.5 -399.5t-227.5 -270t-368 -98.5q-162 0 -290 56.5t-211 158.5t-126.5 242.5t-43.5 310.5t43.5 310.5t126.5 242.5t211 158.5t290 56.5q105 0 190 -22v1q53 -15 88 -15t66 15
q51 25 64.5 69.5t6.5 110.5h106zM187 737q-1 -145 33.5 -264t101.5 -206t172 -134.5t238 -47.5q177 0 301 83.5t183.5 228.5t59.5 340t-59.5 340t-183.5 229t-301 84q-133 0 -237 -47.5t-170.5 -135t-101.5 -206.5t-36 -264zM568 1951h110l110 -297h-109z" />
    <glyph glyph-name="uni1EDD" unicode="&#x1edd;" horiz-adv-x="1238" 
d="M1105 1290q26 -174 -71 -241q-44 -28 -94 -35q172 -157 172 -459q0 -266 -136.5 -426t-378.5 -160t-378.5 161t-136.5 425t138 423t377 159q95 0 182 -29q92 -25 149 2q51 25 64 69t6 111h107zM208 555q0 -218 100.5 -344.5t288.5 -126.5q190 0 289.5 127t99.5 344
q0 218 -99.5 342.5t-289.5 124.5q-192 0 -290.5 -126.5t-98.5 -340.5zM424 1582h110l110 -297h-109z" />
    <glyph glyph-name="uni1EDE" unicode="&#x1ede;" horiz-adv-x="1463" 
d="M732 -31q-162 0 -290 56.5t-211 158.5t-126.5 242.5t-43.5 310.5t43.5 310.5t126.5 242.5t211 158.5t290 56.5q105 0 190 -22v1q53 -15 88 -15t66 15q51 25 64.5 69.5t6.5 110.5h106q27 -176 -70 -242q-27 -18 -63 -28q138 -97 210 -266.5t72 -390.5q0 -228 -74.5 -399.5
t-227.5 -270t-368 -98.5zM187 737q-1 -145 33.5 -264t101.5 -206t172 -134.5t238 -47.5q177 0 301 83.5t183.5 228.5t59.5 340t-59.5 340t-183.5 229t-301 84q-133 0 -237 -47.5t-170.5 -135t-101.5 -206.5t-36 -264zM608 1932q37 40 86.5 58t101.5 2.5t86 -66.5
q34 -56 26.5 -110.5t-43.5 -100t-90 -69.5l-52 60q63 31 86 78t-3 89q-29 41 -71.5 36.5t-82.5 -41.5z" />
    <glyph glyph-name="uni1EDF" unicode="&#x1edf;" horiz-adv-x="1193" 
d="M597 -31q-242 0 -378.5 161t-136.5 425t138 423t377 159q95 0 182 -29q92 -25 149 2q51 25 64 69t6 111h107q26 -174 -71 -241q-44 -28 -94 -35q172 -157 172 -459q0 -266 -136.5 -426t-378.5 -160zM208 555q0 -218 100.5 -344.5t288.5 -126.5q190 0 289.5 127t99.5 344
q0 218 -99.5 342.5t-289.5 124.5q-192 0 -290.5 -126.5t-98.5 -340.5zM454 1565q37 40 86 58t101 2.5t86 -66.5q34 -56 27 -111t-43.5 -100.5t-89.5 -69.5l-53 60q63 31 86 78t-3 89q-29 41 -71 36.5t-82 -41.5z" />
    <glyph glyph-name="uni1EE0" unicode="&#x1ee0;" horiz-adv-x="1463" 
d="M732 -31q-162 0 -290 56.5t-211 158.5t-126.5 242.5t-43.5 310.5t43.5 310.5t126.5 242.5t211 158.5t290 56.5q105 0 190 -22v1q53 -15 88 -15t66 15q51 25 64.5 69.5t6.5 110.5h106q27 -176 -70 -242q-27 -18 -63 -28q138 -97 210 -266.5t72 -390.5q0 -228 -74.5 -399.5
t-227.5 -270t-368 -98.5zM187 737q-1 -145 33.5 -264t101.5 -206t172 -134.5t238 -47.5q177 0 301 83.5t183.5 228.5t59.5 340t-59.5 340t-183.5 229t-301 84q-133 0 -237 -47.5t-170.5 -135t-101.5 -206.5t-36 -264zM441 1668q-21 82 20 139t121 57q48 0 105 -27t108 -54
t84 -27q36 0 50.5 29t2.5 68h90q21 -81 -19.5 -139.5t-122.5 -58.5q-37 0 -81 16.5t-77.5 37t-71.5 37t-65 16.5q-39 0 -52.5 -29t-1.5 -65h-90z" />
    <glyph glyph-name="uni1EE1" unicode="&#x1ee1;" horiz-adv-x="1193" 
d="M597 -31q-242 0 -378.5 161t-136.5 425t138 423t377 159q95 0 182 -29q92 -25 149 2q51 25 64 69t6 111h107q26 -174 -71 -241q-44 -28 -94 -35q172 -157 172 -459q0 -266 -136.5 -426t-378.5 -160zM208 555q0 -218 100.5 -344.5t288.5 -126.5q190 0 289.5 127t99.5 344
q0 218 -99.5 342.5t-289.5 124.5q-192 0 -290.5 -126.5t-98.5 -340.5zM309 1299q-21 82 20 139t121 57q48 0 104.5 -26.5t107.5 -53.5t84 -27q36 0 51 29t3 68h90q21 -81 -19.5 -140t-122.5 -59q-47 0 -103.5 27t-107.5 54t-84 27q-39 0 -52.5 -29.5t-1.5 -65.5h-90z" />
    <glyph glyph-name="uni1EE2" unicode="&#x1ee2;" horiz-adv-x="1463" 
d="M732 -31q-162 0 -290 56.5t-211 158.5t-126.5 242.5t-43.5 310.5t43.5 310.5t126.5 242.5t211 158.5t290 56.5q105 0 190 -22v1q53 -15 88 -15t66 15q51 25 64.5 69.5t6.5 110.5h106q27 -176 -70 -242q-27 -18 -63 -28q138 -97 210 -266.5t72 -390.5q0 -228 -74.5 -399.5
t-227.5 -270t-368 -98.5zM187 737q-1 -145 33.5 -264t101.5 -206t172 -134.5t238 -47.5q177 0 301 83.5t183.5 228.5t59.5 340t-59.5 340t-183.5 229t-301 84q-133 0 -237 -47.5t-170.5 -135t-101.5 -206.5t-36 -264zM662 -391v150h148v-150h-148z" />
    <glyph glyph-name="uni1EE3" unicode="&#x1ee3;" horiz-adv-x="1193" 
d="M597 -31q-242 0 -378.5 161t-136.5 425t138 423t377 159q95 0 182 -29q92 -25 149 2q51 25 64 69t6 111h107q26 -174 -71 -241q-44 -28 -94 -35q172 -157 172 -459q0 -266 -136.5 -426t-378.5 -160zM208 555q0 -218 100.5 -344.5t288.5 -126.5q190 0 289.5 127t99.5 344
q0 218 -99.5 342.5t-289.5 124.5q-192 0 -290.5 -126.5t-98.5 -340.5zM525 -391v150h149v-150h-149z" />
    <glyph glyph-name="uni1EE4" unicode="&#x1ee4;" horiz-adv-x="1425" 
d="M713 -31q-252 0 -411 153.5t-159 404.5v948h119v-923q0 -97 28.5 -178t74.5 -134t105.5 -90t121 -53t121.5 -16t121 16.5t121 53t105.5 90t74 134t28.5 177.5v923h119v-948q0 -250 -159 -404t-410 -154zM645 -391v150h149v-150h-149z" />
    <glyph glyph-name="uni1EE5" unicode="&#x1ee5;" 
d="M568 -26q-111 0 -197.5 41.5t-140 114t-80.5 166.5t-27 205v605h119v-576q0 -214 85.5 -328t256.5 -114q174 0 261.5 114.5t87.5 306.5v597h119v-1106h-108v166q-60 -96 -157.5 -144t-218.5 -48zM515 -391v150h149v-150h-149z" />
    <glyph glyph-name="uni1EE6" unicode="&#x1ee6;" horiz-adv-x="1425" 
d="M713 -31q-252 0 -411 153.5t-159 404.5v948h119v-923q0 -97 28.5 -178t74.5 -134t105.5 -90t121 -53t121.5 -16t121 16.5t121 53t105.5 90t74 134t28.5 177.5v923h119v-948q0 -250 -159 -404t-410 -154zM573 1932q37 40 86.5 58t101.5 2.5t86 -66.5q34 -56 26.5 -110.5
t-43.5 -100t-90 -69.5l-52 60q63 31 86 78t-3 89q-29 41 -71.5 36.5t-82.5 -41.5z" />
    <glyph glyph-name="uni1EE7" unicode="&#x1ee7;" 
d="M568 -26q-111 0 -197.5 41.5t-140 114t-80.5 166.5t-27 205v605h119v-576q0 -214 85.5 -328t256.5 -114q174 0 261.5 114.5t87.5 306.5v597h119v-1106h-108v166q-60 -96 -157.5 -144t-218.5 -48zM454 1565q37 40 86 58t101 2.5t86 -66.5q34 -56 27 -111t-43.5 -100.5
t-89.5 -69.5l-53 60q63 31 86 78t-3 89q-29 41 -71 36.5t-82 -41.5z" />
    <glyph glyph-name="uni1EE8" unicode="&#x1ee8;" horiz-adv-x="1425" 
d="M713 -31q-252 0 -411 153.5t-159 404.5v948h119v-923q0 -97 28.5 -178t74.5 -134t105.5 -90t121 -53t121.5 -16t121 16.5t121 53t105.5 90t74 134t28.5 177.5v923h24q77 3 95 7q42 9 62 37.5t20 64t-3 75.5h106q26 -175 -69 -242q-46 -32 -116 -34v-856q0 -250 -159 -404
t-410 -154zM638 1654l111 297h109l-110 -297h-110z" />
    <glyph glyph-name="uni1EE9" unicode="&#x1ee9;" 
d="M568 -26q-111 0 -197.5 41.5t-140 114t-80.5 166.5t-27 205v605h119v-576q0 -214 85.5 -328t256.5 -114q174 0 261.5 114.5t87.5 306.5v597h13q77 3 95 7q42 9 62 37.5t20 64t-3 75.5h107q26 -173 -70 -241q-41 -29 -105 -34v-1015h-108v166q-60 -96 -157.5 -144
t-218.5 -48zM527 1285l111 297h110l-111 -297h-110z" />
    <glyph glyph-name="uni1EEA" unicode="&#x1eea;" horiz-adv-x="1425" 
d="M713 -31q-252 0 -411 153.5t-159 404.5v948h119v-923q0 -97 28.5 -178t74.5 -134t105.5 -90t121 -53t121.5 -16t121 16.5t121 53t105.5 90t74 134t28.5 177.5v923h24q77 3 95 7q42 9 62 37.5t20 64t-3 75.5h106q26 -175 -69 -242q-46 -32 -116 -34v-856q0 -250 -159 -404
t-410 -154zM570 1951h110l111 -297h-110z" />
    <glyph glyph-name="uni1EEB" unicode="&#x1eeb;" 
d="M568 -26q-111 0 -197.5 41.5t-140 114t-80.5 166.5t-27 205v605h119v-576q0 -214 85.5 -328t256.5 -114q174 0 261.5 114.5t87.5 306.5v597h13q77 3 95 7q42 9 62 37.5t20 64t-3 75.5h107q26 -173 -70 -241q-41 -29 -105 -34v-1015h-108v166q-60 -96 -157.5 -144
t-218.5 -48zM445 1582h110l111 -297h-110z" />
    <glyph glyph-name="uni1EEC" unicode="&#x1eec;" horiz-adv-x="1425" 
d="M713 -31q-252 0 -411 153.5t-159 404.5v948h119v-923q0 -97 28.5 -178t74.5 -134t105.5 -90t121 -53t121.5 -16t121 16.5t121 53t105.5 90t74 134t28.5 177.5v923h24q77 3 95 7q42 9 62 37.5t20 64t-3 75.5h106q26 -175 -69 -242q-46 -32 -116 -34v-856q0 -250 -159 -404
t-410 -154zM573 1932q37 40 86.5 58t101.5 2.5t86 -66.5q34 -56 26.5 -110.5t-43.5 -100t-90 -69.5l-52 60q63 31 86 78t-3 89q-29 41 -71.5 36.5t-82.5 -41.5z" />
    <glyph glyph-name="uni1EED" unicode="&#x1eed;" 
d="M568 -26q-111 0 -197.5 41.5t-140 114t-80.5 166.5t-27 205v605h119v-576q0 -214 85.5 -328t256.5 -114q174 0 261.5 114.5t87.5 306.5v597h13q77 3 95 7q42 9 62 37.5t20 64t-3 75.5h107q26 -173 -70 -241q-41 -29 -105 -34v-1015h-108v166q-60 -96 -157.5 -144
t-218.5 -48zM454 1565q37 40 86 58t101 2.5t86 -66.5q34 -56 27 -111t-43.5 -100.5t-89.5 -69.5l-53 60q63 31 86 78t-3 89q-29 41 -71 36.5t-82 -41.5z" />
    <glyph glyph-name="uni1EEE" unicode="&#x1eee;" horiz-adv-x="1425" 
d="M713 -31q-252 0 -411 153.5t-159 404.5v948h119v-923q0 -97 28.5 -178t74.5 -134t105.5 -90t121 -53t121.5 -16t121 16.5t121 53t105.5 90t74 134t28.5 177.5v923h24q77 3 95 7q42 9 62 37.5t20 64t-3 75.5h106q26 -175 -69 -242q-46 -32 -116 -34v-856q0 -250 -159 -404
t-410 -154zM428 1668q-21 82 20 139t120 57q48 0 105 -27t108 -54t84 -27q36 0 51 29t3 68h90q21 -81 -20 -139.5t-123 -58.5q-37 0 -81 16.5t-77.5 37t-71.5 37t-65 16.5q-39 0 -52 -29t-1 -65h-90z" />
    <glyph glyph-name="uni1EEF" unicode="&#x1eef;" 
d="M568 -26q-111 0 -197.5 41.5t-140 114t-80.5 166.5t-27 205v605h119v-576q0 -214 85.5 -328t256.5 -114q174 0 261.5 114.5t87.5 306.5v597h13q77 3 95 7q42 9 62 37.5t20 64t-3 75.5h107q26 -173 -70 -241q-41 -29 -105 -34v-1015h-108v166q-60 -96 -157.5 -144
t-218.5 -48zM309 1299q-21 82 20 139t121 57q48 0 104.5 -26.5t107.5 -53.5t84 -27q36 0 51 29t3 68h90q21 -81 -19.5 -140t-122.5 -59q-47 0 -103.5 27t-107.5 54t-84 27q-39 0 -52.5 -29.5t-1.5 -65.5h-90z" />
    <glyph glyph-name="uni1EF0" unicode="&#x1ef0;" horiz-adv-x="1425" 
d="M713 -31q-252 0 -411 153.5t-159 404.5v948h119v-923q0 -97 28.5 -178t74.5 -134t105.5 -90t121 -53t121.5 -16t121 16.5t121 53t105.5 90t74 134t28.5 177.5v923h24q77 3 95 7q42 9 62 37.5t20 64t-3 75.5h106q26 -175 -69 -242q-46 -32 -116 -34v-856q0 -250 -159 -404
t-410 -154zM652 -391v150h149v-150h-149z" />
    <glyph glyph-name="uni1EF1" unicode="&#x1ef1;" 
d="M568 -26q-111 0 -197.5 41.5t-140 114t-80.5 166.5t-27 205v605h119v-576q0 -214 85.5 -328t256.5 -114q174 0 261.5 114.5t87.5 306.5v597h14q77 3 95 7q42 9 62 37.5t20 64t-3 75.5h107q26 -173 -70 -241q-43 -31 -106 -34v-1015h-108v166q-60 -96 -157.5 -144
t-218.5 -48zM525 -391v150h149v-150h-149z" />
    <glyph glyph-name="Ygrave" unicode="&#x1ef2;" horiz-adv-x="1100" 
d="M492 0v623l-492 852h136l415 -717l414 717h136l-491 -852v-623h-118zM392 1951h110l110 -297h-109z" />
    <glyph glyph-name="ygrave" unicode="&#x1ef3;" horiz-adv-x="1057" 
d="M305 -492l182 492l-449 1106h126l381 -949l347 949h124l-588 -1598h-123zM382 1582h110l110 -297h-109z" />
    <glyph glyph-name="uni1EF4" unicode="&#x1ef4;" horiz-adv-x="1100" 
d="M492 0v623l-492 852h136l415 -717l414 717h136l-491 -852v-623h-118zM476 -391v150h149v-150h-149z" />
    <glyph glyph-name="uni1EF5" unicode="&#x1ef5;" horiz-adv-x="1057" 
d="M305 -492l182 492l-449 1106h126l381 -949l347 949h124l-588 -1598h-123zM710 -391v150h148v-150h-148z" />
    <glyph glyph-name="uni1EF6" unicode="&#x1ef6;" horiz-adv-x="1100" 
d="M492 0v623l-492 852h136l415 -717l414 717h136l-491 -852v-623h-118zM400 1932q37 40 86.5 58t101.5 2.5t86 -66.5q34 -56 26.5 -110.5t-43.5 -100t-90 -69.5l-52 60q63 31 86 78t-3 89q-29 41 -71.5 36.5t-82.5 -41.5z" />
    <glyph glyph-name="uni1EF7" unicode="&#x1ef7;" horiz-adv-x="1057" 
d="M305 -492l182 492l-449 1106h126l381 -949l347 949h124l-588 -1598h-123zM392 1565q37 40 86.5 58t101.5 2.5t86 -66.5q34 -56 26.5 -111t-44 -100.5t-89.5 -69.5l-52 60q63 31 86 78t-3 89q-29 41 -71.5 36.5t-82.5 -41.5z" />
    <glyph glyph-name="uni1EF8" unicode="&#x1ef8;" horiz-adv-x="1100" 
d="M492 0v623l-492 852h136l415 -717l414 717h136l-491 -852v-623h-118zM274 1668q-21 82 20 139t121 57q48 0 105 -27t108 -54t84 -27q36 0 50.5 29t2.5 68h90q21 -81 -19.5 -139.5t-122.5 -58.5q-37 0 -81 16.5t-77.5 37t-71.5 37t-65 16.5q-39 0 -52 -29t-1 -65h-91z" />
    <glyph glyph-name="uni1EF9" unicode="&#x1ef9;" horiz-adv-x="1057" 
d="M305 -492l182 492l-449 1106h126l381 -949l347 949h124l-588 -1598h-123zM253 1299q-21 82 20 139t120 57q38 0 82.5 -16.5t78 -37t71.5 -37t65 -16.5q36 0 50.5 29t2.5 68h91q21 -81 -20 -140t-123 -59q-47 0 -103.5 27t-107.5 54t-84 27q-39 0 -52 -29.5t-1 -65.5h-90z
" />
    <glyph glyph-name="uni2011" unicode="&#x2011;" horiz-adv-x="860" 
d="M123 592v107h614v-107h-614z" />
    <glyph glyph-name="endash" unicode="&#x2013;" horiz-adv-x="1105" 
d="M123 592v107h860v-107h-860z" />
    <glyph glyph-name="emdash" unicode="&#x2014;" horiz-adv-x="1597" 
d="M123 592v107h1352v-107h-1352z" />
    <glyph glyph-name="quoteleft" unicode="&#x2018;" horiz-adv-x="411" 
d="M279 1077q-65 -14 -107 26.5t-42 120.5v251h149v-200h-80q-2 -27 -0.5 -51.5t6.5 -44t21.5 -30t43.5 -8.5z" />
    <glyph glyph-name="quoteright" unicode="&#x2019;" horiz-adv-x="411" 
d="M141 1141q27 -2 43.5 8.5t22 30t7 44t-0.5 51.5h-80v200h149v-251q0 -80 -42 -120.5t-107 -26.5z" />
    <glyph glyph-name="quotesinglbase" unicode="&#x201a;" horiz-adv-x="517" 
d="M131 -134q27 -2 43.5 8.5t22 30t7 44t-0.5 51.5h-80v200h148v-251q0 -80 -41.5 -120.5t-106.5 -26.5z" />
    <glyph glyph-name="quotedblleft" unicode="&#x201c;" horiz-adv-x="708" 
d="M537 1424q-27 2 -43.5 -8.5t-22 -30t-7 -44t0.5 -51.5h80v-199h-149v250q0 80 42 120.5t107 26.5zM164 1091v250q0 80 41.5 120.5t106.5 26.5l-8 -64q-27 2 -43.5 -8.5t-22 -30t-7 -44t0.5 -51.5h80v-199h-148z" />
    <glyph glyph-name="quotedblright" unicode="&#x201d;" horiz-adv-x="708" 
d="M172 1157q27 -2 43.5 8.5t22 30t7 44t-0.5 51.5h-80v200h148v-251q0 -80 -41.5 -120t-106.5 -26zM396 1094l8 63q27 -2 43.5 8.5t22 30t7 44t-0.5 51.5h-80v200h149v-251q0 -80 -42 -120t-107 -26z" />
    <glyph glyph-name="quotedblbase" unicode="&#x201e;" horiz-adv-x="708" 
d="M172 -134q27 -2 43.5 8.5t22 30t7 44t-0.5 51.5h-80v200h148v-251q0 -80 -41.5 -120.5t-106.5 -26.5zM396 -198l8 64q27 -2 43.5 8.5t22 30t7 44t-0.5 51.5h-80v200h149v-251q0 -80 -42 -120.5t-107 -26.5z" />
    <glyph glyph-name="uni201F" unicode="&#x201f;" horiz-adv-x="708" 
d="M545 1094q-65 -14 -107 26t-42 120v251h149v-200h-80q-2 -27 -0.5 -51.5t7 -44t22 -30t43.5 -8.5zM164 1240v251h148v-200h-80q-2 -27 -0.5 -51.5t7 -44t22 -30t43.5 -8.5l8 -63q-65 -14 -106.5 26t-41.5 120z" />
    <glyph glyph-name="dagger" unicode="&#x2020;" horiz-adv-x="1105" 
d="M494 0v998h-371v108h371v369h117v-369h372v-108h-372v-998h-117z" />
    <glyph glyph-name="daggerdbl" unicode="&#x2021;" horiz-adv-x="801" 
d="M342 0v493h-219v107h219v314h-219v108h219v453h118v-453h219v-108h-219v-314h219v-107h-219v-493h-118z" />
    <glyph glyph-name="bullet" unicode="&#x2022;" horiz-adv-x="1303" 
d="M656 423q-95 0 -160.5 64t-65.5 158q0 95 65.5 158.5t160.5 63.5q90 0 153.5 -64t63.5 -158t-64 -158t-153 -64z" />
    <glyph glyph-name="ellipsis" unicode="&#x2026;" horiz-adv-x="1241" 
d="M164 0v148h148v-148h-148zM546 0v148h148v-148h-148zM929 0v148h148v-148h-148z" />
    <glyph glyph-name="perthousand" unicode="&#x2030;" horiz-adv-x="2703" 
d="M1355 -31q-153 0 -261 108t-108 261q0 150 110.5 259.5t258.5 109.5q153 0 260.5 -107.5t107.5 -261.5t-107.5 -261.5t-260.5 -107.5zM123 1137q0 150 110 259t259 109q153 0 260.5 -107.5t107.5 -260.5t-108 -261t-260 -108q-153 0 -261 108t-108 261zM184 82l1396 1393
l82 -81l-1396 -1394zM233 1137q0 -105 77 -181.5t182 -76.5t181.5 76.5t76.5 181.5t-76.5 181.5t-181.5 76.5t-182 -76.5t-77 -181.5zM1097 338q0 -105 76.5 -181.5t181.5 -76.5t181.5 76.5t76.5 181.5t-76.5 181.5t-181.5 76.5t-181.5 -76.5t-76.5 -181.5zM1843 338
q0 150 110.5 259.5t258.5 109.5q152 0 260 -107.5t108 -261.5t-108 -261.5t-260 -107.5q-153 0 -261 108t-108 261zM1954 338q0 -105 76.5 -181.5t181.5 -76.5t181.5 76.5t76.5 181.5t-76.5 181.5t-181.5 76.5t-181.5 -76.5t-76.5 -181.5z" />
    <glyph glyph-name="second" unicode="&#x2033;" horiz-adv-x="708" 
d="M172 1157q27 -2 43.5 8.5t22 30t7 44t-0.5 51.5h-80v200h148v-251q0 -80 -41.5 -120t-106.5 -26zM396 1094l8 63q27 -2 43.5 8.5t22 30t7 44t-0.5 51.5h-80v200h149v-251q0 -80 -42 -120t-107 -26z" />
    <glyph glyph-name="guilsinglleft" unicode="&#x2039;" horiz-adv-x="1242" 
d="M764 168l-477 477l477 477l76 -74l-404 -403l404 -402z" />
    <glyph glyph-name="guilsinglright" unicode="&#x203a;" horiz-adv-x="1242" 
d="M478 168l-76 75l404 402l-404 403l76 74l477 -477z" />
    <glyph glyph-name="fraction" unicode="&#x2044;" horiz-adv-x="405" 
d="M-301 0l-89 71l1098 1406l88 -69z" />
    <glyph glyph-name="uni2060" unicode="&#x2060;" horiz-adv-x="0" 
 />
    <glyph glyph-name="uni2070" unicode="&#x2070;" horiz-adv-x="896" 
d="M449 528q-132 0 -219 88t-87 222v347q0 133 87.5 220.5t218.5 87.5t217.5 -87.5t86.5 -220.5v-347q0 -134 -86 -222t-218 -88zM244 836q0 -89 59 -150t146 -61q86 0 145 61t59 150v352q0 89 -58.5 149.5t-145.5 60.5q-86 0 -145.5 -60.5t-59.5 -149.5v-352z" />
    <glyph glyph-name="uni2074" unicode="&#x2074;" horiz-adv-x="833" 
d="M532 553v176h-430v95l309 651h111l-308 -651h318v268h100v-268h99v-95h-99v-176h-100z" />
    <glyph glyph-name="uni2075" unicode="&#x2075;" horiz-adv-x="818" 
d="M401 532q-107 0 -189 64.5t-110 166.5l95 24q19 -71 77 -114t128 -43q90 0 152 62t62 150q0 89 -63 151.5t-151 62.5q-60 0 -107 -27.5t-76 -72.5l-89 39l27 480h493v-94h-407l-16 -302q78 67 187 67q127 0 214.5 -88t87.5 -216q0 -127 -93.5 -218.5t-221.5 -91.5z" />
    <glyph glyph-name="uni2076" unicode="&#x2076;" horiz-adv-x="910" 
d="M459 526q-132 0 -224 93t-92 229v317q0 142 92 235t231 93q78 0 146 -34t112 -95l-77 -66q-31 46 -78.5 73t-102.5 27q-94 0 -157.5 -66t-63.5 -156v-142q41 51 99.5 80t123.5 29q130 0 218 -88.5t88 -216.5q0 -129 -92.5 -220.5t-222.5 -91.5zM245 838q0 -90 62 -152.5
t152 -62.5q89 0 151.5 62.5t62.5 152.5q0 88 -62.5 150t-151.5 62t-151.5 -62t-62.5 -150z" />
    <glyph glyph-name="uni2077" unicode="&#x2077;" horiz-adv-x="716" 
d="M169 553l339 826h-426v96h532v-96l-336 -826h-109z" />
    <glyph glyph-name="uni2078" unicode="&#x2078;" horiz-adv-x="841" 
d="M421 526q-132 0 -215 77.5t-83 202.5q0 161 127 236q-105 66 -105 200q0 116 76.5 183.5t199.5 67.5t199 -67.5t76 -183.5q0 -137 -107 -199q130 -78 130 -237q0 -125 -83 -202.5t-215 -77.5zM227 806q0 -87 53 -135t141 -48t140 48t52 135q0 90 -51.5 138t-140.5 48
t-141.5 -48t-52.5 -138zM252 1242q0 -74 46 -113.5t123 -39.5q78 0 124.5 39.5t46.5 113.5q0 75 -46.5 114.5t-124.5 39.5q-77 0 -123 -39.5t-46 -114.5z" />
    <glyph glyph-name="uni2079" unicode="&#x2079;" horiz-adv-x="910" 
d="M452 1493q132 0 223.5 -93t91.5 -229v-317q0 -142 -92 -235t-231 -93q-78 0 -146 34t-112 95l77 66q31 -46 78.5 -72.5t102.5 -26.5q94 0 158 66t64 156v141q-41 -51 -99.5 -79.5t-124.5 -28.5q-130 0 -218 88.5t-88 216.5q0 129 93 220t223 91zM238 1182
q0 -88 62.5 -150t151.5 -62t151.5 62t62.5 150q0 90 -62 152.5t-152 62.5q-89 0 -151.5 -62.5t-62.5 -152.5z" />
    <glyph glyph-name="uni2080" unicode="&#x2080;" horiz-adv-x="896" 
d="M449 -25q-132 0 -219 88t-87 222v347q0 133 87.5 220.5t218.5 87.5t217.5 -87.5t86.5 -220.5v-347q0 -134 -86 -222t-218 -88zM244 283q0 -89 59 -150t146 -61q86 0 145 61t59 150v352q0 89 -58.5 149.5t-145.5 60.5q-86 0 -145.5 -60.5t-59.5 -149.5v-352z" />
    <glyph glyph-name="uni2081" unicode="&#x2081;" horiz-adv-x="642" 
d="M297 0v812l-174 -105v110l174 105h99v-922h-99z" />
    <glyph glyph-name="uni2082" unicode="&#x2082;" horiz-adv-x="811" 
d="M102 0l2 90l414 377q51 44 70 86.5t19 92.5q0 86 -56.5 144t-140.5 58q-86 0 -144.5 -60t-56.5 -140h-101q0 127 86.5 210.5t216.5 83.5q127 0 212.5 -85.5t85.5 -210.5q0 -83 -31.5 -139.5t-103.5 -121.5l-319 -290h454v-95h-607z" />
    <glyph glyph-name="uni2083" unicode="&#x2083;" horiz-adv-x="788" 
d="M369 -20q-102 0 -180 55t-107 149l95 28q22 -67 73.5 -102.5t118.5 -34.5q90 1 142.5 57t52.5 148t-54 148.5t-142 56.5q-48 0 -103 -24l-49 78l312 288h-409v95h536v-97l-267 -254q125 -1 201.5 -82t76.5 -209q0 -132 -83.5 -216t-213.5 -84z" />
    <glyph glyph-name="uni2084" unicode="&#x2084;" horiz-adv-x="833" 
d="M532 0v176h-430v95l309 651h111l-308 -651h318v268h100v-268h99v-95h-99v-176h-100z" />
    <glyph glyph-name="uni2085" unicode="&#x2085;" horiz-adv-x="818" 
d="M401 -20q-107 0 -189 64t-110 166l95 24q19 -71 77 -114t128 -43q90 0 152 62t62 150q0 89 -63 151.5t-151 62.5q-60 0 -107 -27.5t-76 -72.5l-89 39l27 480h493v-94h-407l-16 -302q78 67 187 67q127 0 214.5 -88t87.5 -216q0 -127 -93.5 -218t-221.5 -91z" />
    <glyph glyph-name="uni2086" unicode="&#x2086;" horiz-adv-x="910" 
d="M459 -27q-132 0 -224 93t-92 229v317q0 142 92 235t231 93q78 0 146 -34t112 -95l-77 -66q-31 46 -78.5 73t-102.5 27q-94 0 -157.5 -66t-63.5 -156v-142q41 51 99.5 80t123.5 29q130 0 218 -88t88 -217t-92.5 -220.5t-222.5 -91.5zM245 285q0 -90 62 -152.5t152 -62.5
q89 0 151.5 62.5t62.5 152.5q0 88 -62.5 150t-151.5 62t-151.5 -62t-62.5 -150z" />
    <glyph glyph-name="uni2087" unicode="&#x2087;" horiz-adv-x="716" 
d="M169 0l339 826h-426v96h532v-96l-336 -826h-109z" />
    </font>
</defs>
</svg>
