<?xml version="1.0" standalone="no"?>
<!DOCTYPE svg PUBLIC "-//W3C//DTD SVG 1.1//EN" "http://www.w3.org/Graphics/SVG/1.1/DTD/svg11.dtd" >
<svg xmlns="http://www.w3.org/2000/svg" xmlns:xlink="http://www.w3.org/1999/xlink" version="1.1">
<metadata>
Created by FontForge 20170731 at Wed Jul 20 07:20:53 2022
 By Aleksey,,,
Copyright 2019-2021 The Manrope Project Authors (https://github.com/sharanda/manrope)
</metadata>
<defs>
<font id="Manrope-SemiBold" horiz-adv-x="1259" >
  <font-face 
    font-family="Manrope SemiBold"
    font-weight="600"
    font-stretch="normal"
    units-per-em="2048"
    panose-1="0 0 0 0 0 0 0 0 0 0"
    ascent="1638"
    descent="-410"
    x-height="1106"
    cap-height="1475"
    bbox="-332 -604 2568 2397.96"
    underline-thickness="102"
    underline-position="-358"
    unicode-range="U+000D-FB02"
  />
<missing-glyph horiz-adv-x="1515" 
d="M205 0v117h1106v-117h-1106zM205 147v82h1106v-82h-1106zM205 266v76h1106v-76h-1106zM205 383v72h1106v-72h-1106zM205 502v67h1106v-67h-1106zM205 621v61h1106v-61h-1106zM205 737v58h1106v-58h-1106zM205 858v49h1106v-49h-1106zM205 975v45h1106v-45h-1106z
M205 1092v43h1106v-43h-1106zM205 1212v37h1106v-37h-1106zM205 1329v33h1106v-33h-1106zM205 1448v27h1106v-27h-1106z" />
    <glyph glyph-name="uniE001" unicode="&#x28;c&#x29;" horiz-adv-x="1963" 
d="M982 -99q-167 0 -318.5 64.5t-261 174.5t-174 261t-64.5 318t64.5 318t174 261t261 174.5t318.5 64.5t318 -64.5t260.5 -174.5t174 -261t64.5 -318t-64.5 -318t-174 -261t-260.5 -174.5t-318 -64.5zM367 720q0 -168 82 -309.5t223.5 -224t309.5 -82.5q167 0 308 82.5
t223 224t82 309.5q0 167 -82 308t-223 223t-308 82q-168 0 -309.5 -82t-223.5 -223t-82 -308zM594 720q2 181 97 299q112 136 313 136q115 0 203 -54q116 -69 150 -202l-167 -46q-20 61 -75 104q-50 40 -121 40q-103 0 -168 -81q-53 -69 -53 -195q0 -124 53 -198
q60 -80 170 -80q77 0 123 37q44 37 68 98l170 -39q-41 -121 -132 -188t-230 -67q-195 0 -304 135q-97 121 -97 301z" />
    <glyph glyph-name="uniE002" unicode="&#x20;&#x3c;&#x33;&#x20;" horiz-adv-x="2381" 
d="M1191 -31q-73 0 -125 55l-379 399q-60 65 -88.5 146t-25.5 158.5t33 152.5t81 131.5t124.5 91t157.5 34.5q111 0 222 -72q108 72 221 72q85 0 159 -35t125 -91.5t80.5 -132t32.5 -153.5t-26 -158t-89 -144l-378 -399q-52 -55 -125 -55zM814 541l377 -399l379 399
q42 45 58.5 103.5t5 113.5t-40 102t-77 76t-104.5 29q-112 0 -221 -121q-115 121 -222 121q-57 0 -105.5 -29.5t-76 -77.5t-38 -103.5t6 -113t58.5 -100.5z" />
    <glyph glyph-name="uniE003" unicode="&#x28;&#x3e;&#x29;" horiz-adv-x="2355" 
d="M1037 1085l418 -348l-418 -348v696zM164 737q0 -206 80.5 -394t216 -323.5t323.5 -215.5t394 -80q165 0 320 51t279.5 144.5t218 218t144.5 279.5t51 320q0 206 -80 394t-215.5 323.5t-323.5 216t-394 80.5t-394 -80.5t-323.5 -216t-216 -323.5t-80.5 -394zM368 738
q0 221 108 407t294.5 294t408.5 108q221 0 407 -108t294 -294t108 -407q0 -222 -108 -408.5t-294 -294.5t-407 -108q-166 0 -316.5 64t-258.5 172t-172 258.5t-64 316.5z" />
    <glyph glyph-name="uniE007" unicode="ff" horiz-adv-x="1428" 
d="M245 1145q0 60 2 93.5t18.5 86.5t49.5 89q30 33 66 53t80 27.5t68 9t70 1.5h139v-176h-129q-150 0 -150 -143v-80h455v39q0 44 1.5 69.5t7.5 65.5t21.5 73t40.5 61q30 33 66 53t80 27.5t68 9t70 1.5h139v-176h-129q-151 0 -151 -143v-80h280v-172h-280v-934h-214v934
h-455v-934h-214v934h-184v172h184v39z" />
    <glyph glyph-name="uniE008" unicode="ffl" horiz-adv-x="2036" 
d="M1128 934v-934h-214v934h-455v-934h-214v934h-184v172h184v39q0 60 2 93.5t18.5 86.5t49.5 89q30 33 66 53t80 27.5t68 9t70 1.5h139v-176h-129q-150 0 -150 -143v-80h455v39q0 44 1.5 69.5t7.5 65.5t21.5 73t40.5 61q30 33 66 53t80 27.5t68 9t70 1.5h139v-176h-129
q-151 0 -151 -143v-80h531v369h214v-1475h-214v934h-531z" />
    <glyph glyph-name="uniE009" unicode="tt" horiz-adv-x="1606" 
d="M776 0q-81 -16 -155.5 -18t-143 11.5t-122 49t-82.5 91.5q-10 19 -17.5 38t-12 41.5t-7 37.5t-3.5 44.5t-1.5 41.5t0 49t0.5 49v499h-212v172h212v307h215v-307h528v307h215v-307h329v-172h-329v-489v-41v-41t1 -32.5t3.5 -33t6.5 -25.5t11 -25q24 -40 69.5 -59
t104.5 -18t133 11v-181q-81 -16 -155.5 -18t-143 11.5t-122 49t-82.5 91.5q-10 19 -17.5 38t-12 41.5t-7 37.5t-3.5 44.5t-1.5 41.5t0 49t0.5 49v499h-528v-489v-35.5v-35.5t0.5 -29.5t2 -29.5t4 -23.5t6.5 -25t10 -19.5q24 -40 69.5 -59t104 -18t132.5 11v-181z" />
    <glyph glyph-name="fi" unicode="fi" horiz-adv-x="1331" 
d="M245 1145q0 60 2 93.5t18.5 86.5t49.5 89q30 33 66 53t80 27.5t68 9t70 1.5h139v-176h-129q-150 0 -150 -143v-80h279v-172h-279v-934h-214v934h-184v172h184v39zM953 0v1106h214v-1106h-214zM953 1287v208h214v-208h-214z" />
    <glyph glyph-name="fl" unicode="fl" horiz-adv-x="1367" 
d="M459 934v-934h-214v934h-184v172h184v39q0 60 2 93.5t18.5 86.5t49.5 89q30 33 66 53t80 27.5t68 9t70 1.5h139v-176h-129q-150 0 -150 -143v-80h530v369h214v-1475h-214v934h-530z" />
    <glyph glyph-name="hyphen_hyphen.liga" unicode="&#x2d;&#x2d;" horiz-adv-x="1105" 
d="M123 560v172h860v-172h-860z" />
    <glyph glyph-name="hyphen_greater.liga" unicode="&#x2d;&#x3e;" horiz-adv-x="2064" 
d="M287 559v172h1193l-295 296l104 106l489 -488l-489 -488l-104 105l297 297h-1195z" />
    <glyph glyph-name="less_hyphen.liga" unicode="&#x3c;&#x2d;" horiz-adv-x="2064" 
d="M1778 559h-1195l297 -297l-105 -105l-488 488l488 488l105 -106l-295 -296h1193v-172z" />
    <glyph glyph-name=".notdef" horiz-adv-x="1515" 
d="M205 0v117h1106v-117h-1106zM205 147v82h1106v-82h-1106zM205 266v76h1106v-76h-1106zM205 383v72h1106v-72h-1106zM205 502v67h1106v-67h-1106zM205 621v61h1106v-61h-1106zM205 737v58h1106v-58h-1106zM205 858v49h1106v-49h-1106zM205 975v45h1106v-45h-1106z
M205 1092v43h1106v-43h-1106zM205 1212v37h1106v-37h-1106zM205 1329v33h1106v-33h-1106zM205 1448v27h1106v-27h-1106z" />
    <glyph glyph-name=".null" horiz-adv-x="1228" 
 />
    <glyph glyph-name="nonmarkingreturn" horiz-adv-x="1577" 
 />
    <glyph glyph-name="CR" unicode="&#xd;" horiz-adv-x="1228" 
 />
    <glyph glyph-name="space" unicode=" " horiz-adv-x="409" 
 />
    <glyph glyph-name="exclam" unicode="!" horiz-adv-x="705" 
d="M246 0v208h214v-208h-214zM246 369v1106h214v-1106h-214z" />
    <glyph glyph-name="quotedbl" unicode="&#x22;" horiz-adv-x="905" 
d="M123 1106v369h214v-369h-214zM486 1106v369h214v-369h-214z" />
    <glyph glyph-name="numbersign" unicode="#" horiz-adv-x="1899" 
d="M398 1l111 415h-386l54 204h387l71 269h-386l55 202h385l104 384h209l-103 -384h282l103 384h210l-103 -384h386l-54 -202h-387l-72 -269h386l-54 -204h-387l-110 -415h-209l109 415h-281l-111 -415h-209zM773 620h281l72 269h-281z" />
    <glyph glyph-name="dollar" unicode="$" 
d="M530 -204v182q-184 29 -304.5 146.5t-150.5 298.5l212 34q31 -131 131 -208.5t240 -77.5q138 0 226.5 66.5t88.5 170.5q0 73 -44.5 119t-145.5 78l-346 107q-151 47 -229 140t-78 228q0 170 107.5 281.5t292.5 136.5v180h214v-184q170 -29 282.5 -138.5t149.5 -283.5
l-219 -39q-22 120 -111.5 194t-217.5 75q-121 2 -202.5 -58.5t-81.5 -152.5q0 -68 52 -115.5t165 -80.5l272 -79q186 -56 269 -149t83 -247q0 -180 -120 -300t-321 -145v-179h-214z" />
    <glyph glyph-name="percent" unicode="%" horiz-adv-x="1844" 
d="M1353 -31q-153 0 -261 108t-108 261q0 150 110.5 259.5t258.5 109.5q153 0 260.5 -107.5t107.5 -261.5t-107.5 -261.5t-260.5 -107.5zM123 1137q0 150 110 259t259 109q153 0 260.5 -107.5t107.5 -260.5t-108 -261t-260 -108q-153 0 -261 108t-108 261zM184 143
l1333 1332l143 -145l-1332 -1330zM308 1137q0 -74 55 -129t129 -55t128.5 55t54.5 129t-54.5 128.5t-128.5 54.5t-129 -54.5t-55 -128.5zM1169 338q0 -74 55 -128.5t129 -54.5t128.5 54.5t54.5 128.5t-54.5 128.5t-128.5 54.5t-129 -54.5t-55 -128.5z" />
    <glyph glyph-name="ampersand" unicode="&#x26;" horiz-adv-x="1356" 
d="M628 -31q-128 0 -235 37.5t-177 113.5q-108 118 -114 298q-2 181 101 301q36 44 109 87q-70 75 -101.5 140t-31.5 151q0 125 65.5 224.5t179.5 143.5q89 37 212 37q210 0 326 -113q75 -71 107 -174l-211 -49q-16 48 -57 83q-59 51 -167 51q-72 0 -131 -27
q-107 -52 -107 -177q0 -51 17 -84.5t55 -75.5q25 -28 102 -97l402 -374q4 40 4 97l-1 192h191v-253q0 -137 -16 -201l184 -171l-138 -148l-148 141q-92 -94 -224 -127q-87 -26 -196 -26zM321 429q0 -94 57 -162q39 -46 109.5 -69.5t146.5 -23.5q87 0 142 23q75 32 116 71
l-420 385q-65 -23 -105 -70q-48 -61 -46 -154z" />
    <glyph glyph-name="quotesingle" unicode="'" horiz-adv-x="500" 
d="M123 1106v369h214v-369h-214z" />
    <glyph glyph-name="parenleft" unicode="(" horiz-adv-x="909" 
d="M665 -382q-179 207 -280.5 490t-97.5 568q-4 285 97.5 568t280.5 490l159 -119q-340 -406 -342 -939q2 -536 342 -939z" />
    <glyph glyph-name="parenright" unicode=")" horiz-adv-x="909" 
d="M85 -263q340 403 342 939q-2 533 -342 939l160 119q179 -207 280.5 -490t97.5 -568q4 -285 -97.5 -568t-280.5 -490z" />
    <glyph glyph-name="asterisk" unicode="*" horiz-adv-x="932" 
d="M300 763l-156 113l156 190l-239 67l60 183l230 -90l-12 249h192l-12 -249l232 90l59 -183l-240 -67l156 -190l-156 -113l-135 205z" />
    <glyph glyph-name="plus" unicode="+" horiz-adv-x="1174" 
d="M502 273v379h-379v172h379v377h172v-377h378v-172h-378v-379h-172z" />
    <glyph glyph-name="comma" unicode="," horiz-adv-x="594" 
d="M136 -150q63 -5 88 37t17 113h-118v247h226v-267q0 -123 -59 -184t-167 -41z" />
    <glyph glyph-name="hyphen" unicode="-" horiz-adv-x="860" 
d="M123 560v172h614v-172h-614z" />
    <glyph glyph-name="period" unicode="." horiz-adv-x="586" 
d="M180 0v226h227v-226h-227z" />
    <glyph glyph-name="slash" unicode="/" horiz-adv-x="855" 
d="M516 1475h216l-393 -1475h-216z" />
    <glyph glyph-name="zero" unicode="0" horiz-adv-x="1314" 
d="M657 -31q-225 0 -369.5 144.5t-144.5 369.5v508q0 225 144.5 369.5t369.5 144.5t369.5 -144.5t144.5 -369.5v-508q0 -225 -144.5 -369.5t-369.5 -144.5zM361 470q0 -124 86 -210t210 -86t210 86t86 210v537q0 123 -86 209t-210 86t-210 -86t-86 -209v-537z" />
    <glyph glyph-name="one" unicode="1" horiz-adv-x="864" 
d="M400 0v1239l-277 -169v239l277 166h218v-1475h-218z" />
    <glyph glyph-name="two" unicode="2" horiz-adv-x="1202" 
d="M102 1l1 190l642 576q74 66 104.5 127.5t30.5 128.5q0 119 -77.5 199t-195.5 80q-121 0 -201.5 -82.5t-78.5 -195.5h-219q0 214 141 347.5t362 133.5q210 0 349.5 -138t139.5 -347q0 -75 -14 -132.5t-47.5 -109t-72.5 -92.5t-106 -100l-427 -381h667v-204h-998z" />
    <glyph glyph-name="three" unicode="3" horiz-adv-x="1171" 
d="M556 -28q-166 0 -297 92.5t-177 248.5l207 58q29 -94 101.5 -145.5t165.5 -50.5q121 1 197 80.5t76 202.5q0 124 -76.5 203t-198.5 79q-71 0 -139 -37l-101 169l451 399h-625v204h887v-204l-364 -350q177 -24 281.5 -152t104.5 -311q0 -138 -65.5 -250t-178.5 -174
t-249 -62z" />
    <glyph glyph-name="four" unicode="4" horiz-adv-x="1233" 
d="M768 0v257h-666v203l480 1015h244l-479 -1015h421v399h217v-399h147v-203h-147v-257h-217z" />
    <glyph glyph-name="five" unicode="5" horiz-adv-x="1195" 
d="M581 -31q-169 0 -301.5 102t-177.5 264l206 55q25 -96 104.5 -155t174.5 -59q121 0 205.5 84.5t84.5 203.5q0 121 -85.5 205t-204.5 84q-84 0 -147.5 -33.5t-102.5 -85.5l-186 65l45 776h795v-202h-604l-25 -406q112 80 252 80q206 0 342.5 -138t136.5 -345
q0 -134 -70.5 -248.5t-188 -180.5t-253.5 -66z" />
    <glyph glyph-name="six" unicode="6" horiz-adv-x="1272" 
d="M650 -31q-141 0 -257 67.5t-183 188.5t-67 270v470q0 241 147 390t382 149q245 0 396 -175l-157 -146q-42 55 -105.5 87t-133.5 32q-134 0 -222.5 -92.5t-88.5 -217.5v-176q132 132 318 132q206 0 341.5 -138.5t135.5 -345.5q0 -135 -69 -249.5t-185 -180t-252 -65.5z
M361 464q0 -119 84.5 -204t204.5 -85t204.5 84.5t84.5 204.5t-84 204.5t-204 84.5t-205 -84.5t-85 -204.5z" />
    <glyph glyph-name="seven" unicode="7" horiz-adv-x="1071" 
d="M220 0l518 1271h-656v204h887v-204l-517 -1271h-232z" />
    <glyph glyph-name="eight" unicode="8" horiz-adv-x="1231" 
d="M615 -31q-217 0 -354.5 128t-137.5 331q0 112 45 206t133 157q-141 119 -141 304q0 187 126.5 298.5t328.5 111.5t328.5 -111.5t126.5 -298.5q0 -190 -141 -304q88 -61 134 -156t46 -207q0 -203 -138.5 -331t-355.5 -128zM349 428q0 -123 72 -189t194 -66t194.5 66.5
t72.5 188.5q0 123 -72.5 190t-194.5 67t-194 -67t-72 -190zM387 1095q0 -100 61.5 -152.5t166.5 -52.5t166.5 52.5t61.5 152.5q0 101 -62 154t-166 53t-166 -53t-62 -154z" />
    <glyph glyph-name="nine" unicode="9" horiz-adv-x="1272" 
d="M623 1504q141 0 257 -67.5t182.5 -188t66.5 -269.5v-470q0 -242 -146.5 -391t-381.5 -149q-245 0 -396 175l156 147q42 -55 105.5 -87t134.5 -32q134 0 222 92t88 217v176q-132 -132 -317 -132q-205 0 -341 139t-136 346q0 135 69 249t185 179.5t252 65.5zM334 1010
q0 -120 84 -204.5t204 -84.5t204.5 84.5t84.5 204.5q0 119 -84 203.5t-204 84.5t-204.5 -84t-84.5 -204z" />
    <glyph glyph-name="colon" unicode=":" horiz-adv-x="671" 
d="M225 143v227h227v-227h-227zM226 736v227h227v-227h-227z" />
    <glyph glyph-name="semicolon" unicode=";" horiz-adv-x="676" 
d="M239 -150q63 -5 87.5 37t16.5 113h-118v247h227v-267q0 -123 -59.5 -184t-167.5 -41zM225 880v226h227v-226h-227z" />
    <glyph glyph-name="less" unicode="&#x3c;" horiz-adv-x="1289" 
d="M775 157l-488 488l488 489l133 -134l-362 -355l362 -355z" />
    <glyph glyph-name="equal" unicode="=" horiz-adv-x="1536" 
d="M246 839v172h1044v-172h-1044zM246 464v172h1044v-172h-1044z" />
    <glyph glyph-name="greater" unicode="&#x3e;" horiz-adv-x="1289" 
d="M514 157l-133 133l362 355l-362 355l133 134l488 -489z" />
    <glyph glyph-name="question" unicode="?" horiz-adv-x="1113" 
d="M418 400q0 163 56 262q24 49 61 85t90 77t90 80q68 76 68 191q0 82 -40 131q-59 74 -187 74q-111 0 -168 -54q-62 -52 -60 -151h-226q8 97 49.5 180.5t110.5 135.5q119 93 287 93q244 0 366 -143q96 -110 96 -262q0 -177 -148 -332q-26 -27 -66.5 -61.5t-69.5 -63
t-46 -57.5q-18 -30 -26 -60t-9 -51.5t-1 -73.5h-227zM419 0v248h226v-248h-226z" />
    <glyph glyph-name="at" unicode="@" horiz-adv-x="1864" 
d="M931 -215q-165 0 -307.5 56.5t-243.5 154.5t-158.5 236.5t-57.5 296.5q0 186 59.5 337.5t163.5 250t242.5 151.5t298.5 53q189 0 340 -60.5t245 -163.5t142.5 -234.5t44.5 -278.5q-11 -411 -325 -411q-73 0 -135.5 27.5t-98.5 79.5q-81 -95 -231 -95q-156 0 -253.5 99.5
t-97.5 258.5q0 162 100.5 260t253.5 98q119 0 209 -65v36h138l-4 -367q0 -159 122 -159q52 0 83 31.5t42 80t13 121.5q2 122 -31 221t-89.5 162.5t-133.5 106.5t-156.5 61.5t-164.5 18.5q-187 0 -324 -79t-205.5 -217.5t-64.5 -317.5q6 -263 170 -420.5t423 -157.5
q150 0 273 60l59 -159q-156 -73 -341 -73zM742 544q0 -88 47.5 -136.5t133.5 -48.5q77 0 124 45t47 140q0 90 -43 137t-123 47q-91 0 -138.5 -48.5t-47.5 -135.5z" />
    <glyph glyph-name="A" unicode="A" horiz-adv-x="1348" 
d="M41 0l479 1475h308l480 -1475h-223l-109 333h-605l-108 -333h-222zM436 534h474l-238 727z" />
    <glyph glyph-name="B" unicode="B" horiz-adv-x="1280" 
d="M143 0v1475h580q102 0 185 -33.5t135 -90t79.5 -126.5t27.5 -147q0 -100 -41.5 -178t-115.5 -121q109 -46 168 -138t59 -211q0 -197 -117 -313.5t-325 -116.5h-635zM360 204h385q112 0 183.5 62.5t71.5 167.5q0 102 -66.5 169.5t-174.5 67.5h-399v-467zM360 872h360
q92 0 151.5 55t59.5 149q0 87 -58 142t-153 55h-360v-401z" />
    <glyph glyph-name="C" unicode="C" horiz-adv-x="1496" 
d="M759 -31q-217 0 -376 97t-240.5 270t-81.5 401t81.5 401t240.5 270t376 97q250 0 419 -126.5t236 -349.5l-217 -58q-44 158 -155.5 244.5t-282.5 86.5q-229 0 -349.5 -152t-121.5 -413q-2 -260 119.5 -412t351.5 -152q171 0 282.5 86.5t155.5 244.5l217 -59
q-67 -223 -236 -349.5t-419 -126.5z" />
    <glyph glyph-name="D" unicode="D" horiz-adv-x="1414" 
d="M143 0v1475h462q106 0 183 -10q168 -21 290 -124t181.5 -258.5t59.5 -345.5t-59.5 -345.5t-181.5 -258.5t-290 -124q-69 -9 -183 -9h-462zM362 204h243q114 0 168 10q82 16 144.5 64t100 119.5t56 157t18.5 182.5q0 134 -33 242t-106 185t-180 97q-54 10 -168 10h-243
v-1067z" />
    <glyph glyph-name="E" unicode="E" horiz-adv-x="1187" 
d="M143 0v1475h942v-202h-728v-414h606v-202h-606v-455h728v-202h-942z" />
    <glyph glyph-name="F" unicode="F" horiz-adv-x="1057" 
d="M143 0v1475h874v-214h-660v-416h537v-215h-537v-630h-214z" />
    <glyph glyph-name="G" unicode="G" horiz-adv-x="1480" 
d="M746 -31q-148 0 -273.5 52.5t-217 149.5t-143 242.5t-51.5 323.5q0 176 50.5 320.5t141 242t217 151t276.5 53.5q254 0 411.5 -118t215.5 -336l-217 -39q-45 136 -146.5 213t-250.5 78q-229 1 -349 -151.5t-121 -413.5q-1 -171 51 -296t158.5 -196t260.5 -72
q188 -2 297 106.5t132 314.5h-287v172h514q4 -35 4 -87q0 -154 -45.5 -284t-130 -225t-212 -148t-285.5 -53z" />
    <glyph glyph-name="H" unicode="H" horiz-adv-x="1453" 
d="M143 0v1475h214v-636h738v636h215v-1475h-215v637h-738v-637h-214z" />
    <glyph glyph-name="I" unicode="I" horiz-adv-x="541" 
d="M164 0v1475h214v-1475h-214z" />
    <glyph glyph-name="J" unicode="J" horiz-adv-x="1000" 
d="M424 -30q-160 0 -270.5 85t-153.5 233l212 50q14 -69 73 -117.5t132 -48.5q53 0 103.5 26t74.5 78q11 23 16.5 56.5t6 57.5t0.5 82v1003h218v-1003v-41v-40t-0.5 -35t-2 -35t-3.5 -30.5t-6 -32.5t-9 -29.5t-12 -32t-16 -30.5q-57 -99 -151 -147.5t-212 -48.5z" />
    <glyph glyph-name="K" unicode="K" horiz-adv-x="1289" 
d="M143 0v1475h214v-689l618 689h266l-652 -720l700 -755h-274l-658 705v-705h-214z" />
    <glyph glyph-name="L" unicode="L" horiz-adv-x="1076" 
d="M164 0v1475h214v-1273h668v-202h-882z" />
    <glyph glyph-name="M" unicode="M" horiz-adv-x="1741" 
d="M143 0v1475h194l534 -1109l532 1109h195v-1474h-202v1009l-476 -1010h-98l-477 1010v-1010h-202z" />
    <glyph glyph-name="N" unicode="N" horiz-adv-x="1446" 
d="M143 0v1475h217l726 -1096v1096h218v-1475h-218l-726 1097v-1097h-217z" />
    <glyph glyph-name="O" unicode="O" horiz-adv-x="1516" 
d="M759 -31q-217 0 -376 97t-240.5 270t-81.5 401t81.5 401t240.5 270t376 97t375.5 -97t239.5 -270t81 -401t-81 -401t-239.5 -270t-375.5 -97zM289 737q-1 -171 51 -296t158.5 -196t260.5 -72q229 -2 349 150.5t120 413.5q0 260 -120 412t-349 153q-153 1 -260 -70.5
t-158 -197.5t-52 -297z" />
    <glyph glyph-name="P" unicode="P" horiz-adv-x="1284" 
d="M143 0v1475h596q55 0 114 -9q180 -28 275 -153.5t95 -310.5q0 -122 -40.5 -218.5t-125 -161.5t-204.5 -84q-59 -9 -114 -9h-382v-529h-214zM357 732h374q53 0 93 9q62 15 104.5 58t59.5 94t17 109q0 91 -45 165t-136 96q-39 10 -93 10h-374v-541z" />
    <glyph glyph-name="Q" unicode="Q" horiz-adv-x="1516" 
d="M1299 -30l-123 124q-170 -125 -417 -125q-217 0 -376 97t-240.5 270t-81.5 401t81.5 401t240.5 270t376 97t375.5 -97t239.5 -270t81 -401q0 -307 -144 -506l124 -123zM289 737q-1 -171 51 -296t158.5 -196t260.5 -72q155 -1 264 72l-135 135l137 137l127 -127
q76 141 76 347q0 260 -120 412t-349 153q-153 1 -260 -70.5t-158 -197.5t-52 -297z" />
    <glyph glyph-name="R" unicode="R" horiz-adv-x="1332" 
d="M143 0v1475h596q55 0 114 -9q180 -28 275 -153.5t95 -310.5q0 -151 -64 -264t-187 -167l278 -571h-244l-257 529h-392v-529h-214zM357 732h374q53 0 93 9q62 15 104.5 58t59.5 94t17 109q0 91 -45 165t-136 96q-39 10 -93 10h-374v-541z" />
    <glyph glyph-name="S" unicode="S" horiz-adv-x="1317" 
d="M678 -31q-240 0 -403.5 122t-199.5 332l223 34q33 -134 140 -210t252 -76q138 0 234 64.5t96 171.5q0 75 -48 120.5t-137 72.5l-378 112q-50 15 -91 32t-86.5 47.5t-76 68.5t-51 95t-20.5 126q0 100 40.5 181t112 133.5t167.5 80.5t208 28q225 -2 376.5 -115.5
t196.5 -316.5l-229 -39q-23 123 -120 195t-227 74q-125 2 -212 -57.5t-87 -152.5q0 -44 20 -77.5t57.5 -56.5t71 -36t81.5 -26l272 -77q40 -11 65 -19t69.5 -26t74 -37t65.5 -50.5t57.5 -67.5t36.5 -87t15 -111q0 -108 -45.5 -195.5t-123.5 -142.5t-179.5 -84.5
t-216.5 -29.5z" />
    <glyph glyph-name="T" unicode="T" horiz-adv-x="1235" 
d="M511 0v1273h-491v202h1195v-202h-490v-1273h-214z" />
    <glyph glyph-name="U" unicode="U" horiz-adv-x="1462" 
d="M731 -31q-262 0 -425 157.5t-163 416.5v931l217 1v-921q0 -91 32 -165.5t85 -121t118.5 -71.5t135.5 -25q95 0 178 42.5t138 132t55 208.5v921h217v-932q0 -259 -163 -416.5t-425 -157.5z" />
    <glyph glyph-name="V" unicode="V" horiz-adv-x="1287" 
d="M489 0l-479 1475h222l409 -1259l414 1259h222l-479 -1475h-309z" />
    <glyph glyph-name="W" unicode="W" horiz-adv-x="1971" 
d="M456 0l-428 1475h224l310 -1116l310 1115l226 1l310 -1116l310 1116h226l-430 -1475h-212l-317 1103l-316 -1103h-213z" />
    <glyph glyph-name="X" unicode="X" horiz-adv-x="1308" 
d="M20 0l503 746l-489 729h262l359 -547l358 547h263l-490 -729l502 -746h-262l-371 564l-371 -564h-264z" />
    <glyph glyph-name="Y" unicode="Y" horiz-adv-x="1214" 
d="M499 0v609l-499 866h250l357 -620l358 620h249l-498 -866v-609h-217z" />
    <glyph glyph-name="Z" unicode="Z" horiz-adv-x="1325" 
d="M102 0v34l753 1239h-712v202h1080v-35l-749 -1237h735v-203h-1107z" />
    <glyph glyph-name="bracketleft" unicode="[" horiz-adv-x="856" 
d="M287 -438v2269h426v-193h-234v-1884h234v-192h-426z" />
    <glyph glyph-name="backslash" unicode="\" horiz-adv-x="855" 
d="M339 1475l393 -1475h-216l-393 1475h216z" />
    <glyph glyph-name="bracketright" unicode="]" horiz-adv-x="856" 
d="M569 -438h-426v192h234v1884h-234v193h426v-2269z" />
    <glyph glyph-name="asciicircum" unicode="^" horiz-adv-x="1385" 
d="M215 1018l488 488l489 -487l-133 -134l-356 362l-355 -362z" />
    <glyph glyph-name="underscore" unicode="_" horiz-adv-x="1351" 
d="M0 -239v172h1352v-172h-1352z" />
    <glyph glyph-name="grave" unicode="`" horiz-adv-x="1070" 
d="M485 1638l-145 359h168l145 -359h-168z" />
    <glyph glyph-name="a" unicode="a" horiz-adv-x="1166" 
d="M456 -31q-177 0 -275.5 95t-98.5 237q0 246 261 328q27 8 55.5 15t69 14.5t63.5 12t77 12.5t69.5 10.5t81.5 11.5t74 10q-5 116 -63.5 170t-186.5 54q-93 0 -163.5 -43t-97.5 -131l-200 61q41 146 158.5 228.5t304.5 82.5q153 0 261 -52.5t159 -158.5q24 -50 31 -106
t7 -139v-681h-189v161q-134 -192 -398 -192zM294 303q0 -69 51 -114t149 -45q128 0 210.5 65.5t103.5 154.5q20 59 22 173q-301 -45 -384 -70q-152 -52 -152 -164z" />
    <glyph glyph-name="b" unicode="b" horiz-adv-x="1245" 
d="M663 -31q-202 0 -330 131v-100h-191v1475h215v-445q121 107 301 107q229 0 367 -164t138 -419q0 -166 -60 -298.5t-174.5 -209.5t-265.5 -77zM333 554q0 -181 74 -286t226 -105q148 0 225.5 109t77.5 282q0 172 -78.5 280.5t-231.5 108.5q-146 0 -219.5 -105t-73.5 -284z
" />
    <glyph glyph-name="c" unicode="c" horiz-adv-x="1164" 
d="M616 -31q-248 0 -390 162.5t-144 421.5q2 261 146.5 422.5t391.5 161.5q181 0 309.5 -90.5t169.5 -246.5l-213 -62q-31 92 -103.5 144.5t-166.5 52.5q-152 0 -229 -104t-78 -278q1 -176 79.5 -279t227.5 -103q196 0 266 184l217 -51q-55 -162 -179.5 -248.5t-303.5 -86.5
z" />
    <glyph glyph-name="d" unicode="d" horiz-adv-x="1246" 
d="M583 -31q-151 0 -266 77t-175 209.5t-60 298.5q0 255 138 419t367 164q180 0 301 -107v445h215v-1475h-191v100q-128 -131 -329 -131zM309 554q0 -173 77.5 -282t225.5 -109q152 0 226 105t74 286q0 179 -73 284t-219 105q-153 0 -232 -108.5t-79 -280.5z" />
    <glyph glyph-name="e" unicode="e" horiz-adv-x="1221" 
d="M634 -31q-248 0 -400 159t-152 416q0 270 149 431.5t393 161.5q253 0 391 -173.5t121 -470.5h-825q13 -155 93.5 -238.5t219.5 -83.5q100 0 173 45t114 131l210 -66q-64 -147 -194.5 -229.5t-292.5 -82.5zM316 659h600q-17 146 -87 217t-197 71q-273 0 -316 -288z" />
    <glyph glyph-name="f" unicode="f" horiz-adv-x="758" 
d="M245 1145q0 60 2 93.5t18.5 86.5t49.5 89q30 33 66 53t80 27.5t68 9t70 1.5h139v-176h-129q-150 0 -150 -143v-80h279v-172h-279v-934h-214v934h-184v172h184v39z" />
    <glyph glyph-name="g" unicode="g" horiz-adv-x="1245" 
d="M599 -522q-137 0 -254.5 62.5t-183.5 178.5l197 101q34 -68 99.5 -102t143.5 -34q138 0 213 73.5t73 214.5v105q-122 -108 -304 -108q-151 0 -266 77t-175 209.5t-60 298.5q0 255 138 419t367 164q200 0 325 -130v99h190v-1136q0 -93 -15 -164q-34 -164 -161.5 -246
t-326.5 -82zM309 554q0 -173 77.5 -282t225.5 -109q152 0 226 105t74 286q0 179 -73 284t-219 105q-153 0 -232 -108.5t-79 -280.5z" />
    <glyph glyph-name="h" unicode="h" 
d="M920 544q0 57 -6 107t-24.5 103.5t-48.5 91.5t-81.5 62.5t-119.5 24.5q-126 0 -203.5 -86.5t-77.5 -271.5v-575h-217v1475h192v-501q130 162 365 162q109 0 191.5 -39t128 -95t73.5 -131.5t36.5 -136t8.5 -120.5v-614h-217v544z" />
    <glyph glyph-name="i" unicode="i" horiz-adv-x="541" 
d="M164 1287v208h214v-208h-214zM164 0v1106h214v-1106h-214z" />
    <glyph glyph-name="j" unicode="j" horiz-adv-x="564" 
d="M-20 -492v203h56q85 0 124.5 40.5t39.5 126.5v1228h215v-1315q0 -135 -75 -209t-212 -74h-148zM200 1287v208h215v-208h-215z" />
    <glyph glyph-name="k" unicode="k" horiz-adv-x="1073" 
d="M142 0l1 1475h217v-902l435 533h272l-459 -553l506 -553h-291l-463 532v-532h-218z" />
    <glyph glyph-name="l" unicode="l" horiz-adv-x="541" 
d="M164 0v1475h214v-1475h-214z" />
    <glyph glyph-name="m" unicode="m" horiz-adv-x="1806" 
d="M1469 689q0 118 -61 186t-162 68q-97 0 -161 -66t-64 -186l-1 -691h-214l1 685q0 119 -60.5 188.5t-163.5 69.5q-101 0 -163.5 -69.5t-62.5 -182.5v-691h-215v1106h191v-119q54 69 136.5 108t180.5 39q113 0 195.5 -47t126.5 -133q51 84 140 132t196 48
q176 0 275.5 -106.5t99.5 -287.5l-1 -740h-214z" />
    <glyph glyph-name="n" unicode="n" 
d="M920 544q0 57 -6 107t-24.5 103.5t-48.5 91.5t-81.5 62.5t-119.5 24.5q-126 0 -203.5 -86.5t-77.5 -271.5v-575h-217v1106h192v-132q130 162 365 162q109 0 191.5 -39t128 -95t73.5 -131.5t36.5 -136t8.5 -120.5v-614h-217v544z" />
    <glyph glyph-name="o" unicode="o" horiz-adv-x="1248" 
d="M624 -31q-246 0 -394 162.5t-148 422.5t149 421.5t393 161.5q247 0 394.5 -162t147.5 -421q0 -261 -148 -423t-394 -162zM309 554q0 -178 81.5 -280.5t233.5 -102.5q154 0 234.5 104t80.5 279q0 177 -80.5 279t-234.5 102q-156 0 -235.5 -103t-79.5 -278z" />
    <glyph glyph-name="p" unicode="p" horiz-adv-x="1245" 
d="M663 -31q-183 0 -306 109v-570h-215v1598h191v-99q125 130 325 130q229 0 367 -164t138 -419q0 -166 -60 -298.5t-174.5 -209.5t-265.5 -77zM333 554q0 -181 74 -286t226 -105q148 0 225.5 109t77.5 282q0 172 -78.5 280.5t-231.5 108.5q-146 0 -219.5 -105t-73.5 -284z
" />
    <glyph glyph-name="q" unicode="q" horiz-adv-x="1246" 
d="M583 -31q-151 0 -266 77t-175 209.5t-60 298.5q0 255 138 419t367 164q200 0 325 -130v99h191v-1598h-215v570q-123 -109 -305 -109zM309 554q0 -173 77.5 -282t225.5 -109q152 0 226 105t74 286q0 179 -73 284t-219 105q-153 0 -232 -108.5t-79 -280.5z" />
    <glyph glyph-name="r" unicode="r" horiz-adv-x="791" 
d="M143 0v1106h191v-176q41 72 102 113q61 44 144 60.5t160 2.5v-201q-51 16 -119.5 8t-121.5 -42q-140 -90 -140 -313v-558h-216z" />
    <glyph glyph-name="s" unicode="s" horiz-adv-x="1097" 
d="M566 -30q-202 0 -329 89t-155 251l219 34q21 -87 95.5 -136t184.5 -49q100 0 157 40.5t57 112.5q0 44 -21.5 69t-80 47.5t-195.5 59.5q-214 56 -297 125.5t-83 191.5q0 151 117.5 241.5t312.5 90.5q191 0 316.5 -88.5t144.5 -236.5l-219 -40q-11 79 -75 125.5t-165 50.5
q-98 4 -158 -32.5t-60 -99.5q0 -56 57.5 -87.5t251.5 -80.5q209 -54 291.5 -126.5t82.5 -200.5q0 -164 -119.5 -257.5t-329.5 -93.5z" />
    <glyph glyph-name="t" unicode="t" horiz-adv-x="865" 
d="M776 0q-81 -16 -155.5 -18t-143 11.5t-122 49t-82.5 91.5q-10 19 -17.5 38t-12 41.5t-7 37.5t-3.5 44.5t-1.5 41.5t0 49t0.5 49v499h-212v172h212v307h215v-307h329v-172h-329v-489v-35.5v-35.5t0.5 -29.5t2 -29.5t4 -23.5t6.5 -25t10 -19.5q24 -40 69.5 -59t104 -18
t132.5 11v-181z" />
    <glyph glyph-name="u" unicode="u" 
d="M560 -30q-109 0 -191.5 39t-127.5 95t-73 131.5t-36.5 135.5t-8.5 121v614h217v-544q0 -57 6 -107t24.5 -103.5t48.5 -91.5t81.5 -62.5t119.5 -24.5q126 0 203 86t77 271v576h216v-1106h-190v132q-130 -162 -366 -162z" />
    <glyph glyph-name="v" unicode="v" horiz-adv-x="1101" 
d="M442 0l-401 1106h216l294 -838l294 838h216l-402 -1106h-217z" />
    <glyph glyph-name="w" unicode="w" horiz-adv-x="1618" 
d="M379 0l-338 1107l212 -1l231 -759l234 759h184l234 -759l231 759h211l-338 -1106h-172l-258 801l-259 -801h-172z" />
    <glyph glyph-name="x" unicode="x" horiz-adv-x="1116" 
d="M20 0l414 559l-404 547h254l275 -380l272 380h254l-404 -547l415 -559h-255l-282 392l-284 -392h-255z" />
    <glyph glyph-name="y" unicode="y" horiz-adv-x="1123" 
d="M293 -492l182 497l-447 1101h223l327 -832l312 832h217l-610 -1598h-204z" />
    <glyph glyph-name="z" unicode="z" horiz-adv-x="1090" 
d="M41 0v34l628 880h-571v192h911v-35l-627 -880h596v-191h-937z" />
    <glyph glyph-name="braceleft" unicode="{" horiz-adv-x="899" 
d="M680 -438q-124 0 -198 74t-74 197v633q0 25 -15 47l-89 126q-18 26 -18 57.5t18 57.5l89 126q15 23 15 47v632q0 123 74 197.5t198 74.5h134v-204h-120q-34 0 -58.5 -24t-24.5 -58v-618q0 -91 -52 -164l-48 -67l48 -66q52 -73 52 -164v-619q0 -35 24 -59.5t59 -24.5h120
v-201h-134z" />
    <glyph glyph-name="bar" unicode="|" horiz-adv-x="582" 
d="M184 0v1475h214v-1475h-214z" />
    <glyph glyph-name="braceright" unicode="}" horiz-adv-x="899" 
d="M219 -438h-134v201h120q35 0 59 24.5t24 59.5v619q0 91 52 164l48 66l-48 67q-52 73 -52 164v618q0 34 -24.5 58t-58.5 24h-120v204h134q124 0 198.5 -74.5t74.5 -197.5v-632q0 -25 14 -47l89 -126q18 -26 18 -57.5t-18 -57.5l-89 -126q-14 -20 -14 -47v-633
q0 -123 -74.5 -197t-198.5 -74z" />
    <glyph glyph-name="asciitilde" unicode="~" horiz-adv-x="1429" 
d="M947 438q-59 0 -126.5 29.5t-117 65t-105 65t-93.5 29.5q-48 0 -66 -46.5t1 -109.5h-196q-39 164 23.5 272.5t212.5 108.5q59 0 127 -29.5t118 -64.5t106 -64.5t93 -29.5q46 0 65 45t0 111h196q21 -79 14 -148.5t-35.5 -121.5t-84.5 -82t-132 -30z" />
    <glyph glyph-name="uni00A0" unicode="&#xa0;" horiz-adv-x="409" 
 />
    <glyph glyph-name="exclamdown" unicode="&#xa1;" horiz-adv-x="705" 
d="M246 1106h214v-208h-214v208zM246 -369v1106h214v-1106h-214z" />
    <glyph glyph-name="cent" unicode="&#xa2;" horiz-adv-x="1164" 
d="M540 128q-215 26 -335.5 183.5t-122.5 395.5q2 238 123.5 394.5t334.5 182.5v191h172v-192q147 -23 249 -109.5t138 -220.5l-213 -61q-31 92 -103.5 144.5t-166.5 52.5q-152 0 -229 -104t-78 -278q1 -176 79.5 -279t227.5 -103q196 0 266 184l217 -51
q-47 -139 -146 -222.5t-241 -105.5v-190h-172v188z" />
    <glyph glyph-name="sterling" unicode="&#xa3;" horiz-adv-x="1169" 
d="M75 0v202h53q61 0 105.5 45t44.5 106v288h-203v204h203v269q0 168 117.5 279.5t289.5 111.5q280 0 410 -369l-195 -64q-35 115 -86.5 172.5t-128.5 57.5q-85 0 -136.5 -54.5t-51.5 -142.5l-1 -260h330v-204h-330l-1 -439h517v-202h-937z" />
    <glyph glyph-name="currency" unicode="&#xa4;" horiz-adv-x="1352" 
d="M677 201q-164 0 -300 92l-172 -170l-144 143l171 171q-92 136 -92 302q0 162 91 298l-170 170l144 145l170 -170q137 94 302 94q164 0 302 -93l169 169l143 -145l-168 -168q92 -136 92 -300q0 -166 -94 -303l170 -170l-143 -143l-170 170q-136 -92 -301 -92zM325 737
q0 -144 103 -248t249 -104q145 0 248.5 104.5t103.5 247.5q0 146 -104.5 250t-247.5 104q-147 0 -249.5 -103.5t-102.5 -250.5z" />
    <glyph glyph-name="yen" unicode="&#xa5;" horiz-adv-x="1214" 
d="M198 534v172h245l-443 769h250l357 -620l358 620h249l-443 -769h246v-172h-301v-150h301v-172h-301v-212h-217v212h-301v172h301v150h-301z" />
    <glyph glyph-name="brokenbar" unicode="&#xa6;" horiz-adv-x="582" 
d="M184 667v808h214v-808h-214zM184 -385v808h214v-808h-214z" />
    <glyph glyph-name="section" unicode="&#xa7;" horiz-adv-x="1097" 
d="M567 -296q-115 0 -208 34.5t-160.5 113t-88.5 192.5l219 34q21 -91 92.5 -138.5t159.5 -47.5q81 0 137 40t56 114q0 25 -6 43.5t-25.5 34.5t-36 26t-59.5 24t-73 22.5t-97 25.5q-196 51 -288 118t-92 185q0 93 53.5 157t142.5 96q-85 40 -127 98.5t-42 146.5q0 82 35 147
t93 104.5t128.5 60t146.5 20.5q164 0 285.5 -87.5t141.5 -237.5l-219 -40q-16 91 -74.5 134.5t-141.5 43.5q-77 0 -128.5 -35t-51.5 -95q0 -17 4 -31.5t15 -26.5t20.5 -21.5t31 -19t35 -15.5t44 -15t47.5 -13.5t55 -14.5l57 -15q77 -21 130 -40t102.5 -46t78.5 -58t46 -75
t17 -100q0 -92 -41.5 -157.5t-116.5 -98.5q130 -79 130 -235q0 -167 -119 -259.5t-308 -92.5zM311 554q0 -33 17.5 -57.5t54 -41.5t79.5 -30t107 -30q34 -8 52 -13l58 -16q54 23 88.5 65t34.5 99q0 25 -6 43.5t-25 34.5t-36.5 26.5t-59.5 24.5t-73 22.5t-97 25.5l-26 7
q-168 -58 -168 -160z" />
    <glyph glyph-name="dieresis" unicode="&#xa8;" horiz-adv-x="1108" 
d="M658 1660v205h205v-205h-205zM246 1660v205h205v-205h-205z" />
    <glyph glyph-name="copyright" unicode="&#xa9;" horiz-adv-x="1758" 
d="M880 -99q-167 0 -318.5 64.5t-261 174.5t-174.5 261t-65 318t65 318t174.5 261t261 174.5t318.5 64.5t318 -64.5t260.5 -174.5t174 -261t64.5 -318t-64.5 -318t-174 -261t-260.5 -174.5t-318 -64.5zM264 720q0 -168 82.5 -309.5t224 -224t309.5 -82.5q167 0 308 82.5
t223 224t82 309.5q0 167 -82 308t-223 223t-308 82q-168 0 -309.5 -82t-224 -223t-82.5 -308zM492 720q2 181 97 299q112 136 312 136q116 0 204 -54q115 -69 149 -202l-167 -46q-21 62 -74 104q-50 40 -121 40q-103 0 -168 -81q-53 -69 -53 -195q0 -124 53 -198
q60 -80 170 -80q77 0 123 37q42 36 67 98l170 -39q-41 -121 -132 -188t-229 -67q-195 0 -304 135q-97 121 -97 301z" />
    <glyph glyph-name="ordfeminine" unicode="&#xaa;" horiz-adv-x="651" 
d="M267 553q-87 0 -136 48t-49 119q0 121 126 166q62 19 241 45q-4 48 -31 70.5t-83 22.5q-41 0 -74.5 -19.5t-45.5 -58.5l-114 36q22 73 81 114t154 41q161 0 213 -103q20 -41 20 -127v-339h-107v75q-68 -90 -195 -90zM203 722q0 -32 23.5 -51.5t65.5 -19.5q57 0 94.5 28.5
t47.5 63.5q11 28 13 86q-138 -22 -177 -34q-67 -25 -67 -73z" />
    <glyph glyph-name="guillemotleft" unicode="&#xab;" horiz-adv-x="1166" 
d="M919 102l-359 452l359 451l117 -94l-285 -357l285 -358zM164 554l358 451l118 -94l-285 -357l285 -358l-118 -94z" />
    <glyph glyph-name="logicalnot" unicode="&#xac;" horiz-adv-x="1228" 
d="M934 387v245h-811v172h983v-417h-172z" />
    <glyph glyph-name="uni00AD" unicode="&#xad;" horiz-adv-x="860" 
d="M123 560v172h614v-172h-614z" />
    <glyph glyph-name="registered" unicode="&#xae;" horiz-adv-x="1320" 
d="M660 568q-140 0 -259 69.5t-188.5 188.5t-69.5 260q0 140 69.5 259t188.5 188.5t259 69.5t259.5 -69.5t189 -188.5t69.5 -259q0 -141 -69.5 -260t-189 -188.5t-259.5 -69.5zM292 1086q0 -152 108.5 -260t261.5 -108q152 0 260 108t108 260q0 153 -108 261t-260 108
q-154 0 -262 -107.5t-108 -261.5zM492 847v482h205q71 0 116.5 -44.5t47.5 -114.5q0 -93 -86 -141l90 -182h-98l-80 167h-109v-167h-86zM578 1095h121q31 0 52.5 21.5t21.5 53.5q0 35 -20.5 56t-53.5 21h-121v-152z" />
    <glyph glyph-name="macron" unicode="&#xaf;" horiz-adv-x="1027" 
d="M246 1720v171h535v-171h-535z" />
    <glyph glyph-name="degree" unicode="&#xb0;" horiz-adv-x="921" 
d="M430 768q-153 0 -261 108t-108 261q0 150 110 259t259 109q153 0 261 -107.5t108 -260.5t-108 -261t-261 -108zM247 1137q0 -74 54.5 -129t128.5 -55t128.5 55t54.5 129t-54.5 128.5t-128.5 54.5t-128.5 -54.5t-54.5 -128.5z" />
    <glyph glyph-name="plusminus" unicode="&#xb1;" horiz-adv-x="1228" 
d="M529 451v242h-406v172h406v241h172v-241h405v-172h-405v-242h-172zM123 142v172h983v-172h-983z" />
    <glyph glyph-name="uni00B2" unicode="&#xb2;" horiz-adv-x="835" 
d="M102 553l1 127l398 357q84 73 84 153q0 73 -46 121t-117 48q-73 0 -122 -49.5t-47 -117.5h-149q0 136 89.5 219.5t231.5 83.5q133 0 220.5 -86.5t87.5 -219.5q0 -47 -9 -83.5t-31.5 -69.5t-46.5 -58t-68 -64l-252 -225h407v-136h-631z" />
    <glyph glyph-name="uni00B3" unicode="&#xb3;" horiz-adv-x="818" 
d="M382 531q-104 0 -187.5 60t-112.5 159l140 37q17 -57 60.5 -87.5t99.5 -30.5q72 1 119 48.5t47 119.5q0 73 -47 121.5t-119 48.5q-40 0 -84 -23l-68 114l274 239h-385v138h562v-139l-220 -211q108 -18 171 -97.5t63 -190.5q0 -131 -90.5 -218.5t-222.5 -87.5z" />
    <glyph glyph-name="acute" unicode="&#xb4;" horiz-adv-x="1070" 
d="M585 1638h-168l145 359h168z" />
    <glyph glyph-name="uni00B5" unicode="&#xb5;" horiz-adv-x="1278" 
d="M142 -492v1598h217v-544q0 -57 6.5 -107t25 -103.5t48 -91.5t81 -62.5t118.5 -24.5q127 0 204.5 86t77.5 271v576h216v-1106h-191v136q-125 -166 -365 -166q-155 0 -247 87v-549h-191z" />
    <glyph glyph-name="paragraph" unicode="&#xb6;" horiz-adv-x="1410" 
d="M694 -289v818h-95q-49 0 -113 9q-178 27 -274 153t-96 311q0 184 95 311t275 153q64 9 113 9h309v-1764h-214zM1079 -289v1764h214v-1764h-214z" />
    <glyph glyph-name="periodcentered" unicode="&#xb7;" horiz-adv-x="519" 
d="M263 509q-60 0 -100 38.5t-40 97.5t40 97.5t100 38.5q55 0 94 -39t39 -97t-39 -97t-94 -39z" />
    <glyph glyph-name="cedilla" unicode="&#xb8;" horiz-adv-x="835" 
d="M384 -494q-66 0 -138 36l49 131q44 -14 71 -14q32 0 50.5 18.5t18.5 44.5q0 16 -8 29.5t-18 22t-31 18t-35 14l-42 13.5l74 209l136 2l-44 -127q124 -60 124 -187q0 -91 -60.5 -150.5t-146.5 -59.5z" />
    <glyph glyph-name="uni00B9" unicode="&#xb9;" horiz-adv-x="689" 
d="M296 553v764l-173 -106v160l173 104h147v-922h-147z" />
    <glyph glyph-name="ordmasculine" unicode="&#xba;" horiz-adv-x="714" 
d="M357 553q-124 0 -199.5 81.5t-75.5 210.5q0 130 76 211t199 81q124 0 200 -81.5t76 -210.5t-76.5 -210.5t-199.5 -81.5zM213 845q0 -83 37 -129.5t107 -46.5q71 0 108.5 48t37.5 128q0 82 -37.5 129t-108.5 47q-72 0 -108 -47.5t-36 -128.5z" />
    <glyph glyph-name="guillemotright" unicode="&#xbb;" horiz-adv-x="1166" 
d="M248 102l-118 94l286 358l-286 357l118 94l358 -451zM526 196l285 358l-285 357l118 94l358 -451l-358 -452z" />
    <glyph glyph-name="onequarter" unicode="&#xbc;" horiz-adv-x="2077" 
d="M296 553v764l-173 -106v160l173 104h147v-922h-147zM357 98l1032 1386l130 -99l-1032 -1385zM1185 157v136l298 629h165l-298 -629h247v245h146v-245h89v-136h-89v-157h-146v157h-412z" />
    <glyph glyph-name="onehalf" unicode="&#xbd;" horiz-adv-x="2022" 
d="M296 553v764l-173 -106v160l173 104h147v-922h-147zM357 98l1032 1386l130 -99l-1032 -1385zM1289 0l1 127l398 357q84 73 84 153q0 73 -46 121t-117 48q-73 0 -122 -49.5t-47 -117.5h-149q0 136 89.5 219.5t231.5 83.5q133 0 220.5 -86.5t87.5 -219.5q0 -47 -9 -83.5
t-32 -69.5t-47 -58t-68 -64l-252 -225h408v-136h-631z" />
    <glyph glyph-name="threequarters" unicode="&#xbe;" horiz-adv-x="2071" 
d="M382 531q-104 0 -187.5 60t-112.5 159l140 37q17 -57 60.5 -87.5t99.5 -30.5q72 1 119 48.5t47 119.5q0 73 -47 121.5t-119 48.5q-40 0 -84 -23l-68 114l274 239h-385v138h562v-139l-220 -211q108 -18 171 -97.5t63 -190.5q0 -131 -90.5 -218.5t-222.5 -87.5zM486 98
l1032 1386l130 -99l-1032 -1385zM1302 157v136l297 629h165l-298 -629h248v245h146v-245h89v-136h-89v-157h-146v157h-412z" />
    <glyph glyph-name="questiondown" unicode="&#xbf;" horiz-adv-x="1113" 
d="M695 706q0 -163 -56 -262q-24 -49 -61 -85t-90 -77t-90 -80q-68 -76 -68 -191q0 -82 40 -131q60 -75 187 -75q110 0 168 55q62 52 60 151h226q-8 -97 -49.5 -180.5t-110.5 -135.5q-119 -93 -287 -93q-244 0 -366 143q-96 110 -96 262q0 177 148 332q26 27 66.5 61.5
t69.5 63t46 57.5q18 30 26 60t9 51.5t1 73.5h227zM468 858v248h226v-248h-226z" />
    <glyph glyph-name="Agrave" unicode="&#xc0;" horiz-adv-x="1348" 
d="M1308 0h-223l-107 333h-605l-110 -333h-222l479 1475h308zM423 1997h168l145 -359h-168zM438 534h474l-235 727z" />
    <glyph glyph-name="Aacute" unicode="&#xc1;" horiz-adv-x="1348" 
d="M41 0l479 1475h308l480 -1475h-223l-109 333h-605l-108 -333h-222zM436 534h474l-238 727zM612 1638l146 359h168l-146 -359h-168z" />
    <glyph glyph-name="Acircumflex" unicode="&#xc2;" horiz-adv-x="1348" 
d="M41 0l479 1475h308l480 -1475h-223l-109 333h-605l-108 -333h-222zM315 1638l265 308h185l264 -308h-205l-152 182l-152 -182h-205zM436 534h474l-238 727z" />
    <glyph glyph-name="Atilde" unicode="&#xc3;" horiz-adv-x="1348" 
d="M41 0l479 1475h308l480 -1475h-223l-109 333h-605l-108 -333h-222zM341 1717q-28 116 17 193.5t151 77.5q42 0 90 -21t83.5 -46.5t74.5 -46.5t66 -21q33 0 46 32.5t0 79.5h140q29 -116 -16.5 -193.5t-152.5 -77.5q-42 0 -90 21t-83.5 46t-74.5 46t-66 21
q-34 0 -46.5 -33.5t0.5 -77.5h-139zM436 534h474l-238 727z" />
    <glyph glyph-name="Adieresis" unicode="&#xc4;" horiz-adv-x="1348" 
d="M41 0l479 1475h308l480 -1475h-223l-109 333h-605l-108 -333h-222zM367 1660v205h204v-205h-204zM436 534h474l-238 727zM779 1660v205h205v-205h-205z" />
    <glyph glyph-name="Aring" unicode="&#xc5;" horiz-adv-x="1348" 
d="M41 0l479 1475h308l480 -1475h-223l-109 333h-605l-108 -333h-222zM424 1841q0 103 74 177t177 74t177 -74t74 -177t-74 -177t-177 -74t-177 74t-74 177zM436 534h474l-238 727zM562 1841q0 -46 33.5 -79t79.5 -33t79 33t33 79q0 47 -33 80t-79 33t-79.5 -33.5
t-33.5 -79.5z" />
    <glyph glyph-name="AE" unicode="&#xc6;" horiz-adv-x="1907" 
d="M41 0l479 1475h1285v-202h-728v-414h605v-202h-605v-455h728v-202h-942v333h-492l-108 -333h-222zM436 534h427v739h-187z" />
    <glyph glyph-name="Ccedilla" unicode="&#xc7;" horiz-adv-x="1496" 
d="M739 -494q-66 0 -138 36l49 131q44 -14 71 -14q32 0 51 18.5t19 44.5t-21.5 45.5t-44.5 28.5t-69 23l54 151q-305 17 -477 225.5t-172 541.5q0 228 81.5 401t240.5 270t376 97q250 0 419 -126.5t236 -349.5l-217 -58q-44 158 -155.5 244.5t-282.5 86.5
q-229 0 -349.5 -152t-121.5 -413q-2 -260 119.5 -412t351.5 -152q171 0 282.5 86.5t155.5 244.5l217 -59q-60 -202 -205.5 -326t-361.5 -146l-25 -70q124 -60 124 -187q0 -91 -60.5 -150.5t-146.5 -59.5z" />
    <glyph glyph-name="Egrave" unicode="&#xc8;" horiz-adv-x="1187" 
d="M143 0v1475h942v-202h-728v-414h606v-202h-606v-455h728v-202h-942zM410 1997h168l145 -359h-168z" />
    <glyph glyph-name="Eacute" unicode="&#xc9;" horiz-adv-x="1187" 
d="M143 0v1475h942v-202h-728v-414h606v-202h-606v-455h728v-202h-942zM557 1638l145 359h168l-145 -359h-168z" />
    <glyph glyph-name="Ecircumflex" unicode="&#xca;" horiz-adv-x="1187" 
d="M143 0v1475h942v-202h-728v-414h606v-202h-606v-455h728v-202h-942zM245 1638l264 308h185l264 -308h-204l-153 182l-151 -182h-205z" />
    <glyph glyph-name="Edieresis" unicode="&#xcb;" horiz-adv-x="1187" 
d="M143 0v1475h942v-202h-728v-414h606v-202h-606v-455h728v-202h-942zM294 1660v205h205v-205h-205zM707 1660v205h204v-205h-204z" />
    <glyph glyph-name="Igrave" unicode="&#xcc;" horiz-adv-x="541" 
d="M164 0v1475h214v-1475h-214zM38 1997h168l145 -359h-168z" />
    <glyph glyph-name="Iacute" unicode="&#xcd;" horiz-adv-x="541" 
d="M164 0v1475h214v-1475h-214zM190 1638l146 359h168l-146 -359h-168z" />
    <glyph glyph-name="Icircumflex" unicode="&#xce;" horiz-adv-x="541" 
d="M164 0v1475h214v-1475h-214zM-88 1638l264 308h185l265 -308h-205l-153 182l-151 -182h-205z" />
    <glyph glyph-name="Idieresis" unicode="&#xcf;" horiz-adv-x="541" 
d="M164 0v1475h214v-1475h-214zM-38 1660v205h205v-205h-205zM375 1660v205h205v-205h-205z" />
    <glyph glyph-name="Eth" unicode="&#xd0;" horiz-adv-x="1412" 
d="M20 652v172h121v651h462q106 0 183 -10q168 -21 290 -124t181.5 -258.5t59.5 -345.5t-59.5 -345.5t-181.5 -258.5t-290 -124q-69 -9 -183 -9h-462v652h-121zM360 204h243q114 0 168 10q82 16 144.5 64t100 119.5t56 157t18.5 182.5q0 134 -33 242t-106 185t-180 97
q-54 10 -168 10h-243v-447h336v-172h-336v-448z" />
    <glyph glyph-name="Ntilde" unicode="&#xd1;" horiz-adv-x="1446" 
d="M143 0v1475h217l726 -1096v1096h218v-1475h-218l-726 1097v-1097h-217zM414 1666q-28 116 17 193t151 77q53 0 114.5 -33.5t114 -67t85.5 -33.5t46 32.5t0 79.5h139q29 -116 -16.5 -194t-152.5 -78q-42 0 -90 21t-83 46.5t-74 46.5t-66 21q-34 0 -46.5 -33.5t0.5 -77.5
h-139z" />
    <glyph glyph-name="Ograve" unicode="&#xd2;" horiz-adv-x="1516" 
d="M759 -31q-217 0 -376 97t-240.5 270t-81.5 401t81.5 401t240.5 270t376 97t375.5 -97t239.5 -270t81 -401t-81 -401t-239.5 -270t-375.5 -97zM289 737q-1 -171 51 -296t158.5 -196t260.5 -72q229 -2 349 150.5t120 413.5q0 260 -120 412t-349 153q-153 1 -260 -70.5
t-158 -197.5t-52 -297zM512 1997h168l145 -359h-168z" />
    <glyph glyph-name="Oacute" unicode="&#xd3;" horiz-adv-x="1516" 
d="M759 -31q-217 0 -376 97t-240.5 270t-81.5 401t81.5 401t240.5 270t376 97t375.5 -97t239.5 -270t81 -401t-81 -401t-239.5 -270t-375.5 -97zM289 737q-1 -171 51 -296t158.5 -196t260.5 -72q229 -2 349 150.5t120 413.5q0 260 -120 412t-349 153q-153 1 -260 -70.5
t-158 -197.5t-52 -297zM688 1638l146 359h167l-145 -359h-168z" />
    <glyph glyph-name="Ocircumflex" unicode="&#xd4;" horiz-adv-x="1516" 
d="M759 -31q-217 0 -376 97t-240.5 270t-81.5 401t81.5 401t240.5 270t376 97t375.5 -97t239.5 -270t81 -401t-81 -401t-239.5 -270t-375.5 -97zM289 737q-1 -171 51 -296t158.5 -196t260.5 -72q229 -2 349 150.5t120 413.5q0 260 -120 412t-349 153q-153 1 -260 -70.5
t-158 -197.5t-52 -297zM399 1638l265 308h185l264 -308h-205l-152 182l-152 -182h-205z" />
    <glyph glyph-name="Otilde" unicode="&#xd5;" horiz-adv-x="1516" 
d="M759 -31q-217 0 -376 97t-240.5 270t-81.5 401t81.5 401t240.5 270t376 97t375.5 -97t239.5 -270t81 -401t-81 -401t-239.5 -270t-375.5 -97zM289 737q-1 -171 51 -296t158.5 -196t260.5 -72q229 -2 349 150.5t120 413.5q0 260 -120 412t-349 153q-153 1 -260 -70.5
t-158 -197.5t-52 -297zM438 1666q-28 116 17 193t151 77q53 0 114.5 -33.5t114.5 -67t86 -33.5t46 32.5t0 79.5h139q29 -116 -16.5 -194t-152.5 -78q-42 0 -90 21t-83 46.5t-74 46.5t-66 21q-34 0 -46.5 -33.5t0.5 -77.5h-140z" />
    <glyph glyph-name="Odieresis" unicode="&#xd6;" horiz-adv-x="1516" 
d="M759 -31q-217 0 -376 97t-240.5 270t-81.5 401t81.5 401t240.5 270t376 97t375.5 -97t239.5 -270t81 -401t-81 -401t-239.5 -270t-375.5 -97zM289 737q-1 -171 51 -296t158.5 -196t260.5 -72q229 -2 349 150.5t120 413.5q0 260 -120 412t-349 153q-153 1 -260 -70.5
t-158 -197.5t-52 -297zM450 1660v205h204v-205h-204zM862 1660v205h205v-205h-205z" />
    <glyph glyph-name="multiply" unicode="&#xd7;" horiz-adv-x="1025" 
d="M780 349l-268 267l-268 -267l-121 121l267 268l-266 267l122 121l266 -266l267 267l122 -121l-267 -268l267 -268z" />
    <glyph glyph-name="Oslash" unicode="&#xd8;" horiz-adv-x="1516" 
d="M220 -27l-152 137l126 139q-133 199 -133 488q0 228 81.5 401t240.5 270t376 97q264 0 440 -142l123 136l153 -136l-140 -156q120 -194 120 -470q0 -228 -81 -401t-239.5 -270t-375.5 -97q-251 0 -425 130zM289 737q0 -189 62 -319l707 782q-116 101 -299 102
q-153 1 -260 -70.5t-158 -197.5t-52 -297zM474 261q114 -87 285 -88q229 -2 349 150.5t120 413.5q0 175 -53 300z" />
    <glyph glyph-name="Ugrave" unicode="&#xd9;" horiz-adv-x="1462" 
d="M731 -31q-262 0 -425 157.5t-163 416.5v931l217 1v-921q0 -91 32 -165.5t85 -121t118.5 -71.5t135.5 -25q95 0 178 42.5t138 132t55 208.5v921h217v-932q0 -259 -163 -416.5t-425 -157.5zM521 1997h168l146 -359h-168z" />
    <glyph glyph-name="Uacute" unicode="&#xda;" horiz-adv-x="1462" 
d="M731 -31q-262 0 -425 157.5t-163 416.5v931l217 1v-921q0 -91 32 -165.5t85 -121t118.5 -71.5t135.5 -25q95 0 178 42.5t138 132t55 208.5v921h217v-932q0 -259 -163 -416.5t-425 -157.5zM638 1638l145 359h168l-145 -359h-168z" />
    <glyph glyph-name="Ucircumflex" unicode="&#xdb;" horiz-adv-x="1462" 
d="M731 -31q-262 0 -425 157.5t-163 416.5v931l217 1v-921q0 -91 32 -165.5t85 -121t118.5 -71.5t135.5 -25q95 0 178 42.5t138 132t55 208.5v921h217v-932q0 -259 -163 -416.5t-425 -157.5zM372 1638l264 308h185l264 -308h-204l-153 182l-151 -182h-205z" />
    <glyph glyph-name="Udieresis" unicode="&#xdc;" horiz-adv-x="1462" 
d="M731 -31q-262 0 -425 157.5t-163 416.5v931l217 1v-921q0 -91 32 -165.5t85 -121t118.5 -71.5t135.5 -25q95 0 178 42.5t138 132t55 208.5v921h217v-932q0 -259 -163 -416.5t-425 -157.5zM423 1660v205h205v-205h-205zM836 1660v205h204v-205h-204z" />
    <glyph glyph-name="Yacute" unicode="&#xdd;" horiz-adv-x="1214" 
d="M499 0v609l-499 866h250l357 -620l358 620h249l-498 -866v-609h-217zM513 1638l145 359h168l-145 -359h-168z" />
    <glyph glyph-name="Thorn" unicode="&#xde;" horiz-adv-x="1266" 
d="M143 0v1475h217v-266h368q81 0 153 -24q132 -44 212 -149q109 -126 112 -299q2 -159 -104 -292q-64 -82 -163.5 -130.5t-209.5 -48.5h-368v-266h-217zM360 468h367q54 0 109 27.5t92 74.5q61 77 58 167q-3 110 -72 183q-36 39 -86.5 63t-100.5 24h-367v-539z" />
    <glyph glyph-name="germandbls" unicode="&#xdf;" horiz-adv-x="1274" 
d="M683 -30q-118 0 -188 30v210q82 -29 161 -29q129 0 204 64.5t75 186.5q0 124 -94 189t-255 67v190q104 9 164.5 64t60.5 152t-64 153.5t-162 56.5q-148 0 -200 -117q-25 -59 -25 -158v-1029h-218v1086q0 86 21 154q44 133 156.5 199t265.5 66q191 0 317.5 -113.5
t126.5 -294.5q0 -94 -36 -168t-106 -117q109 -33 187 -136.5t78 -246.5q0 -215 -122 -337t-347 -122z" />
    <glyph glyph-name="agrave" unicode="&#xe0;" horiz-adv-x="1166" 
d="M456 -31q-177 0 -275.5 95t-98.5 237q0 246 261 328q27 8 55.5 15t69 14.5t63.5 12t77 12.5t69.5 10.5t81.5 11.5t74 10q-5 116 -63.5 170t-186.5 54q-93 0 -163.5 -43t-97.5 -131l-200 61q41 146 158.5 228.5t304.5 82.5q153 0 261 -52.5t159 -158.5q24 -50 31 -106
t7 -139v-681h-189v161q-134 -192 -398 -192zM294 303q0 -69 51 -114t149 -45q128 0 210.5 65.5t103.5 154.5q20 59 22 173q-301 -45 -384 -70q-152 -52 -152 -164zM368 1628h168l145 -358h-168z" />
    <glyph glyph-name="aacute" unicode="&#xe1;" horiz-adv-x="1166" 
d="M456 -31q-177 0 -275.5 95t-98.5 237q0 246 261 328q27 8 55.5 15t69 14.5t63.5 12t77 12.5t69.5 10.5t81.5 11.5t74 10q-5 116 -63.5 170t-186.5 54q-93 0 -163.5 -43t-97.5 -131l-200 61q41 146 158.5 228.5t304.5 82.5q153 0 261 -52.5t159 -158.5q24 -50 31 -106
t7 -139v-681h-189v161q-134 -192 -398 -192zM294 303q0 -69 51 -114t149 -45q128 0 210.5 65.5t103.5 154.5q20 59 22 173q-301 -45 -384 -70q-152 -52 -152 -164zM516 1270l146 358h167l-145 -358h-168z" />
    <glyph glyph-name="acircumflex" unicode="&#xe2;" horiz-adv-x="1166" 
d="M456 -31q-177 0 -275.5 95t-98.5 237q0 246 261 328q27 8 55.5 15t69 14.5t63.5 12t77 12.5t69.5 10.5t81.5 11.5t74 10q-5 116 -63.5 170t-186.5 54q-93 0 -163.5 -43t-97.5 -131l-200 61q41 146 158.5 228.5t304.5 82.5q153 0 261 -52.5t159 -158.5q24 -50 31 -106
t7 -139v-681h-189v161q-134 -192 -398 -192zM241 1270l264 307h185l264 -307h-204l-153 181l-152 -181h-204zM294 303q0 -69 51 -114t149 -45q128 0 210.5 65.5t103.5 154.5q20 59 22 173q-301 -45 -384 -70q-152 -52 -152 -164z" />
    <glyph glyph-name="atilde" unicode="&#xe3;" horiz-adv-x="1166" 
d="M456 -31q-177 0 -275.5 95t-98.5 237q0 246 261 328q27 8 55.5 15t69 14.5t63.5 12t77 12.5t69.5 10.5t81.5 11.5t74 10q-5 116 -63.5 170t-186.5 54q-93 0 -163.5 -43t-97.5 -131l-200 61q41 146 158.5 228.5t304.5 82.5q153 0 261 -52.5t159 -158.5q24 -50 31 -106
t7 -139v-681h-189v161q-134 -192 -398 -192zM281 1297q-28 116 17 193.5t151 77.5q53 0 114.5 -33.5t114 -67t85.5 -33.5t46 32t0 79h139q29 -116 -16.5 -193.5t-152.5 -77.5q-53 0 -114 33.5t-113.5 67t-85.5 33.5q-34 0 -46.5 -33.5t0.5 -77.5h-139zM294 303
q0 -69 51 -114t149 -45q128 0 210.5 65.5t103.5 154.5q20 59 22 173q-301 -45 -384 -70q-152 -52 -152 -164z" />
    <glyph glyph-name="adieresis" unicode="&#xe4;" horiz-adv-x="1166" 
d="M456 -31q-177 0 -275.5 95t-98.5 237q0 246 261 328q27 8 55.5 15t69 14.5t63.5 12t77 12.5t69.5 10.5t81.5 11.5t74 10q-5 116 -63.5 170t-186.5 54q-93 0 -163.5 -43t-97.5 -131l-200 61q41 146 158.5 228.5t304.5 82.5q153 0 261 -52.5t159 -158.5q24 -50 31 -106
t7 -139v-681h-189v161q-134 -192 -398 -192zM294 303q0 -69 51 -114t149 -45q128 0 210.5 65.5t103.5 154.5q20 59 22 173q-301 -45 -384 -70q-152 -52 -152 -164zM295 1291v205h205v-205h-205zM708 1291v205h204v-205h-204z" />
    <glyph glyph-name="aring" unicode="&#xe5;" horiz-adv-x="1166" 
d="M456 -31q-177 0 -275.5 95t-98.5 237q0 246 261 328q27 8 55.5 15t69 14.5t63.5 12t77 12.5t69.5 10.5t81.5 11.5t74 10q-5 116 -63.5 170t-186.5 54q-93 0 -163.5 -43t-97.5 -131l-200 61q41 146 158.5 228.5t304.5 82.5q153 0 261 -52.5t159 -158.5q24 -50 31 -106
t7 -139v-681h-189v161q-134 -192 -398 -192zM294 303q0 -69 51 -114t149 -45q128 0 210.5 65.5t103.5 154.5q20 59 22 173q-301 -45 -384 -70q-152 -52 -152 -164zM346 1473q0 103 74 176.5t177 73.5q104 0 177.5 -73.5t73.5 -176.5t-74 -177t-177 -74t-177 74t-74 177z
M484 1473q0 -46 33.5 -79.5t79.5 -33.5t79.5 33.5t33.5 79.5t-33 79t-80 33q-46 0 -79.5 -33t-33.5 -79z" />
    <glyph glyph-name="ae" unicode="&#xe6;" horiz-adv-x="1921" 
d="M1362 -31q-148 0 -261 64t-179 179q-138 -243 -454 -243q-182 0 -284 90t-102 239q0 62 20 113t49 85t77 61t87 41.5t98 26t91 15t83 8.5l243 20q4 138 -60.5 204.5t-184.5 66.5q-95 0 -166.5 -42t-100.5 -128l-196 60q49 138 173 223t295 85q267 0 382 -171
q140 171 381 171q164 0 277 -82.5t164.5 -226.5t41.5 -335h-780q12 -151 88 -236.5t208 -85.5q92 0 162 44.5t109 131.5l198 -66q-58 -146 -183 -229t-276 -83zM294 304q0 -75 53.5 -118.5t146.5 -43.5q98 0 178.5 46.5t117.5 115.5q41 78 43 209l-208 -14
q-31 -2 -54.5 -4.5t-60.5 -8.5t-64 -14.5t-57 -23.5t-49.5 -34t-32.5 -47.5t-13 -62.5zM1062 665h566q-16 139 -81 210.5t-195 71.5q-127 0 -198.5 -74.5t-91.5 -207.5z" />
    <glyph glyph-name="ccedilla" unicode="&#xe7;" horiz-adv-x="1164" 
d="M577 -494q-67 0 -139 36l49 131q44 -14 71 -14q32 0 51 18.5t19 44.5q0 16 -8 29.5t-18 22t-31 18t-35 14l-42 13.5l54 153q-218 24 -341 182.5t-125 398.5q2 261 146.5 422.5t391.5 161.5q181 0 309.5 -90.5t169.5 -246.5l-213 -62q-31 92 -103.5 144.5t-166.5 52.5
q-152 0 -229 -104t-78 -278q1 -176 79.5 -279t227.5 -103q196 0 266 184l217 -51q-49 -147 -156 -232t-259 -100l-25 -69q124 -60 124 -187q0 -91 -60 -150.5t-146 -59.5z" />
    <glyph glyph-name="egrave" unicode="&#xe8;" horiz-adv-x="1221" 
d="M634 -31q-248 0 -400 159t-152 416q0 270 149 431.5t393 161.5q253 0 391 -173.5t121 -470.5h-825q13 -155 93.5 -238.5t219.5 -83.5q100 0 173 45t114 131l210 -66q-64 -147 -194.5 -229.5t-292.5 -82.5zM316 659h600q-17 146 -87 217t-197 71q-273 0 -316 -288z
M399 1628h168l146 -358h-168z" />
    <glyph glyph-name="eacute" unicode="&#xe9;" horiz-adv-x="1221" 
d="M634 -31q-248 0 -400 159t-152 416q0 270 149 431.5t393 161.5q253 0 391 -173.5t121 -470.5h-825q13 -155 93.5 -238.5t219.5 -83.5q100 0 173 45t114 131l210 -66q-64 -147 -194.5 -229.5t-292.5 -82.5zM316 659h600q-17 146 -87 217t-197 71q-273 0 -316 -288z
M562 1270l146 358h168l-146 -358h-168z" />
    <glyph glyph-name="ecircumflex" unicode="&#xea;" horiz-adv-x="1221" 
d="M634 -31q-248 0 -400 159t-152 416q0 270 149 431.5t393 161.5q253 0 391 -173.5t121 -470.5h-825q13 -155 93.5 -238.5t219.5 -83.5q100 0 173 45t114 131l210 -66q-64 -147 -194.5 -229.5t-292.5 -82.5zM264 1270l264 307h186l264 -307h-205l-152 181l-152 -181h-205z
M316 659h600q-17 146 -87 217t-197 71q-273 0 -316 -288z" />
    <glyph glyph-name="edieresis" unicode="&#xeb;" horiz-adv-x="1221" 
d="M634 -31q-248 0 -400 159t-152 416q0 270 149 431.5t393 161.5q253 0 391 -173.5t121 -470.5h-825q13 -155 93.5 -238.5t219.5 -83.5q100 0 173 45t114 131l210 -66q-64 -147 -194.5 -229.5t-292.5 -82.5zM314 1291v205h205v-205h-205zM316 659h600q-17 146 -87 217
t-197 71q-273 0 -316 -288zM727 1291v205h205v-205h-205z" />
    <glyph glyph-name="igrave" unicode="&#xec;" horiz-adv-x="541" 
d="M164 0v1106h214v-1106h-214zM38 1628h168l145 -358h-168z" />
    <glyph glyph-name="iacute" unicode="&#xed;" horiz-adv-x="541" 
d="M164 0v1106h214v-1106h-214zM190 1270l146 358h168l-146 -358h-168z" />
    <glyph glyph-name="icircumflex" unicode="&#xee;" horiz-adv-x="541" 
d="M164 0v1106h214v-1106h-214zM-75 1270l264 307h186l264 -307h-205l-152 181l-152 -181h-205z" />
    <glyph glyph-name="idieresis" unicode="&#xef;" horiz-adv-x="541" 
d="M164 0v1106h214v-1106h-214zM-38 1291v205h205v-205h-205zM375 1291v205h205v-205h-205z" />
    <glyph glyph-name="eth" unicode="&#xf0;" horiz-adv-x="1211" 
d="M607 -31q-237 -1 -380.5 149.5t-144.5 396.5q1 246 145 397t380 150q172 0 316 -113q-24 175 -171 295l-108 -127l-124 109l87 102q-82 35 -176 41l33 169q152 -6 269 -61l108 126l123 -108l-94 -110q54 -49 92 -104q93 -127 130 -299.5t37 -460.5q0 -253 -141 -403
t-381 -149zM298 516q0 -169 80 -261.5t229 -92.5q147 0 226.5 94t79.5 261q0 166 -81 259.5t-225 92.5q-149 1 -229 -92t-80 -261z" />
    <glyph glyph-name="ntilde" unicode="&#xf1;" 
d="M920 544q0 57 -6 107t-24.5 103.5t-48.5 91.5t-81.5 62.5t-119.5 24.5q-126 0 -203.5 -86.5t-77.5 -271.5v-575h-217v1106h192v-132q130 162 365 162q109 0 191.5 -39t128 -95t73.5 -131.5t36.5 -136t8.5 -120.5v-614h-217v544zM297 1297q-28 116 17 193.5t151 77.5
q53 0 114.5 -33.5t114 -67t85.5 -33.5t46 32t0 79h140q29 -116 -16.5 -193.5t-152.5 -77.5q-42 0 -90 21t-83.5 46t-74.5 46t-66 21q-34 0 -46.5 -33.5t0.5 -77.5h-139z" />
    <glyph glyph-name="ograve" unicode="&#xf2;" horiz-adv-x="1248" 
d="M624 -31q-246 0 -394 162.5t-148 422.5t149 421.5t393 161.5q247 0 394.5 -162t147.5 -421q0 -261 -148 -423t-394 -162zM309 554q0 -178 81.5 -280.5t233.5 -102.5q154 0 234.5 104t80.5 279q0 177 -80.5 279t-234.5 102q-156 0 -235.5 -103t-79.5 -278zM383 1628h168
l145 -358h-168z" />
    <glyph glyph-name="oacute" unicode="&#xf3;" horiz-adv-x="1248" 
d="M624 -31q-246 0 -394 162.5t-148 422.5t149 421.5t393 161.5q247 0 394.5 -162t147.5 -421q0 -261 -148 -423t-394 -162zM309 554q0 -178 81.5 -280.5t233.5 -102.5q154 0 234.5 104t80.5 279q0 177 -80.5 279t-234.5 102q-156 0 -235.5 -103t-79.5 -278zM542 1270
l145 358h168l-145 -358h-168z" />
    <glyph glyph-name="ocircumflex" unicode="&#xf4;" horiz-adv-x="1248" 
d="M624 -31q-246 0 -394 162.5t-148 422.5t149 421.5t393 161.5q247 0 394.5 -162t147.5 -421q0 -261 -148 -423t-394 -162zM265 1270l264 307h186l264 -307h-205l-152 181l-152 -181h-205zM309 554q0 -178 81.5 -280.5t233.5 -102.5q154 0 234.5 104t80.5 279
q0 177 -80.5 279t-234.5 102q-156 0 -235.5 -103t-79.5 -278z" />
    <glyph glyph-name="otilde" unicode="&#xf5;" horiz-adv-x="1248" 
d="M624 -31q-246 0 -394 162.5t-148 422.5t149 421.5t393 161.5q247 0 394.5 -162t147.5 -421q0 -261 -148 -423t-394 -162zM291 1297q-28 116 17 193.5t151 77.5q53 0 114.5 -33.5t114 -67t85.5 -33.5t46 32t0 79h139q29 -116 -16 -193.5t-152 -77.5q-42 0 -90 21t-83.5 46
t-74.5 46t-66 21q-34 0 -46.5 -33.5t0.5 -77.5h-139zM309 554q0 -178 81.5 -280.5t233.5 -102.5q154 0 234.5 104t80.5 279q0 177 -80.5 279t-234.5 102q-156 0 -235.5 -103t-79.5 -278z" />
    <glyph glyph-name="odieresis" unicode="&#xf6;" horiz-adv-x="1248" 
d="M624 -31q-246 0 -394 162.5t-148 422.5t149 421.5t393 161.5q247 0 394.5 -162t147.5 -421q0 -261 -148 -423t-394 -162zM309 554q0 -178 81.5 -280.5t233.5 -102.5q154 0 234.5 104t80.5 279q0 177 -80.5 279t-234.5 102q-156 0 -235.5 -103t-79.5 -278zM316 1291v205
h205v-205h-205zM729 1291v205h205v-205h-205z" />
    <glyph glyph-name="divide" unicode="&#xf7;" horiz-adv-x="1105" 
d="M123 652v172h860v-172h-860zM450 326v213h212v-213h-212zM450 941v213h212v-213h-212z" />
    <glyph glyph-name="oslash" unicode="&#xf8;" horiz-adv-x="1248" 
d="M193 -20l-144 143l109 108q-76 141 -76 323q0 260 149 421.5t393 161.5q196 0 334 -107l98 96l143 -144l-109 -108q76 -135 76 -320q0 -261 -148 -423t-394 -162q-196 0 -334 108zM309 554q0 -95 25 -175l490 488q-77 68 -200 68q-156 0 -235.5 -103t-79.5 -278zM425 238
q78 -67 199 -67q154 0 234.5 104t80.5 279q0 95 -25 173z" />
    <glyph glyph-name="ugrave" unicode="&#xf9;" 
d="M560 -30q-109 0 -191.5 39t-127.5 95t-73 131.5t-36.5 135.5t-8.5 121v614h217v-544q0 -57 6 -107t24.5 -103.5t48.5 -91.5t81.5 -62.5t119.5 -24.5q126 0 203 86t77 271v576h216v-1106h-190v132q-130 -162 -366 -162zM397 1628h168l146 -358h-168z" />
    <glyph glyph-name="uacute" unicode="&#xfa;" 
d="M560 -30q-109 0 -191.5 39t-127.5 95t-73 131.5t-36.5 135.5t-8.5 121v614h217v-544q0 -57 6 -107t24.5 -103.5t48.5 -91.5t81.5 -62.5t119.5 -24.5q126 0 203 86t77 271v576h216v-1106h-190v132q-130 -162 -366 -162zM526 1270l146 358h168l-146 -358h-168z" />
    <glyph glyph-name="ucircumflex" unicode="&#xfb;" 
d="M560 -30q-109 0 -191.5 39t-127.5 95t-73 131.5t-36.5 135.5t-8.5 121v614h217v-544q0 -57 6 -107t24.5 -103.5t48.5 -91.5t81.5 -62.5t119.5 -24.5q126 0 203 86t77 271v576h216v-1106h-190v132q-130 -162 -366 -162zM260 1270l264 307h186l264 -307h-205l-153 181
l-151 -181h-205z" />
    <glyph glyph-name="udieresis" unicode="&#xfc;" 
d="M560 -30q-109 0 -191.5 39t-127.5 95t-73 131.5t-36.5 135.5t-8.5 121v614h217v-544q0 -57 6 -107t24.5 -103.5t48.5 -91.5t81.5 -62.5t119.5 -24.5q126 0 203 86t77 271v576h216v-1106h-190v132q-130 -162 -366 -162zM310 1291v205h205v-205h-205zM723 1291v205h205
v-205h-205z" />
    <glyph glyph-name="yacute" unicode="&#xfd;" horiz-adv-x="1123" 
d="M293 -492l182 497l-447 1101h223l327 -832l312 832h217l-610 -1598h-204zM486 1270l146 358h168l-146 -358h-168z" />
    <glyph glyph-name="thorn" unicode="&#xfe;" horiz-adv-x="1245" 
d="M663 -31q-183 0 -306 109v-570h-215v1598h1v369h216v-443q121 105 299 105q229 0 367 -164t138 -419q0 -166 -60 -298.5t-174.5 -209.5t-265.5 -77zM333 554q0 -181 74 -286t226 -105q148 0 225.5 109t77.5 282q0 172 -78.5 280.5t-231.5 108.5q-146 0 -219.5 -105
t-73.5 -284z" />
    <glyph glyph-name="ydieresis" unicode="&#xff;" horiz-adv-x="1123" 
d="M293 -492l182 497l-447 1101h223l327 -832l312 832h217l-610 -1598h-204zM265 1291v205h205v-205h-205zM678 1291v205h205v-205h-205z" />
    <glyph glyph-name="Amacron" unicode="&#x100;" horiz-adv-x="1348" 
d="M41 0l479 1475h308l480 -1475h-223l-109 333h-605l-108 -333h-222zM408 1720v171h535v-171h-535zM436 534h474l-238 727z" />
    <glyph glyph-name="amacron" unicode="&#x101;" horiz-adv-x="1166" 
d="M456 -31q-177 0 -275.5 95t-98.5 237q0 246 261 328q27 8 55.5 15t69 14.5t63.5 12t77 12.5t69.5 10.5t81.5 11.5t74 10q-5 116 -63.5 170t-186.5 54q-93 0 -163.5 -43t-97.5 -131l-200 61q41 146 158.5 228.5t304.5 82.5q153 0 261 -52.5t159 -158.5q24 -50 31 -106
t7 -139v-681h-189v161q-134 -192 -398 -192zM294 303q0 -69 51 -114t149 -45q128 0 210.5 65.5t103.5 154.5q20 59 22 173q-301 -45 -384 -70q-152 -52 -152 -164zM357 1352v171h536v-171h-536z" />
    <glyph glyph-name="Abreve" unicode="&#x102;" horiz-adv-x="1348" 
d="M41 0l479 1475h308l480 -1475h-223l-109 333h-605l-108 -333h-222zM380 1896h170q0 -52 36.5 -88t88.5 -36t88.5 36t36.5 88h170q0 -122 -86.5 -208t-208.5 -86t-208.5 86t-86.5 208zM436 534h474l-238 727z" />
    <glyph glyph-name="abreve" unicode="&#x103;" horiz-adv-x="1166" 
d="M456 -31q-177 0 -275.5 95t-98.5 237q0 246 261 328q27 8 55.5 15t69 14.5t63.5 12t77 12.5t69.5 10.5t81.5 11.5t74 10q-5 116 -63.5 170t-186.5 54q-93 0 -163.5 -43t-97.5 -131l-200 61q41 146 158.5 228.5t304.5 82.5q153 0 261 -52.5t159 -158.5q24 -50 31 -106
t7 -139v-681h-189v161q-134 -192 -398 -192zM294 303q0 -69 51 -114t149 -45q128 0 210.5 65.5t103.5 154.5q20 59 22 173q-301 -45 -384 -70q-152 -52 -152 -164zM300 1528h170q0 -52 36.5 -88.5t88.5 -36.5t88.5 36.5t36.5 88.5h170q0 -122 -86.5 -208.5t-208.5 -86.5
t-208.5 86.5t-86.5 208.5z" />
    <glyph glyph-name="Aogonek" unicode="&#x104;" horiz-adv-x="1348" 
d="M41 0l479 1475h308l480 -1475q-95 -53 -162 -129t-67 -132q0 -29 19 -48.5t47 -19.5q40 0 82 40l81 -103q-35 -48 -85.5 -74t-104.5 -26q-90 0 -150.5 64.5t-60.5 152.5q0 74 46 153t124 146l-101 309h-605l-108 -333h-222zM436 534h474l-238 727z" />
    <glyph glyph-name="aogonek" unicode="&#x105;" horiz-adv-x="1166" 
d="M456 -31q-177 0 -275.5 95t-98.5 237q0 246 261 328q27 8 55.5 15t69 14.5t63.5 12t77 12.5t69.5 10.5t81.5 11.5t74 10q-5 116 -63.5 170t-186.5 54q-93 0 -163.5 -43t-97.5 -131l-200 61q41 146 158.5 228.5t304.5 82.5q153 0 261 -52.5t159 -158.5q24 -50 31 -106
t7 -139v-681q-95 -53 -161.5 -129t-66.5 -132q0 -29 19 -48.5t47 -19.5q40 0 82 40l80 -103q-74 -100 -189 -100q-90 0 -150.5 64.5t-60.5 152.5q0 84 57.5 172.5t153.5 158.5v105q-134 -192 -398 -192zM294 303q0 -69 51 -114t149 -45q128 0 210.5 65.5t103.5 154.5
q20 59 22 173q-301 -45 -384 -70q-152 -52 -152 -164z" />
    <glyph glyph-name="Cacute" unicode="&#x106;" horiz-adv-x="1496" 
d="M759 -31q-217 0 -376 97t-240.5 270t-81.5 401t81.5 401t240.5 270t376 97q250 0 419 -126.5t236 -349.5l-217 -58q-44 158 -155.5 244.5t-282.5 86.5q-229 0 -349.5 -152t-121.5 -413q-2 -260 119.5 -412t351.5 -152q171 0 282.5 86.5t155.5 244.5l217 -59
q-67 -223 -236 -349.5t-419 -126.5zM695 1638l146 359h168l-146 -359h-168z" />
    <glyph glyph-name="cacute" unicode="&#x107;" horiz-adv-x="1164" 
d="M616 -31q-248 0 -390 162.5t-144 421.5q2 261 146.5 422.5t391.5 161.5q181 0 309.5 -90.5t169.5 -246.5l-213 -62q-31 92 -103.5 144.5t-166.5 52.5q-152 0 -229 -104t-78 -278q1 -176 79.5 -279t227.5 -103q196 0 266 184l217 -51q-55 -162 -179.5 -248.5t-303.5 -86.5
zM541 1270l145 358h168l-145 -358h-168z" />
    <glyph glyph-name="Ccircumflex" unicode="&#x108;" horiz-adv-x="1496" 
d="M759 -31q-217 0 -376 97t-240.5 270t-81.5 401t81.5 401t240.5 270t376 97q250 0 419 -126.5t236 -349.5l-217 -58q-44 158 -155.5 244.5t-282.5 86.5q-229 0 -349.5 -152t-121.5 -413q-2 -260 119.5 -412t351.5 -152q171 0 282.5 86.5t155.5 244.5l217 -59
q-67 -223 -236 -349.5t-419 -126.5zM399 1638l265 308h185l264 -308h-205l-152 182l-152 -182h-205z" />
    <glyph glyph-name="ccircumflex" unicode="&#x109;" horiz-adv-x="1164" 
d="M616 -31q-248 0 -390 162.5t-144 421.5q2 261 146.5 422.5t391.5 161.5q181 0 309.5 -90.5t169.5 -246.5l-213 -62q-31 92 -103.5 144.5t-166.5 52.5q-152 0 -229 -104t-78 -278q1 -176 79.5 -279t227.5 -103q196 0 266 184l217 -51q-55 -162 -179.5 -248.5t-303.5 -86.5
zM265 1270l264 307h186l264 -307h-205l-152 181l-152 -181h-205z" />
    <glyph glyph-name="Cdotaccent" unicode="&#x10a;" horiz-adv-x="1496" 
d="M759 -31q-217 0 -376 97t-240.5 270t-81.5 401t81.5 401t240.5 270t376 97q250 0 419 -126.5t236 -349.5l-217 -58q-44 158 -155.5 244.5t-282.5 86.5q-229 0 -349.5 -152t-121.5 -413q-2 -260 119.5 -412t351.5 -152q171 0 282.5 86.5t155.5 244.5l217 -59
q-67 -223 -236 -349.5t-419 -126.5zM657 1699v226h227v-226h-227z" />
    <glyph glyph-name="cdotaccent" unicode="&#x10b;" horiz-adv-x="1164" 
d="M616 -31q-248 0 -390 162.5t-144 421.5q2 261 146.5 422.5t391.5 161.5q181 0 309.5 -90.5t169.5 -246.5l-213 -62q-31 92 -103.5 144.5t-166.5 52.5q-152 0 -229 -104t-78 -278q1 -176 79.5 -279t227.5 -103q196 0 266 184l217 -51q-55 -162 -179.5 -248.5t-303.5 -86.5
zM531 1330v226h227v-226h-227z" />
    <glyph glyph-name="Ccaron" unicode="&#x10c;" horiz-adv-x="1496" 
d="M759 -31q-217 0 -376 97t-240.5 270t-81.5 401t81.5 401t240.5 270t376 97q250 0 419 -126.5t236 -349.5l-217 -58q-44 158 -155.5 244.5t-282.5 86.5q-229 0 -349.5 -152t-121.5 -413q-2 -260 119.5 -412t351.5 -152q171 0 282.5 86.5t155.5 244.5l217 -59
q-67 -223 -236 -349.5t-419 -126.5zM415 1946h205l151 -182l153 182h204l-264 -308h-185z" />
    <glyph glyph-name="ccaron" unicode="&#x10d;" horiz-adv-x="1164" 
d="M616 -31q-248 0 -390 162.5t-144 421.5q2 261 146.5 422.5t391.5 161.5q181 0 309.5 -90.5t169.5 -246.5l-213 -62q-31 92 -103.5 144.5t-166.5 52.5q-152 0 -229 -104t-78 -278q1 -176 79.5 -279t227.5 -103q196 0 266 184l217 -51q-55 -162 -179.5 -248.5t-303.5 -86.5
zM260 1577h205l151 -181l153 181h205l-264 -307h-186z" />
    <glyph glyph-name="Dcaron" unicode="&#x10e;" horiz-adv-x="1414" 
d="M143 0v1475h462q106 0 183 -10q168 -21 290 -124t181.5 -258.5t59.5 -345.5t-59.5 -345.5t-181.5 -258.5t-290 -124q-69 -9 -183 -9h-462zM268 1946h205l152 -182l152 182h205l-264 -308h-186zM362 204h243q114 0 168 10q82 16 144.5 64t100 119.5t56 157t18.5 182.5
q0 134 -33 242t-106 185t-180 97q-54 10 -168 10h-243v-1067z" />
    <glyph glyph-name="dcaron" unicode="&#x10f;" horiz-adv-x="1562" 
d="M583 -31q-151 0 -266 77t-175 209.5t-60 298.5q0 255 138 419t367 164q180 0 301 -107v445h215v-1475h-191v100q-128 -131 -329 -131zM309 554q0 -173 77.5 -282t225.5 -109q152 0 226 105t74 286q0 179 -73 284t-219 105q-153 0 -232 -108.5t-79 -280.5zM1283 989l13 95
q63 -5 88 37t17 113h-118v247h226v-268q0 -123 -59 -183.5t-167 -40.5z" />
    <glyph glyph-name="Dcroat" unicode="&#x110;" horiz-adv-x="1412" 
d="M20 652v172h121v651h462q106 0 183 -10q168 -21 290 -124t181.5 -258.5t59.5 -345.5t-59.5 -345.5t-181.5 -258.5t-290 -124q-69 -9 -183 -9h-462v652h-121zM360 204h243q114 0 168 10q82 16 144.5 64t100 119.5t56 157t18.5 182.5q0 134 -33 242t-106 185t-180 97
q-54 10 -168 10h-243v-447h336v-172h-336v-448z" />
    <glyph glyph-name="dcroat" unicode="&#x111;" horiz-adv-x="1246" 
d="M583 -31q-151 0 -266 77t-175 209.5t-60 298.5q0 255 138 419t367 164q180 0 301 -107v171h-185v171h185v103h215v-103h136v-171h-136v-1201h-191v100q-128 -131 -329 -131zM309 554q0 -173 77.5 -282t225.5 -109q152 0 226 105t74 286q0 179 -73 284t-219 105
q-153 0 -232 -108.5t-79 -280.5z" />
    <glyph glyph-name="Emacron" unicode="&#x112;" horiz-adv-x="1187" 
d="M143 0v1475h942v-202h-728v-414h606v-202h-606v-455h728v-202h-942zM353 1720v171h536v-171h-536z" />
    <glyph glyph-name="emacron" unicode="&#x113;" horiz-adv-x="1221" 
d="M634 -31q-248 0 -400 159t-152 416q0 270 149 431.5t393 161.5q253 0 391 -173.5t121 -470.5h-825q13 -155 93.5 -238.5t219.5 -83.5q100 0 173 45t114 131l210 -66q-64 -147 -194.5 -229.5t-292.5 -82.5zM316 659h600q-17 146 -87 217t-197 71q-273 0 -316 -288z
M376 1352v171h535v-171h-535z" />
    <glyph glyph-name="Edotaccent" unicode="&#x116;" horiz-adv-x="1187" 
d="M143 0v1475h942v-202h-728v-414h606v-202h-606v-455h728v-202h-942zM503 1699v226h226v-226h-226z" />
    <glyph glyph-name="edotaccent" unicode="&#x117;" horiz-adv-x="1221" 
d="M634 -31q-248 0 -400 159t-152 416q0 270 149 431.5t393 161.5q253 0 391 -173.5t121 -470.5h-825q13 -155 93.5 -238.5t219.5 -83.5q100 0 173 45t114 131l210 -66q-64 -147 -194.5 -229.5t-292.5 -82.5zM316 659h600q-17 146 -87 217t-197 71q-273 0 -316 -288z
M511 1330v226h226v-226h-226z" />
    <glyph glyph-name="Eogonek" unicode="&#x118;" horiz-adv-x="1187" 
d="M143 0v1475h942v-202h-728v-414h606v-202h-606v-455h728v-202q-95 -53 -161.5 -129t-66.5 -132q0 -29 19 -48.5t47 -19.5q40 0 82 40l80 -103q-74 -100 -189 -100q-90 0 -150.5 64.5t-60.5 152.5q0 137 143 275h-685z" />
    <glyph glyph-name="eogonek" unicode="&#x119;" horiz-adv-x="1221" 
d="M958 -472q-67 -29 -137 -12t-113 71q-40 46 -49.5 112t15.5 132q22 61 83 152q-62 -14 -123 -14q-248 0 -400 159t-152 416q0 270 149 431.5t393 161.5q253 0 391 -173.5t121 -470.5h-825q13 -155 93.5 -238.5t219.5 -83.5q100 0 173 45t114 131l210 -66q-19 -44 -50 -92
q-34 -57 -95 -146.5t-70 -104.5q-58 -99 -77 -162q-16 -52 12 -81q17 -18 41.5 -19.5t47.5 8.5t43 28l82 -104q-36 -54 -97 -80zM316 659h600q-17 146 -87 217t-197 71q-273 0 -316 -288z" />
    <glyph glyph-name="Ecaron" unicode="&#x11a;" horiz-adv-x="1187" 
d="M143 0v1475h942v-202h-728v-414h606v-202h-606v-455h728v-202h-942zM264 1946h205l152 -182l152 182h205l-264 -308h-186z" />
    <glyph glyph-name="ecaron" unicode="&#x11b;" horiz-adv-x="1221" 
d="M634 -31q-248 0 -400 159t-152 416q0 270 149 431.5t393 161.5q253 0 391 -173.5t121 -470.5h-825q13 -155 93.5 -238.5t219.5 -83.5q100 0 173 45t114 131l210 -66q-64 -147 -194.5 -229.5t-292.5 -82.5zM264 1577h205l152 -181l152 181h205l-264 -307h-186zM316 659
h600q-17 146 -87 217t-197 71q-273 0 -316 -288z" />
    <glyph glyph-name="Gcircumflex" unicode="&#x11c;" horiz-adv-x="1480" 
d="M746 -31q-148 0 -273.5 52.5t-217 149.5t-143 242.5t-51.5 323.5q0 176 50.5 320.5t141 242t217 151t276.5 53.5q254 0 411.5 -118t215.5 -336l-217 -39q-45 136 -146.5 213t-250.5 78q-229 1 -349 -151.5t-121 -413.5q-1 -171 51 -296t158.5 -196t260.5 -72
q188 -2 297 106.5t132 314.5h-287v172h514q4 -35 4 -87q0 -154 -45.5 -284t-130 -225t-212 -148t-285.5 -53zM378 1638l264 308h185l265 -308h-205l-153 182l-151 -182h-205z" />
    <glyph glyph-name="gcircumflex" unicode="&#x11d;" horiz-adv-x="1245" 
d="M599 -522q-137 0 -254.5 62.5t-183.5 178.5l197 101q34 -68 99.5 -102t143.5 -34q138 0 213 73.5t73 214.5v105q-122 -108 -304 -108q-151 0 -266 77t-175 209.5t-60 298.5q0 255 138 419t367 164q200 0 325 -130v99h190v-1136q0 -93 -15 -164q-34 -164 -161.5 -246
t-326.5 -82zM263 1270l264 307h186l264 -307h-205l-152 181l-152 -181h-205zM309 554q0 -173 77.5 -282t225.5 -109q152 0 226 105t74 286q0 179 -73 284t-219 105q-153 0 -232 -108.5t-79 -280.5z" />
    <glyph glyph-name="Gbreve" unicode="&#x11e;" horiz-adv-x="1480" 
d="M746 -31q-148 0 -273.5 52.5t-217 149.5t-143 242.5t-51.5 323.5q0 176 50.5 320.5t141 242t217 151t276.5 53.5q254 0 411.5 -118t215.5 -336l-217 -39q-45 136 -146.5 213t-250.5 78q-229 1 -349 -151.5t-121 -413.5q-1 -171 51 -296t158.5 -196t260.5 -72
q188 -2 297 106.5t132 314.5h-287v172h514q4 -35 4 -87q0 -154 -45.5 -284t-130 -225t-212 -148t-285.5 -53zM457 1896h170q0 -52 36.5 -88t88.5 -36t88.5 36t36.5 88h170q0 -122 -86.5 -208t-208.5 -86t-208.5 86t-86.5 208z" />
    <glyph glyph-name="gbreve" unicode="&#x11f;" horiz-adv-x="1245" 
d="M599 -522q-137 0 -254.5 62.5t-183.5 178.5l197 101q34 -68 99.5 -102t143.5 -34q138 0 213 73.5t73 214.5v105q-122 -108 -304 -108q-151 0 -266 77t-175 209.5t-60 298.5q0 255 138 419t367 164q200 0 325 -130v99h190v-1136q0 -93 -15 -164q-34 -164 -161.5 -246
t-326.5 -82zM309 554q0 -173 77.5 -282t225.5 -109q152 0 226 105t74 286q0 179 -73 284t-219 105q-153 0 -232 -108.5t-79 -280.5zM382 1528h170q0 -52 36.5 -88.5t88.5 -36.5t88.5 36.5t36.5 88.5h170q0 -122 -86.5 -208.5t-208.5 -86.5t-208.5 86.5t-86.5 208.5z" />
    <glyph glyph-name="Gdotaccent" unicode="&#x120;" horiz-adv-x="1480" 
d="M746 -31q-148 0 -273.5 52.5t-217 149.5t-143 242.5t-51.5 323.5q0 176 50.5 320.5t141 242t217 151t276.5 53.5q254 0 411.5 -118t215.5 -336l-217 -39q-45 136 -146.5 213t-250.5 78q-229 1 -349 -151.5t-121 -413.5q-1 -171 51 -296t158.5 -196t260.5 -72
q188 -2 297 106.5t132 314.5h-287v172h514q4 -35 4 -87q0 -154 -45.5 -284t-130 -225t-212 -148t-285.5 -53zM654 1699v226h227v-226h-227z" />
    <glyph glyph-name="gdotaccent" unicode="&#x121;" horiz-adv-x="1245" 
d="M599 -522q-137 0 -254.5 62.5t-183.5 178.5l197 101q34 -68 99.5 -102t143.5 -34q138 0 213 73.5t73 214.5v105q-122 -108 -304 -108q-151 0 -266 77t-175 209.5t-60 298.5q0 255 138 419t367 164q200 0 325 -130v99h190v-1136q0 -93 -15 -164q-34 -164 -161.5 -246
t-326.5 -82zM309 554q0 -173 77.5 -282t225.5 -109q152 0 226 105t74 286q0 179 -73 284t-219 105q-153 0 -232 -108.5t-79 -280.5zM552 1330v226h226v-226h-226z" />
    <glyph glyph-name="uni0122" unicode="&#x122;" horiz-adv-x="1480" 
d="M746 -31q-148 0 -273.5 52.5t-217 149.5t-143 242.5t-51.5 323.5q0 176 50.5 320.5t141 242t217 151t276.5 53.5q254 0 411.5 -118t215.5 -336l-217 -39q-45 136 -146.5 213t-250.5 78q-229 1 -349 -151.5t-121 -413.5q-1 -171 51 -296t158.5 -196t260.5 -72
q188 -2 297 106.5t132 314.5h-287v172h514q4 -35 4 -87q0 -154 -45.5 -284t-130 -225t-212 -148t-285.5 -53zM667 -604v98q14 0 31 4t38.5 13.5t35 31.5t12.5 53h-117v216h216v-216q0 -91 -61.5 -145.5t-154.5 -54.5z" />
    <glyph glyph-name="uni0123" unicode="&#x123;" horiz-adv-x="1245" 
d="M599 -522q-137 0 -254.5 62.5t-183.5 178.5l197 101q34 -68 99.5 -102t143.5 -34q138 0 213 73.5t73 214.5v105q-122 -108 -304 -108q-151 0 -266 77t-175 209.5t-60 298.5q0 255 138 419t367 164q200 0 325 -130v99h190v-1136q0 -93 -15 -164q-34 -164 -161.5 -246
t-326.5 -82zM309 554q0 -173 77.5 -282t225.5 -109q152 0 226 105t74 286q0 179 -73 284t-219 105q-153 0 -232 -108.5t-79 -280.5zM532 1330v216q0 91 62 145.5t155 54.5v-98q-21 0 -45 -6t-49 -31t-24 -65h118v-216h-217z" />
    <glyph glyph-name="Hcircumflex" unicode="&#x124;" horiz-adv-x="1453" 
d="M143 0v1475h214v-636h738v636h215v-1475h-215v637h-738v-637h-214zM367 1638l264 308h185l264 -308h-204l-153 182l-152 -182h-204z" />
    <glyph glyph-name="hcircumflex" unicode="&#x125;" 
d="M920 544q0 57 -6 107t-24.5 103.5t-48.5 91.5t-81.5 62.5t-119.5 24.5q-126 0 -203.5 -86.5t-77.5 -271.5v-575h-217v1475h192v-501q130 162 365 162q109 0 191.5 -39t128 -95t73.5 -131.5t36.5 -136t8.5 -120.5v-614h-217v544zM-122 1638l264 308h186l264 -308h-205
l-153 182l-151 -182h-205z" />
    <glyph glyph-name="Hbar" unicode="&#x126;" horiz-adv-x="1494" 
d="M164 0v1015h-144v202h144v258h214v-258h737v258h215v-258h144v-202h-144v-1015h-215v637h-737v-637h-214zM378 839h737v176h-737v-176z" />
    <glyph glyph-name="hbar" unicode="&#x127;" 
d="M920 544q0 57 -6 107t-24.5 103.5t-48.5 91.5t-81.5 62.5t-119.5 24.5q-126 0 -203.5 -86.5t-77.5 -271.5v-575h-217v1201h-117v171h117v103h192v-103h226v-171h-226v-227q130 162 365 162q109 0 191.5 -39t128 -95t73.5 -131.5t36.5 -136t8.5 -120.5v-614h-217v544z" />
    <glyph glyph-name="Itilde" unicode="&#x128;" horiz-adv-x="541" 
d="M164 0v1475h214v-1475h-214zM-62 1666q-29 116 16 193t151 77q53 0 114.5 -33.5t114.5 -67t86 -33.5t46 32.5t0 79.5h139q29 -116 -16.5 -194t-152.5 -78q-42 0 -90 21t-83 46.5t-74 46.5t-66 21q-34 0 -46.5 -33.5t0.5 -77.5h-139z" />
    <glyph glyph-name="itilde" unicode="&#x129;" horiz-adv-x="541" 
d="M164 0v1106h214v-1106h-214zM-62 1297q-29 116 16 193.5t151 77.5q53 0 114.5 -33.5t114.5 -67t86 -33.5t46 32t0 79h139q29 -116 -16.5 -193.5t-152.5 -77.5q-53 0 -114 33.5t-113.5 67t-85.5 33.5q-34 0 -46.5 -33.5t0.5 -77.5h-139z" />
    <glyph glyph-name="Imacron" unicode="&#x12a;" horiz-adv-x="541" 
d="M164 0v1475h214v-1475h-214zM3 1720v171h536v-171h-536z" />
    <glyph glyph-name="imacron" unicode="&#x12b;" horiz-adv-x="541" 
d="M164 0v1106h214v-1106h-214zM3 1352v171h536v-171h-536z" />
    <glyph glyph-name="Iogonek" unicode="&#x12e;" horiz-adv-x="541" 
d="M188 -492q-90 0 -150.5 64.5t-60.5 152.5q0 79 50.5 161.5t136.5 150.5v1438h214v-1475q-95 -53 -161.5 -129t-66.5 -132q0 -29 18.5 -48.5t46.5 -19.5q40 0 82 40l81 -103q-35 -48 -85.5 -74t-104.5 -26z" />
    <glyph glyph-name="iogonek" unicode="&#x12f;" horiz-adv-x="541" 
d="M164 1287v208h214v-208h-214zM-23 -275q0 79 50.5 161.5t136.5 150.5v1069h214v-1106q-95 -53 -161.5 -129t-66.5 -132q0 -29 18.5 -48.5t46.5 -19.5q40 0 82 40l81 -103q-35 -48 -85.5 -74t-104.5 -26q-90 0 -150.5 64.5t-60.5 152.5z" />
    <glyph glyph-name="Idotaccent" unicode="&#x130;" horiz-adv-x="541" 
d="M164 0v1475h214v-1475h-214zM158 1699v226h226v-226h-226z" />
    <glyph glyph-name="dotlessi" unicode="&#x131;" horiz-adv-x="541" 
d="M164 0v1106h214v-1106h-214z" />
    <glyph glyph-name="Jcircumflex" unicode="&#x134;" horiz-adv-x="1000" 
d="M424 -30q-160 0 -270.5 85t-153.5 233l212 50q14 -69 73 -117.5t132 -48.5q53 0 103.5 26t74.5 78q11 23 16.5 56.5t6 57.5t0.5 82v1003h218v-1003v-41v-40t-0.5 -35t-2 -35t-3.5 -30.5t-6 -32.5t-9 -29.5t-12 -32t-16 -30.5q-57 -99 -151 -147.5t-212 -48.5zM368 1638
l264 308h185l264 -308h-204l-153 182l-152 -182h-204z" />
    <glyph glyph-name="jcircumflex" unicode="&#x135;" horiz-adv-x="564" 
d="M-20 -492v203h56q85 0 124.5 40.5t39.5 126.5v1228h215v-1315q0 -135 -75 -209t-212 -74h-148zM-53 1270l264 307h185l264 -307h-204l-153 181l-151 -181h-205z" />
    <glyph glyph-name="uni0136" unicode="&#x136;" horiz-adv-x="1289" 
d="M143 0v1475h214v-689l618 689h266l-652 -720l700 -755h-274l-658 705v-705h-214zM579 -604v98q14 0 31 4t38.5 13.5t35 31.5t12.5 53h-117v216h216v-216q0 -91 -61.5 -145.5t-154.5 -54.5z" />
    <glyph glyph-name="uni0137" unicode="&#x137;" horiz-adv-x="1073" 
d="M142 0l1 1475h217v-902l435 533h272l-459 -553l506 -553h-291l-463 532v-532h-218zM486 -604v98q21 0 45 6t49 31t24 65h-118v216h216v-216q0 -91 -61.5 -145.5t-154.5 -54.5z" />
    <glyph glyph-name="Lacute" unicode="&#x139;" horiz-adv-x="1076" 
d="M164 0v1475h214v-1273h668v-202h-882zM190 1638l146 359h168l-146 -359h-168z" />
    <glyph glyph-name="lacute" unicode="&#x13a;" horiz-adv-x="541" 
d="M164 0v1475h214v-1475h-214zM190 1638l146 359h168l-146 -359h-168z" />
    <glyph glyph-name="uni013B" unicode="&#x13b;" horiz-adv-x="1076" 
d="M164 0v1475h214v-1273h668v-202h-882zM497 -604v98q14 0 31 4t38.5 13.5t35 31.5t12.5 53h-117v216h216v-216q0 -91 -61.5 -145.5t-154.5 -54.5z" />
    <glyph glyph-name="uni013C" unicode="&#x13c;" horiz-adv-x="541" 
d="M164 0v1475h214v-1475h-214zM163 -604v98q21 0 45 6t49 31t24 65h-118v216h216v-216q0 -91 -61.5 -145.5t-154.5 -54.5z" />
    <glyph glyph-name="Lcaron" unicode="&#x13d;" horiz-adv-x="1076" 
d="M164 0v1475h214v-1273h668v-202h-882zM672 1270l145 358h168l-145 -358h-168z" />
    <glyph glyph-name="lcaron" unicode="&#x13e;" horiz-adv-x="541" 
d="M164 0v1475h214v-1475h-214zM481 1270l146 358h168l-146 -358h-168z" />
    <glyph glyph-name="Lslash" unicode="&#x141;" horiz-adv-x="1103" 
d="M191 0v442l-119 -68v233l119 69v799h215v-676l337 193v-233l-337 -194v-363h667v-202h-882z" />
    <glyph glyph-name="lslash" unicode="&#x142;" horiz-adv-x="800" 
d="M294 0v574l-229 -131v234l229 131v667h214v-544l228 131v-234l-228 -131v-697h-214z" />
    <glyph glyph-name="Nacute" unicode="&#x143;" horiz-adv-x="1446" 
d="M143 0v1475h217l726 -1096v1096h218v-1475h-218l-726 1097v-1097h-217zM656 1638l146 359h168l-146 -359h-168z" />
    <glyph glyph-name="nacute" unicode="&#x144;" 
d="M920 544q0 57 -6 107t-24.5 103.5t-48.5 91.5t-81.5 62.5t-119.5 24.5q-126 0 -203.5 -86.5t-77.5 -271.5v-575h-217v1106h192v-132q130 162 365 162q109 0 191.5 -39t128 -95t73.5 -131.5t36.5 -136t8.5 -120.5v-614h-217v544zM562 1270l146 358h168l-146 -358h-168z
" />
    <glyph glyph-name="uni0145" unicode="&#x145;" horiz-adv-x="1446" 
d="M143 0v1475h217l726 -1096v1096h218v-1475h-218l-726 1097v-1097h-217zM637 -604v98q21 0 45 6t49 31t24 65h-118v216h216v-216q0 -91 -61.5 -145.5t-154.5 -54.5z" />
    <glyph glyph-name="uni0146" unicode="&#x146;" 
d="M920 544q0 57 -6 107t-24.5 103.5t-48.5 91.5t-81.5 62.5t-119.5 24.5q-126 0 -203.5 -86.5t-77.5 -271.5v-575h-217v1106h192v-132q130 162 365 162q109 0 191.5 -39t128 -95t73.5 -131.5t36.5 -136t8.5 -120.5v-614h-217v544zM537 -604v98q14 0 31 4t38.5 13.5t35 31.5
t12.5 53h-117v216h216v-216q0 -91 -61.5 -145.5t-154.5 -54.5z" />
    <glyph glyph-name="Ncaron" unicode="&#x147;" horiz-adv-x="1446" 
d="M143 0v1475h217l726 -1096v1096h218v-1475h-218l-726 1097v-1097h-217zM388 1946h205l151 -182l153 182h205l-264 -308h-186z" />
    <glyph glyph-name="ncaron" unicode="&#x148;" 
d="M920 544q0 57 -6 107t-24.5 103.5t-48.5 91.5t-81.5 62.5t-119.5 24.5q-126 0 -203.5 -86.5t-77.5 -271.5v-575h-217v1106h192v-132q130 162 365 162q109 0 191.5 -39t128 -95t73.5 -131.5t36.5 -136t8.5 -120.5v-614h-217v544zM272 1577h205l152 -181l152 181h205
l-264 -307h-185z" />
    <glyph glyph-name="Eng" unicode="&#x14a;" horiz-adv-x="1446" 
d="M1086 1475h218v-1660q0 -133 -63 -198.5t-193 -65.5q-71 0 -138 18v164q62 -6 77 -6q70 0 102.5 30t32.5 98q0 49 -20.5 99.5t-74.5 136.5l-667 1006v-1097h-217v1475h217l726 -1096v1096z" />
    <glyph glyph-name="eng" unicode="&#x14b;" 
d="M957 -441q-104 -18 -215 10v158q32 -4 52.5 -4.5t47 5.5t41.5 21t26 46t11 77v672q0 57 -6 107t-24.5 103.5t-48.5 91.5t-81.5 62.5t-119.5 24.5q-126 0 -203.5 -86.5t-77.5 -271.5v-575h-217v1106h192v-132q130 162 365 162q109 0 191.5 -39t128 -95t73.5 -131.5
t36.5 -136t8.5 -120.5v-799q0 -107 -47.5 -172.5t-132.5 -83.5z" />
    <glyph glyph-name="Omacron" unicode="&#x14c;" horiz-adv-x="1516" 
d="M759 -31q-217 0 -376 97t-240.5 270t-81.5 401t81.5 401t240.5 270t376 97t375.5 -97t239.5 -270t81 -401t-81 -401t-239.5 -270t-375.5 -97zM289 737q-1 -171 51 -296t158.5 -196t260.5 -72q229 -2 349 150.5t120 413.5q0 260 -120 412t-349 153q-153 1 -260 -70.5
t-158 -197.5t-52 -297zM490 1720v171h536v-171h-536z" />
    <glyph glyph-name="omacron" unicode="&#x14d;" horiz-adv-x="1248" 
d="M624 -31q-246 0 -394 162.5t-148 422.5t149 421.5t393 161.5q247 0 394.5 -162t147.5 -421q0 -261 -148 -423t-394 -162zM309 554q0 -178 81.5 -280.5t233.5 -102.5q154 0 234.5 104t80.5 279q0 177 -80.5 279t-234.5 102q-156 0 -235.5 -103t-79.5 -278zM357 1352v171
h536v-171h-536z" />
    <glyph glyph-name="Ohungarumlaut" unicode="&#x150;" horiz-adv-x="1516" 
d="M759 -31q-217 0 -376 97t-240.5 270t-81.5 401t81.5 401t240.5 270t376 97t375.5 -97t239.5 -270t81 -401t-81 -401t-239.5 -270t-375.5 -97zM289 737q-1 -171 51 -296t158.5 -196t260.5 -72q229 -2 349 150.5t120 413.5q0 260 -120 412t-349 153q-153 1 -260 -70.5
t-158 -197.5t-52 -297zM458 1638l145 359h168l-145 -359h-168zM867 1638l146 359h168l-146 -359h-168z" />
    <glyph glyph-name="ohungarumlaut" unicode="&#x151;" horiz-adv-x="1248" 
d="M624 -31q-246 0 -394 162.5t-148 422.5t149 421.5t393 161.5q247 0 394.5 -162t147.5 -421q0 -261 -148 -423t-394 -162zM309 554q0 -178 81.5 -280.5t233.5 -102.5q154 0 234.5 104t80.5 279q0 177 -80.5 279t-234.5 102q-156 0 -235.5 -103t-79.5 -278zM322 1270
l145 358h168l-146 -358h-167zM730 1270l146 358h167l-145 -358h-168z" />
    <glyph glyph-name="OE" unicode="&#x152;" horiz-adv-x="2284" 
d="M759 -31q-217 0 -376 97t-240.5 270t-81.5 401t81.5 401t240.5 270t376 97q296 0 481 -179v149h942v-202h-728v-414h605v-202h-605v-455h728v-202h-942v148q-185 -179 -481 -179zM289 737q-1 -171 51 -296t158.5 -196t260.5 -72q229 -2 349 150.5t120 413.5
q0 260 -120 412t-349 153q-153 1 -260 -70.5t-158 -197.5t-52 -297z" />
    <glyph glyph-name="oe" unicode="&#x153;" horiz-adv-x="2078" 
d="M1491 -31q-139 0 -252 53.5t-186 150.5q-72 -97 -181.5 -150.5t-247.5 -53.5q-246 0 -394 162.5t-148 422.5t149 421.5t393 161.5q138 0 247.5 -53.5t181.5 -150.5q72 98 182 151t246 53q253 0 391 -173.5t121 -470.5h-824q13 -155 93 -238.5t219 -83.5q100 0 173 45
t114 131l210 -66q-64 -147 -194.5 -229.5t-292.5 -82.5zM309 554q0 -178 81.5 -280.5t233.5 -102.5q154 0 234.5 104t80.5 279q0 177 -80.5 279t-234.5 102q-156 0 -235.5 -103t-79.5 -278zM1174 659h600q-17 146 -87.5 217t-197.5 71q-135 0 -214.5 -73.5t-100.5 -214.5z
" />
    <glyph glyph-name="Racute" unicode="&#x154;" horiz-adv-x="1332" 
d="M143 0v1475h596q55 0 114 -9q180 -28 275 -153.5t95 -310.5q0 -151 -64 -264t-187 -167l278 -571h-244l-257 529h-392v-529h-214zM357 732h374q53 0 93 9q62 15 104.5 58t59.5 94t17 109q0 91 -45 165t-136 96q-39 10 -93 10h-374v-541zM545 1638l145 359h168l-145 -359
h-168z" />
    <glyph glyph-name="racute" unicode="&#x155;" horiz-adv-x="791" 
d="M143 0v1106h191v-176q41 72 102 113q61 44 144 60.5t160 2.5v-201q-51 16 -119.5 8t-121.5 -42q-140 -90 -140 -313v-558h-216zM293 1270l145 358h168l-145 -358h-168z" />
    <glyph glyph-name="uni0156" unicode="&#x156;" horiz-adv-x="1332" 
d="M143 0v1475h596q55 0 114 -9q180 -28 275 -153.5t95 -310.5q0 -151 -64 -264t-187 -167l278 -571h-244l-257 529h-392v-529h-214zM357 732h374q53 0 93 9q62 15 104.5 58t59.5 94t17 109q0 91 -45 165t-136 96q-39 10 -93 10h-374v-541zM551 -604v98q21 0 45 6t49 31
t24 65h-118v216h216v-216q0 -91 -61.5 -145.5t-154.5 -54.5z" />
    <glyph glyph-name="uni0157" unicode="&#x157;" horiz-adv-x="791" 
d="M143 0v1106h191v-176q41 72 102 113q61 44 144 60.5t160 2.5v-201q-51 16 -119.5 8t-121.5 -42q-140 -90 -140 -313v-558h-216zM144 -604v98q21 0 45 6t49 31t24 65h-118v216h216v-216q0 -91 -61.5 -145.5t-154.5 -54.5z" />
    <glyph glyph-name="Rcaron" unicode="&#x158;" horiz-adv-x="1332" 
d="M143 0v1475h596q55 0 114 -9q180 -28 275 -153.5t95 -310.5q0 -151 -64 -264t-187 -167l278 -571h-244l-257 529h-392v-529h-214zM256 1946h205l151 -182l153 182h205l-264 -308h-186zM357 732h374q53 0 93 9q62 15 104.5 58t59.5 94t17 109q0 91 -45 165t-136 96
q-39 10 -93 10h-374v-541z" />
    <glyph glyph-name="rcaron" unicode="&#x159;" horiz-adv-x="791" 
d="M143 0v1106h191v-176q41 72 102 113q61 44 144 60.5t160 2.5v-201q-51 16 -119.5 8t-121.5 -42q-140 -90 -140 -313v-558h-216zM83 1577h205l151 -181l153 181h205l-265 -307h-185z" />
    <glyph glyph-name="Sacute" unicode="&#x15a;" horiz-adv-x="1317" 
d="M678 -31q-240 0 -403.5 122t-199.5 332l223 34q33 -134 140 -210t252 -76q138 0 234 64.5t96 171.5q0 75 -48 120.5t-137 72.5l-378 112q-50 15 -91 32t-86.5 47.5t-76 68.5t-51 95t-20.5 126q0 100 40.5 181t112 133.5t167.5 80.5t208 28q225 -2 376.5 -115.5
t196.5 -316.5l-229 -39q-23 123 -120 195t-227 74q-125 2 -212 -57.5t-87 -152.5q0 -44 20 -77.5t57.5 -56.5t71 -36t81.5 -26l272 -77q40 -11 65 -19t69.5 -26t74 -37t65.5 -50.5t57.5 -67.5t36.5 -87t15 -111q0 -108 -45.5 -195.5t-123.5 -142.5t-179.5 -84.5
t-216.5 -29.5zM587 1638l145 359h168l-145 -359h-168z" />
    <glyph glyph-name="sacute" unicode="&#x15b;" horiz-adv-x="1097" 
d="M566 -30q-202 0 -329 89t-155 251l219 34q21 -87 95.5 -136t184.5 -49q100 0 157 40.5t57 112.5q0 44 -21.5 69t-80 47.5t-195.5 59.5q-214 56 -297 125.5t-83 191.5q0 151 117.5 241.5t312.5 90.5q191 0 316.5 -88.5t144.5 -236.5l-219 -40q-11 79 -75 125.5t-165 50.5
q-98 4 -158 -32.5t-60 -99.5q0 -56 57.5 -87.5t251.5 -80.5q209 -54 291.5 -126.5t82.5 -200.5q0 -164 -119.5 -257.5t-329.5 -93.5zM466 1270l145 358h168l-145 -358h-168z" />
    <glyph glyph-name="Scircumflex" unicode="&#x15c;" horiz-adv-x="1317" 
d="M678 -31q-240 0 -403.5 122t-199.5 332l223 34q33 -134 140 -210t252 -76q138 0 234 64.5t96 171.5q0 75 -48 120.5t-137 72.5l-378 112q-50 15 -91 32t-86.5 47.5t-76 68.5t-51 95t-20.5 126q0 100 40.5 181t112 133.5t167.5 80.5t208 28q225 -2 376.5 -115.5
t196.5 -316.5l-229 -39q-23 123 -120 195t-227 74q-125 2 -212 -57.5t-87 -152.5q0 -44 20 -77.5t57.5 -56.5t71 -36t81.5 -26l272 -77q40 -11 65 -19t69.5 -26t74 -37t65.5 -50.5t57.5 -67.5t36.5 -87t15 -111q0 -108 -45.5 -195.5t-123.5 -142.5t-179.5 -84.5
t-216.5 -29.5zM318 1638l265 308h185l264 -308h-205l-152 182l-152 -182h-205z" />
    <glyph glyph-name="scircumflex" unicode="&#x15d;" horiz-adv-x="1097" 
d="M566 -30q-202 0 -329 89t-155 251l219 34q21 -87 95.5 -136t184.5 -49q100 0 157 40.5t57 112.5q0 44 -21.5 69t-80 47.5t-195.5 59.5q-214 56 -297 125.5t-83 191.5q0 151 117.5 241.5t312.5 90.5q191 0 316.5 -88.5t144.5 -236.5l-219 -40q-11 79 -75 125.5t-165 50.5
q-98 4 -158 -32.5t-60 -99.5q0 -56 57.5 -87.5t251.5 -80.5q209 -54 291.5 -126.5t82.5 -200.5q0 -164 -119.5 -257.5t-329.5 -93.5zM210 1270l264 307h185l265 -307h-205l-153 181l-151 -181h-205z" />
    <glyph glyph-name="Scedilla" unicode="&#x15e;" horiz-adv-x="1317" 
d="M669 -494q-67 0 -139 36l50 131q44 -14 70 -14q32 0 51 18.5t19 44.5q0 16 -8 29.5t-18 22t-31 18t-35 14l-42 13.5l53 151q-225 10 -377.5 131t-186.5 322l223 34q33 -134 140 -210t252 -76q138 0 234 64.5t96 171.5q0 75 -48 120.5t-137 72.5l-378 112q-50 15 -91 32
t-86.5 47.5t-76 68.5t-51 95t-20.5 126q0 100 40.5 181t112 133.5t167.5 80.5t208 28q225 -2 376.5 -115.5t196.5 -316.5l-229 -39q-23 123 -120 195t-227 74q-125 2 -212 -57.5t-87 -152.5q0 -44 20 -77.5t57.5 -56.5t71 -36t81.5 -26l272 -77q40 -11 65 -19t69.5 -26
t74 -37t65.5 -50.5t57.5 -67.5t36.5 -87t15 -111q0 -128 -63.5 -225.5t-167 -151.5t-236.5 -70l-24 -71q124 -60 124 -187q0 -91 -60.5 -150.5t-146.5 -59.5z" />
    <glyph glyph-name="scedilla" unicode="&#x15f;" horiz-adv-x="1097" 
d="M535 -494q-67 0 -139 36l49 131q44 -14 71 -14q32 0 51 18.5t19 44.5q0 16 -8 29.5t-18 22t-31 18t-35 14l-42 13.5l54 153q-177 13 -287.5 100.5t-136.5 237.5l219 34q21 -87 95.5 -136t184.5 -49q100 0 157 40.5t57 112.5q0 44 -21.5 69t-80 47.5t-195.5 59.5
q-214 56 -297 125.5t-83 191.5q0 151 117.5 241.5t312.5 90.5q191 0 316.5 -88.5t144.5 -236.5l-219 -40q-11 79 -75 125.5t-165 50.5q-98 4 -158 -32.5t-60 -99.5q0 -56 57.5 -87.5t251.5 -80.5q209 -54 291.5 -126.5t82.5 -200.5q0 -149 -98.5 -240t-274.5 -108l-25 -70
q124 -60 124 -187q0 -91 -60 -150.5t-146 -59.5z" />
    <glyph glyph-name="Scaron" unicode="&#x160;" horiz-adv-x="1317" 
d="M678 -31q-240 0 -403.5 122t-199.5 332l223 34q33 -134 140 -210t252 -76q138 0 234 64.5t96 171.5q0 75 -48 120.5t-137 72.5l-378 112q-50 15 -91 32t-86.5 47.5t-76 68.5t-51 95t-20.5 126q0 100 40.5 181t112 133.5t167.5 80.5t208 28q225 -2 376.5 -115.5
t196.5 -316.5l-229 -39q-23 123 -120 195t-227 74q-125 2 -212 -57.5t-87 -152.5q0 -44 20 -77.5t57.5 -56.5t71 -36t81.5 -26l272 -77q40 -11 65 -19t69.5 -26t74 -37t65.5 -50.5t57.5 -67.5t36.5 -87t15 -111q0 -108 -45.5 -195.5t-123.5 -142.5t-179.5 -84.5
t-216.5 -29.5zM328 1946h204l152 -182l153 182h204l-264 -308h-185z" />
    <glyph glyph-name="scaron" unicode="&#x161;" horiz-adv-x="1097" 
d="M566 -30q-202 0 -329 89t-155 251l219 34q21 -87 95.5 -136t184.5 -49q100 0 157 40.5t57 112.5q0 44 -21.5 69t-80 47.5t-195.5 59.5q-214 56 -297 125.5t-83 191.5q0 151 117.5 241.5t312.5 90.5q191 0 316.5 -88.5t144.5 -236.5l-219 -40q-11 79 -75 125.5t-165 50.5
q-98 4 -158 -32.5t-60 -99.5q0 -56 57.5 -87.5t251.5 -80.5q209 -54 291.5 -126.5t82.5 -200.5q0 -164 -119.5 -257.5t-329.5 -93.5zM209 1577h205l151 -181l153 181h205l-265 -307h-185z" />
    <glyph glyph-name="uni0162" unicode="&#x162;" horiz-adv-x="1235" 
d="M511 0v1273h-491v202h1195v-202h-490v-1273h-43l-36 -102q124 -60 124 -187q0 -91 -60.5 -150.5t-146.5 -59.5q-66 0 -138 36l49 131q44 -14 71 -14q32 0 50.5 18.5t18.5 44.5q0 16 -8 29.5t-18 22t-31 18t-35 14l-42 13.5l66 186h-35z" />
    <glyph glyph-name="uni0163" unicode="&#x163;" horiz-adv-x="865" 
d="M776 0q-114 -21 -205 -17l-27 -80q124 -60 124 -187q0 -91 -60.5 -150.5t-146.5 -59.5q-66 0 -138 36l49 131q44 -14 70 -14q32 0 51 18.5t19 44.5q0 16 -8 29.5t-18 22t-31 18t-35 14l-42 13.5l65 184q-121 37 -170 131q-10 19 -17.5 38t-12 41.5t-7 37.5t-3.5 44.5
t-1.5 41.5t0 49t0.5 49v499h-212v172h212v307h215v-307h329v-172h-329v-489v-35.5v-35.5t0.5 -29.5t2 -29.5t4 -23.5t6.5 -25t10 -19.5q24 -40 69.5 -59t104 -18t132.5 11v-181z" />
    <glyph glyph-name="Tcaron" unicode="&#x164;" horiz-adv-x="1235" 
d="M511 0v1273h-491v202h1195v-202h-490v-1273h-214zM258 1946h205l151 -182l153 182h205l-264 -308h-186z" />
    <glyph glyph-name="tcaron" unicode="&#x165;" horiz-adv-x="865" 
d="M776 0q-81 -16 -155.5 -18t-143 11.5t-122 49t-82.5 91.5q-10 19 -17.5 38t-12 41.5t-7 37.5t-3.5 44.5t-1.5 41.5t0 49t0.5 49v499h-212v172h212v307h215v-307h329v-172h-329v-489v-35.5v-35.5t0.5 -29.5t2 -29.5t4 -23.5t6.5 -25t10 -19.5q24 -40 69.5 -59t104 -18
t132.5 11v-181zM575 1270l146 358h168l-146 -358h-168z" />
    <glyph glyph-name="Tbar" unicode="&#x166;" horiz-adv-x="1235" 
d="M146 630v215h365v428h-491v202h1195v-202h-490v-428h364v-215h-364v-630h-214v630h-365z" />
    <glyph glyph-name="tbar" unicode="&#x167;" horiz-adv-x="906" 
d="M20 481v172h212v281h-212v172h212v307h215v-307h329v-172h-329v-281h357v-172h-357v-36v-35.5v-35.5t0.5 -29.5t2 -29.5t4 -23.5t6.5 -25t10 -19.5q24 -40 69.5 -59t104 -18t132.5 11v-181q-81 -16 -155.5 -18t-143 11.5t-122 49t-82.5 91.5q-10 19 -17.5 38t-12 41.5
t-7 37.5t-3.5 44.5t-1.5 41.5t0 49t0.5 49v46h-212z" />
    <glyph glyph-name="Utilde" unicode="&#x168;" horiz-adv-x="1462" 
d="M731 -31q-262 0 -425 157.5t-163 416.5v931l217 1v-921q0 -91 32 -165.5t85 -121t118.5 -71.5t135.5 -25q95 0 178 42.5t138 132t55 208.5v921h217v-932q0 -259 -163 -416.5t-425 -157.5zM412 1666q-28 116 17 193t151 77q53 0 114.5 -33.5t114 -67t85.5 -33.5t46 32.5
t0 79.5h139q29 -116 -16.5 -194t-152.5 -78q-42 0 -90 21t-83 46.5t-74 46.5t-66 21q-34 0 -46.5 -33.5t0.5 -77.5h-139z" />
    <glyph glyph-name="utilde" unicode="&#x169;" 
d="M560 -30q-109 0 -191.5 39t-127.5 95t-73 131.5t-36.5 135.5t-8.5 121v614h217v-544q0 -57 6 -107t24.5 -103.5t48.5 -91.5t81.5 -62.5t119.5 -24.5q126 0 203 86t77 271v576h216v-1106h-190v132q-130 -162 -366 -162zM307 1297q-28 116 17 193.5t151 77.5
q53 0 114.5 -33.5t114.5 -67t86 -33.5t46 32t0 79h139q29 -116 -16.5 -193.5t-152.5 -77.5q-53 0 -114 33.5t-113.5 67t-85.5 33.5q-34 0 -47 -33.5t0 -77.5h-139z" />
    <glyph glyph-name="Umacron" unicode="&#x16a;" horiz-adv-x="1462" 
d="M731 -31q-262 0 -425 157.5t-163 416.5v931l217 1v-921q0 -91 32 -165.5t85 -121t118.5 -71.5t135.5 -25q95 0 178 42.5t138 132t55 208.5v921h217v-932q0 -259 -163 -416.5t-425 -157.5zM464 1720v171h535v-171h-535z" />
    <glyph glyph-name="umacron" unicode="&#x16b;" 
d="M560 -30q-109 0 -191.5 39t-127.5 95t-73 131.5t-36.5 135.5t-8.5 121v614h217v-544q0 -57 6 -107t24.5 -103.5t48.5 -91.5t81.5 -62.5t119.5 -24.5q126 0 203 86t77 271v576h216v-1106h-190v132q-130 -162 -366 -162zM351 1352v171h536v-171h-536z" />
    <glyph glyph-name="Ubreve" unicode="&#x16c;" horiz-adv-x="1462" 
d="M731 -31q-262 0 -425 157.5t-163 416.5v931l217 1v-921q0 -91 32 -165.5t85 -121t118.5 -71.5t135.5 -25q95 0 178 42.5t138 132t55 208.5v921h217v-932q0 -259 -163 -416.5t-425 -157.5zM436 1896h170q0 -52 36.5 -88t88.5 -36t88.5 36t36.5 88h170q0 -122 -86.5 -208
t-208.5 -86t-208.5 86t-86.5 208z" />
    <glyph glyph-name="ubreve" unicode="&#x16d;" 
d="M560 -30q-109 0 -191.5 39t-127.5 95t-73 131.5t-36.5 135.5t-8.5 121v614h217v-544q0 -57 6 -107t24.5 -103.5t48.5 -91.5t81.5 -62.5t119.5 -24.5q126 0 203 86t77 271v576h216v-1106h-190v132q-130 -162 -366 -162zM325 1528h170q0 -52 36.5 -88.5t88.5 -36.5t88 36.5
t36 88.5h170q0 -122 -86 -208.5t-208 -86.5t-208.5 86.5t-86.5 208.5z" />
    <glyph glyph-name="Uring" unicode="&#x16e;" horiz-adv-x="1462" 
d="M731 -31q-262 0 -425 157.5t-163 416.5v931l217 1v-921q0 -91 32 -165.5t85 -121t118.5 -71.5t135.5 -25q95 0 178 42.5t138 132t55 208.5v921h217v-932q0 -259 -163 -416.5t-425 -157.5zM485 1841q0 103 74 177t177 74q104 0 177.5 -74t73.5 -177t-73.5 -177t-177.5 -74
q-103 0 -177 74t-74 177zM624 1841q0 -46 33 -79t79 -33t79.5 33t33.5 79q0 47 -33.5 80t-79.5 33t-79 -33.5t-33 -79.5z" />
    <glyph glyph-name="uring" unicode="&#x16f;" 
d="M560 -30q-109 0 -191.5 39t-127.5 95t-73 131.5t-36.5 135.5t-8.5 121v614h217v-544q0 -57 6 -107t24.5 -103.5t48.5 -91.5t81.5 -62.5t119.5 -24.5q126 0 203 86t77 271v576h216v-1106h-190v132q-130 -162 -366 -162zM369 1473q0 103 74 176.5t177 73.5q104 0 177 -73.5
t73 -176.5q0 -104 -73.5 -177.5t-176.5 -73.5t-177 74t-74 177zM507 1473q0 -46 33.5 -79.5t79.5 -33.5t79 33.5t33 79.5q0 47 -33 79.5t-79 32.5t-79.5 -33t-33.5 -79z" />
    <glyph glyph-name="Uhungarumlaut" unicode="&#x170;" horiz-adv-x="1462" 
d="M731 -31q-262 0 -425 157.5t-163 416.5v931l217 1v-921q0 -91 32 -165.5t85 -121t118.5 -71.5t135.5 -25q95 0 178 42.5t138 132t55 208.5v921h217v-932q0 -259 -163 -416.5t-425 -157.5zM422 1638l145 359h168l-145 -359h-168zM831 1638l146 359h168l-146 -359h-168z
" />
    <glyph glyph-name="uhungarumlaut" unicode="&#x171;" 
d="M560 -30q-109 0 -191.5 39t-127.5 95t-73 131.5t-36.5 135.5t-8.5 121v614h217v-544q0 -57 6 -107t24.5 -103.5t48.5 -91.5t81.5 -62.5t119.5 -24.5q126 0 203 86t77 271v576h216v-1106h-190v132q-130 -162 -366 -162zM319 1270l146 358h168l-146 -358h-168zM728 1270
l145 358h168l-145 -358h-168z" />
    <glyph glyph-name="Uogonek" unicode="&#x172;" horiz-adv-x="1462" 
d="M731 -31q-262 0 -425 157.5t-163 416.5v931l217 1v-921q0 -91 32 -165.5t85 -121t118.5 -71.5t135.5 -25q95 0 178 42.5t138 132t55 208.5v921h217v-932q0 -173 -76.5 -305t-212.5 -201q-78 -53 -129 -118t-51 -114q0 -29 18.5 -48t46.5 -19q40 0 82 40l81 -104
q-73 -99 -189 -99q-90 0 -150.5 64.5t-60.5 151.5t61 178h-8z" />
    <glyph glyph-name="uogonek" unicode="&#x173;" 
d="M560 -30q-109 0 -191.5 39t-127.5 95t-73 131.5t-36.5 135.5t-8.5 121v614h217v-544q0 -57 6 -107t24.5 -103.5t48.5 -91.5t81.5 -62.5t119.5 -24.5q126 0 203 86t77 271v576h216v-1106q-95 -53 -161.5 -129t-66.5 -132q0 -29 18.5 -48.5t46.5 -19.5q40 0 82 40l81 -103
q-74 -100 -189 -100q-90 0 -150.5 64.5t-60.5 152.5q0 84 57.5 172t152.5 158v77q-130 -162 -366 -162z" />
    <glyph glyph-name="Wcircumflex" unicode="&#x174;" horiz-adv-x="1971" 
d="M456 0l-428 1475h224l310 -1116l310 1115l226 1l310 -1116l310 1116h226l-430 -1475h-212l-317 1103l-316 -1103h-213zM627 1638l264 308h185l264 -308h-204l-153 182l-152 -182h-204z" />
    <glyph glyph-name="wcircumflex" unicode="&#x175;" horiz-adv-x="1618" 
d="M379 0l-338 1107l212 -1l231 -759l234 759h184l234 -759l231 759h211l-338 -1106h-172l-258 801l-259 -801h-172zM451 1270l264 307h185l264 -307h-205l-152 181l-152 -181h-204z" />
    <glyph glyph-name="Ycircumflex" unicode="&#x176;" horiz-adv-x="1214" 
d="M499 0v609l-499 866h250l357 -620l358 620h249l-498 -866v-609h-217zM248 1638l264 308h185l265 -308h-205l-153 182l-151 -182h-205z" />
    <glyph glyph-name="ycircumflex" unicode="&#x177;" horiz-adv-x="1123" 
d="M293 -492l182 497l-447 1101h223l327 -832l312 832h217l-610 -1598h-204zM219 1270l264 307h186l264 -307h-205l-153 181l-151 -181h-205z" />
    <glyph glyph-name="Ydieresis" unicode="&#x178;" horiz-adv-x="1214" 
d="M499 0v609l-499 866h250l357 -620l358 620h249l-498 -866v-609h-217zM299 1660v205h205v-205h-205zM712 1660v205h204v-205h-204z" />
    <glyph glyph-name="Zacute" unicode="&#x179;" horiz-adv-x="1325" 
d="M102 0v34l753 1239h-712v202h1080v-35l-749 -1237h735v-203h-1107zM582 1638l145 359h168l-145 -359h-168z" />
    <glyph glyph-name="zacute" unicode="&#x17a;" horiz-adv-x="1090" 
d="M41 0v34l628 880h-571v192h911v-35l-627 -880h596v-191h-937zM483 1270l146 358h168l-146 -358h-168z" />
    <glyph glyph-name="Zdotaccent" unicode="&#x17b;" horiz-adv-x="1325" 
d="M102 0v34l753 1239h-712v202h1080v-35l-749 -1237h735v-203h-1107zM588 1699v226h226v-226h-226z" />
    <glyph glyph-name="zdotaccent" unicode="&#x17c;" horiz-adv-x="1090" 
d="M41 0v34l628 880h-571v192h911v-35l-627 -880h596v-191h-937zM451 1330v226h226v-226h-226z" />
    <glyph glyph-name="Zcaron" unicode="&#x17d;" horiz-adv-x="1325" 
d="M102 0v34l753 1239h-712v202h1080v-35l-749 -1237h735v-203h-1107zM328 1946h204l152 -182l153 182h204l-264 -308h-185z" />
    <glyph glyph-name="zcaron" unicode="&#x17e;" horiz-adv-x="1090" 
d="M41 0v34l628 880h-571v192h911v-35l-627 -880h596v-191h-937zM207 1577h205l151 -181l153 181h205l-265 -307h-185z" />
    <glyph glyph-name="florin" unicode="&#x192;" horiz-adv-x="1458" 
d="M345 -31q-132 0 -270 63l90 181q83 -40 165 -40q86 0 143 69t77 191l35 219h-318v172h345l40 247q13 79 44.5 151.5t84 138t136.5 105t188 39.5q156 0 278 -64l-99 -177q-2 3 -22.5 11.5t-60 17.5t-78.5 9q-37 0 -72.5 -9t-71 -29.5t-61.5 -60t-35 -93.5l-47 -286h400
v-172h-429l-41 -250q-36 -217 -149 -325t-272 -108z" />
    <glyph glyph-name="Ohorn" unicode="&#x1a0;" horiz-adv-x="1516" 
d="M759 -31q-217 0 -376 97t-240.5 270t-81.5 401t81.5 401t240.5 270t376 97q112 0 205 -25q80 -18 125 1q26 12 41.5 31.5t20 42t6 49.5t-0.5 54l167 1q28 -214 -95 -281q-10 -5 -32 -13q126 -100 192.5 -262t66.5 -366q0 -228 -81 -401t-239.5 -270t-375.5 -97zM289 737
q-1 -171 51 -296t158.5 -196t260.5 -72q229 -2 349 150.5t120 413.5q0 260 -120 412t-349 153q-153 1 -260 -70.5t-158 -197.5t-52 -297z" />
    <glyph glyph-name="ohorn" unicode="&#x1a1;" horiz-adv-x="1248" 
d="M624 -31q-246 0 -394 162.5t-148 422.5t149 421.5t393 161.5q88 0 171 -24q86 -21 131 -1q26 12 41.5 31.5t20 42t6 49.5t-0.5 54l167 1q28 -213 -95 -280q-31 -16 -59 -22q160 -162 160 -434q0 -261 -148 -423t-394 -162zM309 554q0 -178 81.5 -280.5t233.5 -102.5
q154 0 234.5 104t80.5 279q0 177 -80.5 279t-234.5 102q-156 0 -235.5 -103t-79.5 -278z" />
    <glyph glyph-name="Uhorn" unicode="&#x1af;" horiz-adv-x="1462" 
d="M731 -31q-262 0 -425 157.5t-163 416.5v931l217 1v-921q0 -91 32 -165.5t85 -121t118.5 -71.5t135.5 -25q95 0 178 42.5t138 132t55 208.5v921h92q58 0 87 5q36 6 58.5 23t32 44t12 51.5t1.5 59.5l166 1q27 -205 -94 -278q-52 -31 -138 -35v-803q0 -259 -163 -416.5
t-425 -157.5z" />
    <glyph glyph-name="uhorn" unicode="&#x1b0;" 
d="M560 -30q-109 0 -191.5 39t-127.5 95t-73 131.5t-36.5 135.5t-8.5 121v614h217v-544q0 -57 6 -107t24.5 -103.5t48.5 -91.5t81.5 -62.5t119.5 -24.5q126 0 203 86t77 271v576h50q58 0 87 5t49.5 18t31.5 29t17 39.5t7 44t0 47.5l166 1q27 -204 -95 -277q-43 -24 -97 -32
v-981h-190v132q-130 -162 -366 -162z" />
    <glyph glyph-name="uni0218" unicode="&#x218;" horiz-adv-x="1317" 
d="M678 -31q-240 0 -403.5 122t-199.5 332l223 34q33 -134 140 -210t252 -76q138 0 234 64.5t96 171.5q0 75 -48 120.5t-137 72.5l-378 112q-50 15 -91 32t-86.5 47.5t-76 68.5t-51 95t-20.5 126q0 100 40.5 181t112 133.5t167.5 80.5t208 28q225 -2 376.5 -115.5
t196.5 -316.5l-229 -39q-23 123 -120 195t-227 74q-125 2 -212 -57.5t-87 -152.5q0 -44 20 -77.5t57.5 -56.5t71 -36t81.5 -26l272 -77q40 -11 65 -19t69.5 -26t74 -37t65.5 -50.5t57.5 -67.5t36.5 -87t15 -111q0 -108 -45.5 -195.5t-123.5 -142.5t-179.5 -84.5
t-216.5 -29.5zM599 -604v98q21 0 45 6t49 31t24 65h-118v216h216v-216q0 -91 -61.5 -145.5t-154.5 -54.5z" />
    <glyph glyph-name="uni0219" unicode="&#x219;" horiz-adv-x="1097" 
d="M566 -30q-202 0 -329 89t-155 251l219 34q21 -87 95.5 -136t184.5 -49q100 0 157 40.5t57 112.5q0 44 -21.5 69t-80 47.5t-195.5 59.5q-214 56 -297 125.5t-83 191.5q0 151 117.5 241.5t312.5 90.5q191 0 316.5 -88.5t144.5 -236.5l-219 -40q-11 79 -75 125.5t-165 50.5
q-98 4 -158 -32.5t-60 -99.5q0 -56 57.5 -87.5t251.5 -80.5q209 -54 291.5 -126.5t82.5 -200.5q0 -164 -119.5 -257.5t-329.5 -93.5zM454 -604v98q14 0 31 4t38.5 13.5t35 31.5t12.5 53h-117v216h216v-216q0 -91 -61.5 -145.5t-154.5 -54.5z" />
    <glyph glyph-name="uni021A" unicode="&#x21a;" horiz-adv-x="1235" 
d="M511 0v1273h-491v202h1195v-202h-490v-1273h-214zM510 -604v98q21 0 45 6t49 31t24 65h-118v216h216v-216q0 -91 -61.5 -145.5t-154.5 -54.5z" />
    <glyph glyph-name="uni021B" unicode="&#x21b;" horiz-adv-x="865" 
d="M776 0q-81 -16 -155.5 -18t-143 11.5t-122 49t-82.5 91.5q-10 19 -17.5 38t-12 41.5t-7 37.5t-3.5 44.5t-1.5 41.5t0 49t0.5 49v499h-212v172h212v307h215v-307h329v-172h-329v-489v-35.5v-35.5t0.5 -29.5t2 -29.5t4 -23.5t6.5 -25t10 -19.5q24 -40 69.5 -59t104 -18
t132.5 11v-181zM361 -604v98q21 0 45 6t49 31t24 65h-118v216h217v-216q0 -91 -62 -145.5t-155 -54.5z" />
    <glyph glyph-name="uni0259" unicode="&#x259;" horiz-adv-x="1221" 
d="M588 1137q248 0 400 -159t152 -416q0 -270 -149 -431.5t-393 -161.5q-253 0 -391 173.5t-121 470.5h823q-13 155 -92.5 238.5t-218.5 83.5q-100 0 -173.5 -45t-114.5 -131l-210 66q64 147 195 229.5t293 82.5zM305 446q17 -146 87 -216.5t198 -70.5q272 0 315 287h-600z
" />
    <glyph glyph-name="uni02BC" unicode="&#x2bc;" horiz-adv-x="539" 
d="M177 1078q63 -5 88 37t17 113h-118v247h226v-268q0 -123 -59 -183.5t-167 -40.5z" />
    <glyph glyph-name="circumflex" unicode="&#x2c6;" horiz-adv-x="1150" 
d="M216 1638l264 308h186l264 -308h-205l-153 182l-151 -182h-205z" />
    <glyph glyph-name="caron" unicode="&#x2c7;" horiz-adv-x="1142" 
d="M216 1946h205l151 -182l153 182h205l-264 -308h-186z" />
    <glyph glyph-name="breve" unicode="&#x2d8;" horiz-adv-x="1081" 
d="M541 1602q-122 0 -208.5 86t-86.5 208h170q0 -52 36.5 -88t88.5 -36t88.5 36t36.5 88h170q0 -122 -86.5 -208t-208.5 -86z" />
    <glyph glyph-name="dotaccent" unicode="&#x2d9;" horiz-adv-x="717" 
d="M246 1699v226h226v-226h-226z" />
    <glyph glyph-name="ring" unicode="&#x2da;" horiz-adv-x="1077" 
d="M539 1590q-103 0 -177 74t-74 177t74 177t177 74t177 -74t74 -177t-74 -177t-177 -74zM426 1841q0 -46 33.5 -79t79.5 -33t79 33t33 79q0 47 -33 80t-79 33t-79.5 -33.5t-33.5 -79.5z" />
    <glyph glyph-name="ogonek" unicode="&#x2db;" horiz-adv-x="892" 
d="M456 -492q-90 0 -150.5 64.5t-60.5 152.5q0 104 85.5 212t215.5 176l99 -113q-95 -53 -161.5 -129t-66.5 -132q0 -29 18.5 -48.5t46.5 -19.5q40 0 82 40l81 -103q-74 -100 -189 -100z" />
    <glyph glyph-name="tilde" unicode="&#x2dc;" horiz-adv-x="1157" 
d="M743 1642q-42 0 -90 21t-83 46.5t-74 46.5t-66 21q-34 0 -46.5 -33.5t0.5 -77.5h-139q-28 116 17 193t151 77q53 0 114.5 -33.5t114 -67t85.5 -33.5t46 32.5t0 79.5h139q29 -116 -16.5 -194t-152.5 -78z" />
    <glyph glyph-name="hungarumlaut" unicode="&#x2dd;" horiz-adv-x="1156" 
d="M790 1638h-168l145 359h168zM213 1638l145 359h168l-145 -359h-168z" />
    <glyph glyph-name="uni0374" unicode="&#x374;" horiz-adv-x="601" 
d="M291 1116h-168l145 359h168z" />
    <glyph glyph-name="uni0375" unicode="&#x375;" horiz-adv-x="601" 
d="M291 -483h-168l145 358h168z" />
    <glyph glyph-name="uni037E" unicode="&#x37e;" horiz-adv-x="676" 
d="M239 -150q63 -5 87.5 37t16.5 113h-118v247h227v-267q0 -123 -59.5 -184t-167.5 -41zM225 880v226h227v-226h-227z" />
    <glyph glyph-name="tonos" unicode="&#x384;" horiz-adv-x="1228" 
d="M614 1116h-168l146 359h168z" />
    <glyph glyph-name="dieresistonos" unicode="&#x385;" horiz-adv-x="1228" 
d="M827 1290v205h185v-205h-185zM218 1290v205h184v-205h-184zM483 1270l146 358h168l-146 -358h-168z" />
    <glyph glyph-name="Alphatonos" unicode="&#x386;" horiz-adv-x="1371" 
d="M65 0l479 1475h308l479 -1475h-222l-110 333h-605l-107 -333h-222zM75 1116l145 359h168l-145 -359h-168zM460 534h474l-239 727z" />
    <glyph glyph-name="anoteleia" unicode="&#x387;" horiz-adv-x="1228" 
d="M263 509q-60 0 -100 38.5t-40 97.5t40 97.5t100 38.5q55 0 94 -39t39 -97t-39 -97t-94 -39z" />
    <glyph glyph-name="Epsilontonos" unicode="&#x388;" horiz-adv-x="1507" 
d="M463 0v1475h942v-202h-728v-414h605v-202h-605v-455h728v-202h-942zM36 1116l145 359h168l-145 -359h-168z" />
    <glyph glyph-name="Etatonos" unicode="&#x389;" horiz-adv-x="1754" 
d="M444 0v1475h214v-636h738v636h215v-1475h-215v637h-738v-637h-214zM20 1116l146 359h168l-146 -359h-168z" />
    <glyph glyph-name="Iotatonos" unicode="&#x38a;" horiz-adv-x="799" 
d="M442 0v1475h214v-1475h-214zM20 1116l146 359h168l-146 -359h-168z" />
    <glyph glyph-name="Omicrontonos" unicode="&#x38c;" horiz-adv-x="1733" 
d="M975 -31q-217 0 -376 97t-240 270t-81 401t81 401t240 270t376 97t375.5 -97t239.5 -270t81 -401t-81 -401t-239.5 -270t-375.5 -97zM33 1116l145 359h168l-145 -359h-168zM505 737q-1 -171 51 -296t158.5 -196t260.5 -72q229 -2 349 150.5t120 413.5q0 260 -120 412
t-349 153q-153 1 -260 -70.5t-158 -197.5t-52 -297z" />
    <glyph glyph-name="Upsilontonos" unicode="&#x38e;" horiz-adv-x="1646" 
d="M931 0v609l-499 866h250l357 -620l358 620h250l-499 -866v-609h-217zM49 1116l146 359h167l-145 -359h-168z" />
    <glyph glyph-name="Omegatonos" unicode="&#x38f;" horiz-adv-x="1759" 
d="M303 0v202h235q-118 100 -183 248t-65 327q0 205 84.5 370t244.5 261t368 96t367.5 -96t244 -261t84.5 -370q0 -179 -65 -327t-182 -248h233v-202h-504l1 202q115 60 201.5 203t88.5 336q1 115 -31 217t-91.5 178.5t-149 121t-197.5 44.5q-142 0 -250.5 -76t-164 -201.5
t-55.5 -278.5q0 -104 26.5 -196.5t71 -159t94.5 -113.5t104 -75v-202h-510zM45 1116l145 359h168l-145 -359h-168z" />
    <glyph glyph-name="iotadieresistonos" unicode="&#x390;" horiz-adv-x="930" 
d="M562 -9q-152 25 -219 139q-13 21 -21.5 45.5t-13 41.5t-6.5 50.5t-2.5 47.5t0 59.5t0.5 60.5v671h214v-661v-42v-41t1 -32t3.5 -32.5t7 -25t11.5 -25.5q36 -63 125 -74q90 -6 181 8v-181q-56 -16 -142 -17.5t-139 8.5zM41 1290v205h184v-205h-184zM306 1270l146 358h168
l-146 -358h-168zM650 1290v205h185v-205h-185z" />
    <glyph glyph-name="Alpha" unicode="&#x391;" horiz-adv-x="1348" 
d="M41 0l479 1475h308l480 -1475h-223l-109 333h-605l-108 -333h-222zM436 534h474l-238 727z" />
    <glyph glyph-name="Beta" unicode="&#x392;" horiz-adv-x="1280" 
d="M143 0v1475h580q102 0 185 -33.5t135 -90t79.5 -126.5t27.5 -147q0 -100 -41.5 -178t-115.5 -121q109 -46 168 -138t59 -211q0 -197 -117 -313.5t-325 -116.5h-635zM360 204h385q112 0 183.5 62.5t71.5 167.5q0 102 -66.5 169.5t-174.5 67.5h-399v-467zM360 872h360
q92 0 151.5 55t59.5 149q0 87 -58 142t-153 55h-360v-401z" />
    <glyph glyph-name="Gamma" unicode="&#x393;" horiz-adv-x="1105" 
d="M143 0v1475h942v-202h-728v-1273h-214z" />
    <glyph glyph-name="uni0394" unicode="&#x394;" horiz-adv-x="1348" 
d="M41 0l479 1475h308l480 -1475h-1267zM329 202h690l-347 1056z" />
    <glyph glyph-name="Epsilon" unicode="&#x395;" horiz-adv-x="1187" 
d="M143 0v1475h942v-202h-728v-414h606v-202h-606v-455h728v-202h-942z" />
    <glyph glyph-name="Zeta" unicode="&#x396;" horiz-adv-x="1325" 
d="M102 0v34l753 1239h-712v202h1080v-35l-749 -1237h735v-203h-1107z" />
    <glyph glyph-name="Eta" unicode="&#x397;" horiz-adv-x="1453" 
d="M143 0v1475h214v-636h738v636h215v-1475h-215v637h-738v-637h-214z" />
    <glyph glyph-name="Theta" unicode="&#x398;" horiz-adv-x="1516" 
d="M759 -31q-217 0 -376 97t-240.5 270t-81.5 401t81.5 401t240.5 270t376 97t375.5 -97t239.5 -270t81 -401t-81 -401t-239.5 -270t-375.5 -97zM289 737q-1 -171 51 -296t158.5 -196t260.5 -72q229 -2 349 150.5t120 413.5q0 260 -120 412t-349 153q-153 1 -260 -70.5
t-158 -197.5t-52 -297zM490 652v171h536v-171h-536z" />
    <glyph glyph-name="Iota" unicode="&#x399;" horiz-adv-x="541" 
d="M164 0v1475h214v-1475h-214z" />
    <glyph glyph-name="Kappa" unicode="&#x39a;" horiz-adv-x="1289" 
d="M143 0v1475h214v-689l618 689h266l-652 -720l700 -755h-274l-658 705v-705h-214z" />
    <glyph glyph-name="Lambda" unicode="&#x39b;" horiz-adv-x="1287" 
d="M489 1475h309l479 -1475h-222l-414 1258l-409 -1258h-222z" />
    <glyph glyph-name="Mu" unicode="&#x39c;" horiz-adv-x="1741" 
d="M143 0v1475h194l534 -1109l532 1109h195v-1474h-202v1009l-476 -1010h-98l-477 1010v-1010h-202z" />
    <glyph glyph-name="Nu" unicode="&#x39d;" horiz-adv-x="1446" 
d="M143 0v1475h217l726 -1096v1096h218v-1475h-218l-726 1097v-1097h-217z" />
    <glyph glyph-name="Xi" unicode="&#x39e;" horiz-adv-x="1459" 
d="M143 1273v202h1173v-202h-1173zM143 0v202h1173v-202h-1173zM246 637v202h967v-202h-967z" />
    <glyph glyph-name="Omicron" unicode="&#x39f;" horiz-adv-x="1516" 
d="M759 -31q-217 0 -376 97t-240.5 270t-81.5 401t81.5 401t240.5 270t376 97t375.5 -97t239.5 -270t81 -401t-81 -401t-239.5 -270t-375.5 -97zM289 737q-1 -171 51 -296t158.5 -196t260.5 -72q229 -2 349 150.5t120 413.5q0 260 -120 412t-349 153q-153 1 -260 -70.5
t-158 -197.5t-52 -297z" />
    <glyph glyph-name="Pi" unicode="&#x3a0;" horiz-adv-x="1459" 
d="M143 0v1475h1173v-1475h-214v1273h-745v-1273h-214z" />
    <glyph glyph-name="Rho" unicode="&#x3a1;" horiz-adv-x="1284" 
d="M143 0v1475h596q55 0 114 -9q180 -28 275 -153.5t95 -310.5q0 -122 -40.5 -218.5t-125 -161.5t-204.5 -84q-59 -9 -114 -9h-382v-529h-214zM357 732h374q53 0 93 9q62 15 104.5 58t59.5 94t17 109q0 91 -45 165t-136 96q-39 10 -93 10h-374v-541z" />
    <glyph glyph-name="Sigma" unicode="&#x3a3;" horiz-adv-x="1310" 
d="M143 0v194l535 543l-535 542v196h1024v-202h-746l510 -518v-35l-510 -518h733v-202h-1011z" />
    <glyph glyph-name="Tau" unicode="&#x3a4;" horiz-adv-x="1235" 
d="M511 0v1273h-491v202h1195v-202h-490v-1273h-214z" />
    <glyph glyph-name="Upsilon" unicode="&#x3a5;" horiz-adv-x="1214" 
d="M499 0v609l-499 866h250l357 -620l358 620h249l-498 -866v-609h-217z" />
    <glyph glyph-name="Phi" unicode="&#x3a6;" horiz-adv-x="1494" 
d="M640 206q-114 -19 -218.5 10.5t-184.5 100.5t-128 191t-48 272t48 273.5t128 194t184.5 103t218.5 11.5v113h213v-113q114 19 218.5 -11.5t185 -103t128.5 -194t48 -273.5t-48 -272t-128.5 -191t-185 -100.5t-218.5 -10.5v-206h-213v206zM281 780q0 -87 21.5 -159.5
t64.5 -126.5t113 -78.5t160 -11.5v762q-90 13 -160.5 -13t-112.5 -82t-64 -130t-22 -161zM853 404q89 -13 159.5 11.5t113.5 78t65 125.5t22 156q0 67 -13.5 128t-42.5 114t-70.5 90t-102 53.5t-131.5 5.5v-762z" />
    <glyph glyph-name="Chi" unicode="&#x3a7;" horiz-adv-x="1308" 
d="M20 0l503 746l-489 729h262l359 -547l358 547h263l-490 -729l502 -746h-262l-371 564l-371 -564h-264z" />
    <glyph glyph-name="Psi" unicode="&#x3a8;" horiz-adv-x="1516" 
d="M651 334q-186 7 -314 93t-171 252q-23 79 -23 171v625h202v-572q0 -89 15 -148q55 -218 291 -221v941h214v-941q114 2 191.5 60t102.5 171q12 56 12 138v572h202v-625q0 -96 -22 -168q-45 -168 -173.5 -254.5t-312.5 -93.5v-334h-214v334z" />
    <glyph glyph-name="uni03A9" unicode="&#x3a9;" horiz-adv-x="1516" 
d="M75 0v202h234q-118 100 -183 248t-65 327q0 153 49.5 286.5t139 231t221 153.5t288.5 56q208 0 367.5 -96t244 -261t84.5 -370q0 -179 -65 -327t-183 -248h234v-202h-504l1 202q115 60 201.5 203t88.5 336q1 115 -31 217t-91.5 178.5t-149 121t-197.5 44.5
q-142 0 -250.5 -76t-164 -201.5t-55.5 -278.5q0 -104 26.5 -196.5t71 -159t94.5 -113.5t104 -75v-202h-510z" />
    <glyph glyph-name="Iotadieresis" unicode="&#x3aa;" horiz-adv-x="541" 
d="M164 0v1475h214v-1475h-214zM-38 1660v205h205v-205h-205zM375 1660v205h205v-205h-205z" />
    <glyph glyph-name="Upsilondieresis" unicode="&#x3ab;" horiz-adv-x="1214" 
d="M499 0v609l-499 866h250l357 -620l358 620h249l-498 -866v-609h-217zM299 1660v205h205v-205h-205zM712 1660v205h204v-205h-204z" />
    <glyph glyph-name="alphatonos" unicode="&#x3ac;" horiz-adv-x="1273" 
d="M587 -31q-153 0 -269 77t-176 209t-60 298q0 168 61 299.5t178 208t272 76.5q114 0 203 -45.5t144 -129.5v144h190v-1106h-190v146q-56 -85 -147 -131t-206 -46zM309 552q0 -172 78 -280.5t229 -108.5q149 0 222.5 105.5t73.5 285.5q0 179 -73 284t-219 105
q-148 0 -229.5 -105.5t-81.5 -285.5zM542 1270l145 358h168l-145 -358h-168z" />
    <glyph glyph-name="epsilontonos" unicode="&#x3ad;" horiz-adv-x="1055" 
d="M518 -31q-187 0 -311.5 95t-124.5 257q0 82 33.5 150.5t96.5 108.5q-97 97 -97 230q0 153 114.5 240t282.5 87q257 0 444 -181l-125 -146q-63 57 -144 91.5t-164 34.5q-82 0 -135 -36t-53 -108q0 -136 230 -136h99v-172h-99q-51 0 -86.5 -2.5t-71.5 -11t-57.5 -23.5
t-35 -41t-13.5 -63q0 -79 60 -125.5t162 -46.5q192 0 315 168l170 -112q-73 -122 -201.5 -190t-288.5 -68zM410 1270l145 358h168l-145 -358h-168z" />
    <glyph glyph-name="etatonos" unicode="&#x3ae;" 
d="M920 544q0 57 -6 107t-24.5 103.5t-48.5 91.5t-81.5 62.5t-119.5 24.5q-126 0 -203.5 -86.5t-77.5 -271.5v-575h-217v1106h192v-132q130 162 365 162q109 0 191.5 -39t128 -95t73.5 -131.5t36.5 -136t8.5 -120.5v-614h-217v544zM562 1270l146 358h168l-146 -358h-168z
" />
    <glyph glyph-name="iotatonos" unicode="&#x3af;" horiz-adv-x="796" 
d="M427 -9q-152 25 -219 139q-13 21 -21.5 45.5t-13 41.5t-6.5 50.5t-2.5 47.5t0 59.5t0.5 60.5v671h214v-661q0 -14 -0.5 -42.5t0 -40.5t1.5 -32t3 -32t6.5 -26t11.5 -25q36 -63 125 -74q90 -6 182 8v-181q-56 -16 -142 -17.5t-139 8.5zM190 1270l146 358h168l-146 -358
h-168z" />
    <glyph glyph-name="upsilondieresistonos" unicode="&#x3b0;" horiz-adv-x="1238" 
d="M123 505v601h217v-544q0 -57 6 -107t24.5 -103.5t48.5 -91.5t81.5 -62.5t119.5 -24.5q67 0 118.5 24.5t81 62.5t48 91.5t24.5 103.5t6 107v544h217v-601q0 -79 -9 -145t-40 -141.5t-83 -127.5t-145 -86.5t-218 -34.5q-91 0 -165 18t-124.5 47.5t-89 73t-60.5 89
t-35.5 101.5t-18 103.5t-4.5 102.5zM222 1290v205h185v-205h-185zM487 1270l146 358h168l-146 -358h-168zM831 1290v205h185v-205h-185z" />
    <glyph glyph-name="alpha" unicode="&#x3b1;" horiz-adv-x="1273" 
d="M587 -31q-153 0 -269 77t-176 209t-60 298q0 168 61 299.5t178 208t272 76.5q114 0 203 -45.5t144 -129.5v144h190v-1106h-190v146q-56 -85 -147 -131t-206 -46zM309 552q0 -172 78 -280.5t229 -108.5q149 0 222.5 105.5t73.5 285.5q0 179 -73 284t-219 105
q-148 0 -229.5 -105.5t-81.5 -285.5z" />
    <glyph glyph-name="beta" unicode="&#x3b2;" horiz-adv-x="1211" 
d="M142 1106q0 65 21 134q40 129 153.5 197t262.5 68q198 0 323.5 -113.5t125.5 -296.5q0 -93 -36 -167t-106 -116q114 -34 189.5 -137t75.5 -254q0 -208 -139.5 -330t-377.5 -122q-164 0 -277 74v-535h-215v1598zM359 446q0 -81 16 -128q24 -70 100 -108.5t169 -38.5
q129 0 210 71t81 189q0 124 -93.5 189.5t-256.5 67.5v190q104 9 164.5 64t60.5 150q0 99 -64 155.5t-163 56.5q-65 0 -119 -28.5t-80 -88.5q-25 -58 -25 -158v-583z" />
    <glyph glyph-name="gamma" unicode="&#x3b3;" horiz-adv-x="1101" 
d="M442 -369v369l-401 1106h216l294 -838l294 838h216l-402 -1106v-369h-217z" />
    <glyph glyph-name="delta" unicode="&#x3b4;" horiz-adv-x="1248" 
d="M620 -30q-245 0 -391.5 142t-146.5 376q0 187 94 318t260 160q-193 96 -193 269q0 95 55.5 169.5t178.5 93.5q38 7 128 7h349v-176h-301q-74 0 -108 -9q-88 -22 -88 -94q0 -27 16 -51t39.5 -40.5t66.5 -36t78.5 -31.5t96 -33t99.5 -36q148 -59 230.5 -188t82.5 -304
q0 -239 -148.5 -387.5t-397.5 -148.5zM327 506q0 -159 77 -246.5t221 -87.5q145 0 221.5 89.5t76.5 245.5t-77 244t-221 88q-146 0 -222 -88.5t-76 -244.5z" />
    <glyph glyph-name="epsilon" unicode="&#x3b5;" horiz-adv-x="1055" 
d="M518 -31q-187 0 -311.5 95t-124.5 257q0 82 33.5 150.5t96.5 108.5q-97 97 -97 230q0 153 114.5 240t282.5 87q257 0 444 -181l-125 -146q-63 57 -144 91.5t-164 34.5q-82 0 -135 -36t-53 -108q0 -136 230 -136h99v-172h-99q-51 0 -86.5 -2.5t-71.5 -11t-57.5 -23.5
t-35 -41t-13.5 -63q0 -79 60 -125.5t162 -46.5q192 0 315 168l170 -112q-73 -122 -201.5 -190t-288.5 -68z" />
    <glyph glyph-name="zeta" unicode="&#x3b6;" horiz-adv-x="1061" 
d="M849 -246q1 36 -1.5 66t-10.5 53t-16 41t-24 31.5t-29 23t-36 15t-39.5 9t-46 5t-49 2t-53.5 0.5q-84 0 -151.5 11.5t-126.5 39.5t-99 72.5t-62.5 113t-22.5 158.5q0 133 62.5 257t232.5 300q128 129 343 330h-577v193h906v-163q-20 -19 -90.5 -88t-155.5 -150t-220 -207
q-153 -148 -214 -250.5t-61 -201.5q0 -55 17 -94t44.5 -62t74 -36.5t94.5 -17.5t116 -4q117 0 196 -24q110 -35 162 -143t25 -280h-188z" />
    <glyph glyph-name="eta" unicode="&#x3b7;" 
d="M920 544q0 57 -6 107t-24.5 103.5t-48.5 91.5t-81.5 62.5t-119.5 24.5q-126 0 -203.5 -86.5t-77.5 -271.5v-575h-217v1106h192v-132q130 162 365 162q109 0 191.5 -39t128 -95t73.5 -131.5t36.5 -136t8.5 -120.5v-614h-217v544z" />
    <glyph glyph-name="theta" unicode="&#x3b8;" horiz-adv-x="1385" 
d="M693 -31q-192 0 -331.5 98.5t-209.5 271t-70 398.5t70 398t209.5 270.5t331.5 98.5t331 -98.5t209.5 -270.5t70.5 -398q0 -229 -70.5 -401.5t-209.5 -269.5t-331 -97zM312 652q15 -217 112.5 -348t268.5 -131q169 0 266 130.5t114 348.5h-761zM312 822h761
q-14 217 -112 348.5t-268 131.5t-267 -131t-114 -349z" />
    <glyph glyph-name="iota" unicode="&#x3b9;" horiz-adv-x="796" 
d="M427 -9q-152 25 -219 139q-13 21 -21.5 45.5t-13 41.5t-6.5 50.5t-2.5 47.5t0 59.5t0.5 60.5v671h214v-661q0 -14 -0.5 -42.5t0 -40.5t1.5 -32t3 -32t6.5 -26t11.5 -25q36 -63 125 -74q90 -6 182 8v-181q-56 -16 -142 -17.5t-139 8.5z" />
    <glyph glyph-name="kappa" unicode="&#x3ba;" horiz-adv-x="1073" 
d="M142 0l1 1106h217v-533l435 533h272l-459 -553l506 -553h-291l-463 532v-532h-218z" />
    <glyph glyph-name="lambda" unicode="&#x3bb;" horiz-adv-x="1142" 
d="M483 1106q-47 119 -96 165t-153 46h-53v188h74q92 0 152 -13q36 -8 67 -25.5t53.5 -35.5t46 -52.5t37 -56.5t33.5 -69.5t28 -69.5l28 -77l402 -1106h-216l-294 838l-294 -838h-216z" />
    <glyph glyph-name="uni03BC" unicode="&#x3bc;" horiz-adv-x="1278" 
d="M142 -492v1598h217v-544q0 -57 6.5 -107t25 -103.5t48 -91.5t81 -62.5t118.5 -24.5q127 0 204.5 86t77.5 271v576h216v-1106h-191v136q-125 -166 -365 -166q-155 0 -247 87v-549h-191z" />
    <glyph glyph-name="nu" unicode="&#x3bd;" horiz-adv-x="1101" 
d="M442 0l-401 1106h216l294 -838l294 838h216l-402 -1106h-217z" />
    <glyph glyph-name="xi" unicode="&#x3be;" horiz-adv-x="1158" 
d="M955 -246q4 50 -0.5 87t-14 63.5t-31.5 44t-44 28t-60.5 15.5t-72.5 6.5t-88 1.5q-287 0 -424.5 115.5t-137.5 320.5q0 129 54.5 219.5t161.5 128.5q-160 122 -160 325q0 82 27.5 149t74.5 112t110.5 76t134 45t147.5 14q165 0 292.5 -64t209.5 -175l-158 -149
q-115 187 -344 187q-121 0 -193.5 -51t-72.5 -150q0 -100 75.5 -154.5t207.5 -60.5q39 -2 149 -2v-203q-22 0 -166 -5q-160 -6 -241.5 -55t-81.5 -169q0 -70 29 -119t84.5 -77.5t127.5 -42t168 -14.5q150 -2 227 -24q118 -37 176.5 -143.5t23.5 -279.5h-190z" />
    <glyph glyph-name="omicron" unicode="&#x3bf;" horiz-adv-x="1248" 
d="M624 -31q-246 0 -394 162.5t-148 422.5t149 421.5t393 161.5q247 0 394.5 -162t147.5 -421q0 -261 -148 -423t-394 -162zM309 554q0 -178 81.5 -280.5t233.5 -102.5q154 0 234.5 104t80.5 279q0 177 -80.5 279t-234.5 102q-156 0 -235.5 -103t-79.5 -278z" />
    <glyph glyph-name="pi" unicode="&#x3c0;" horiz-adv-x="1368" 
d="M259 0v913h-190v193h1230v-193h-190v-913h-215v913h-420v-913h-215z" />
    <glyph glyph-name="rho" unicode="&#x3c1;" horiz-adv-x="1274" 
d="M142 478q0 136 11 203q30 206 166 331t351 125q164 0 284 -76.5t179.5 -206.5t59.5 -298t-60 -300.5t-175 -209.5t-267 -77q-104 0 -191 38t-143 103v-602h-215v970zM356 554q0 -180 79 -285.5t230 -105.5t231.5 107.5t80.5 284.5q0 178 -80 283t-232 105
q-154 0 -231.5 -104.5t-77.5 -284.5z" />
    <glyph glyph-name="uni03C2" unicode="&#x3c2;" horiz-adv-x="1164" 
d="M876 -246q2 58 -6 99.5t-27.5 67.5t-43.5 41.5t-62.5 23t-76 10t-92.5 4.5h-10q-231 8 -353.5 151.5t-122.5 377.5q0 283 143 445.5t391 162.5q184 0 312.5 -89.5t170.5 -247.5l-213 -62q-32 94 -104 145.5t-173 51.5q-144 0 -214.5 -105t-71.5 -281q0 -56 7 -102
t27.5 -93t53.5 -79t89.5 -52.5t132.5 -21.5q168 0 243 -24q113 -36 164 -145.5t25 -277.5h-189z" />
    <glyph glyph-name="sigma" unicode="&#x3c3;" horiz-adv-x="1282" 
d="M624 -31q-160 0 -284.5 75t-191 204.5t-66.5 290.5q0 213 112 363t301 190q68 14 265 14h468v-193h-188q126 -154 126 -374q0 -162 -67 -291.5t-191.5 -204t-283.5 -74.5zM309 539q0 -168 82.5 -268t232.5 -100q152 0 233.5 101.5t81.5 266.5q0 163 -82 263.5t-233 101.5
q-153 0 -234 -102t-81 -263z" />
    <glyph glyph-name="tau" unicode="&#x3c4;" horiz-adv-x="1108" 
d="M691 -9q-152 25 -219 139q-13 21 -21.5 45.5t-13 41.5t-6.5 50.5t-2.5 47.5t0 59.5t0.5 60.5v478h-378v193h970v-193h-378v-468v-42v-41t1 -32t3.5 -32.5t7 -25t11.5 -25.5q36 -63 125 -74q90 -6 181 8v-181q-56 -16 -142 -17.5t-139 8.5z" />
    <glyph glyph-name="upsilon" unicode="&#x3c5;" horiz-adv-x="1238" 
d="M123 505v601h217v-544q0 -57 6 -107t24.5 -103.5t48.5 -91.5t81.5 -62.5t119.5 -24.5q67 0 118.5 24.5t81 62.5t48 91.5t24.5 103.5t6 107v544h217v-601q0 -79 -9 -145t-40 -141.5t-83 -127.5t-145 -86.5t-218 -34.5q-91 0 -165 18t-124.5 47.5t-89 73t-60.5 89
t-35.5 101.5t-18 103.5t-4.5 102.5z" />
    <glyph glyph-name="phi" unicode="&#x3c6;" horiz-adv-x="1532" 
d="M664 -19q-121 -19 -227.5 11t-185 102t-124 190t-45.5 268t45.5 268.5t124 191t185 102.5t227.5 11v335h192v-335q121 19 227.5 -11t185 -102.5t124 -191t45.5 -268.5t-45.5 -268t-124 -190t-185 -102t-227.5 -11v-442h-192v442zM301 552q0 -202 100 -303.5t263 -74.5
v757q-167 28 -265 -73.5t-98 -305.5zM856 174q163 -27 263 73t100 305q0 207 -98 307t-265 72v-757z" />
    <glyph glyph-name="chi" unicode="&#x3c7;" horiz-adv-x="1116" 
d="M20 0l414 559l-404 547h254l275 -380l272 380h254l-404 -547l415 -559h-255l-282 392l-284 -392h-255z" />
    <glyph glyph-name="psi" unicode="&#x3c8;" horiz-adv-x="1475" 
d="M635 -50q-186 7 -316.5 93t-173.5 253q-22 73 -22 170v640h202v-587q0 -89 15 -148q28 -112 106.5 -165.5t188.5 -55.5v956h206v-956q112 2 192.5 60.5t105.5 171.5q12 55 12 137v587h202v-640q0 -93 -23 -168q-44 -166 -174 -253.5t-315 -94.5v-411h-206v411z" />
    <glyph glyph-name="omega" unicode="&#x3c9;" horiz-adv-x="1618" 
d="M510 -32q-137 0 -235.5 74t-145.5 195.5t-47 276.5q0 204 83.5 365.5t243.5 257.5l143 -173q-130 -90 -186.5 -192t-56.5 -249q0 -156 59.5 -253.5t168.5 -97.5q39 0 68.5 12.5t48 40t30.5 58t17.5 78t7 88.5t1.5 101v151h199v-151q0 -60 2 -101.5t7.5 -89t17 -78
t30.5 -57.5t48 -39.5t68 -12.5q74 0 126.5 48t77 125.5t24.5 177.5q0 150 -57 251.5t-185 189.5l143 173q161 -96 243.5 -258.5t82.5 -365.5q0 -156 -48 -278t-146 -194.5t-233 -72.5q-101 0 -180.5 45t-119.5 141q-41 -96 -120 -141t-180 -45z" />
    <glyph glyph-name="iotadieresis" unicode="&#x3ca;" horiz-adv-x="783" 
d="M427 -9q-152 25 -219 139q-13 21 -21.5 45.5t-13 41.5t-6.5 50.5t-2.5 47.5t0 59.5t0.5 60.5v671h214v-661q0 -14 -0.5 -42.5t0 -40.5t1.5 -32t3 -32t6.5 -26t11.5 -25q36 -63 125 -74q90 -6 182 8v-181q-56 -16 -142 -17.5t-139 8.5zM-38 1291v205h205v-205h-205z
M375 1291v205h205v-205h-205z" />
    <glyph glyph-name="upsilondieresis" unicode="&#x3cb;" horiz-adv-x="1238" 
d="M123 505v601h217v-544q0 -57 6 -107t24.5 -103.5t48.5 -91.5t81.5 -62.5t119.5 -24.5q67 0 118.5 24.5t81 62.5t48 91.5t24.5 103.5t6 107v544h217v-601q0 -79 -9 -145t-40 -141.5t-83 -127.5t-145 -86.5t-218 -34.5q-91 0 -165 18t-124.5 47.5t-89 73t-60.5 89
t-35.5 101.5t-18 103.5t-4.5 102.5zM310 1291v205h205v-205h-205zM723 1291v205h205v-205h-205z" />
    <glyph glyph-name="omicrontonos" unicode="&#x3cc;" horiz-adv-x="1248" 
d="M624 -31q-246 0 -394 162.5t-148 422.5t149 421.5t393 161.5q247 0 394.5 -162t147.5 -421q0 -261 -148 -423t-394 -162zM309 554q0 -178 81.5 -280.5t233.5 -102.5q154 0 234.5 104t80.5 279q0 177 -80.5 279t-234.5 102q-156 0 -235.5 -103t-79.5 -278zM542 1270
l145 358h168l-145 -358h-168z" />
    <glyph glyph-name="upsilontonos" unicode="&#x3cd;" horiz-adv-x="1238" 
d="M123 505v601h217v-544q0 -57 6 -107t24.5 -103.5t48.5 -91.5t81.5 -62.5t119.5 -24.5q67 0 118.5 24.5t81 62.5t48 91.5t24.5 103.5t6 107v544h217v-601q0 -79 -9 -145t-40 -141.5t-83 -127.5t-145 -86.5t-218 -34.5q-91 0 -165 18t-124.5 47.5t-89 73t-60.5 89
t-35.5 101.5t-18 103.5t-4.5 102.5zM507 1270l145 358h168l-145 -358h-168z" />
    <glyph glyph-name="omegatonos" unicode="&#x3ce;" horiz-adv-x="1618" 
d="M510 -32q-137 0 -235.5 74t-145.5 195.5t-47 276.5q0 204 83.5 365.5t243.5 257.5l143 -173q-130 -90 -186.5 -192t-56.5 -249q0 -156 59.5 -253.5t168.5 -97.5q39 0 68.5 12.5t48 40t30.5 58t17.5 78t7 88.5t1.5 101v151h199v-151q0 -60 2 -101.5t7.5 -89t17 -78
t30.5 -57.5t48 -39.5t68 -12.5q74 0 126.5 48t77 125.5t24.5 177.5q0 150 -57 251.5t-185 189.5l143 173q161 -96 243.5 -258.5t82.5 -365.5q0 -156 -48 -278t-146 -194.5t-233 -72.5q-101 0 -180.5 45t-119.5 141q-41 -96 -120 -141t-180 -45zM680 1270l145 358h168
l-145 -358h-168z" />
    <glyph glyph-name="uni0400" unicode="&#x400;" horiz-adv-x="1187" 
d="M143 0v1475h942v-202h-728v-414h606v-202h-606v-455h728v-202h-942zM410 1997h168l145 -359h-168z" />
    <glyph glyph-name="uni0401" unicode="&#x401;" horiz-adv-x="1187" 
d="M143 0v1475h942v-202h-728v-414h606v-202h-606v-455h728v-202h-942zM294 1660v205h205v-205h-205zM707 1660v205h204v-205h-204z" />
    <glyph glyph-name="uni0402" unicode="&#x402;" horiz-adv-x="1363" 
d="M157 0v1282h-157v193h676v-193h-329v-301q137 156 407 156q255 0 391.5 -143.5t136.5 -419.5q0 -270 -134 -422t-405 -152v217q165 0 243.5 97t78.5 265q0 350 -339 350q-133 0 -217 -53t-114 -151q-22 -75 -22 -209v-516h-216z" />
    <glyph glyph-name="uni0403" unicode="&#x403;" horiz-adv-x="1105" 
d="M143 0v1475h942v-202h-728v-1273h-214zM417 1638l145 359h168l-145 -359h-168z" />
    <glyph glyph-name="uni0404" unicode="&#x404;" horiz-adv-x="1475" 
d="M760 -31q-160 0 -291 59.5t-217 163.5t-132 244t-45 301q2 229 82.5 402t236 269.5t366.5 96.5q256 0 427 -132.5t227 -374.5l-216 -30q-39 153 -151.5 242.5t-274.5 91.5q-201 3 -322 -123.5t-144 -339.5h530v-202h-529q17 -184 106 -300q59 -81 153 -121.5t206 -42.5
q153 -2 265.5 84t156.5 233l210 -53q-64 -229 -231 -348.5t-413 -119.5z" />
    <glyph glyph-name="uni0405" unicode="&#x405;" horiz-adv-x="1317" 
d="M678 -31q-240 0 -403.5 122t-199.5 332l223 34q33 -134 140 -210t252 -76q138 0 234 64.5t96 171.5q0 75 -48 120.5t-137 72.5l-378 112q-50 15 -91 32t-86.5 47.5t-76 68.5t-51 95t-20.5 126q0 100 40.5 181t112 133.5t167.5 80.5t208 28q225 -2 376.5 -115.5
t196.5 -316.5l-229 -39q-23 123 -120 195t-227 74q-125 2 -212 -57.5t-87 -152.5q0 -44 20 -77.5t57.5 -56.5t71 -36t81.5 -26l272 -77q40 -11 65 -19t69.5 -26t74 -37t65.5 -50.5t57.5 -67.5t36.5 -87t15 -111q0 -108 -45.5 -195.5t-123.5 -142.5t-179.5 -84.5
t-216.5 -29.5z" />
    <glyph glyph-name="uni0406" unicode="&#x406;" horiz-adv-x="541" 
d="M164 0v1475h214v-1475h-214z" />
    <glyph glyph-name="uni0407" unicode="&#x407;" horiz-adv-x="541" 
d="M164 0v1475h214v-1475h-214zM-38 1660v205h205v-205h-205zM375 1660v205h205v-205h-205z" />
    <glyph glyph-name="uni0408" unicode="&#x408;" horiz-adv-x="1000" 
d="M424 -30q-160 0 -270.5 85t-153.5 233l212 50q14 -69 73 -117.5t132 -48.5q53 0 103.5 26t74.5 78q11 23 16.5 56.5t6 57.5t0.5 82v1003h218v-1003v-41v-40t-0.5 -35t-2 -35t-3.5 -30.5t-6 -32.5t-9 -29.5t-12 -32t-16 -30.5q-57 -99 -151 -147.5t-212 -48.5z" />
    <glyph glyph-name="uni0409" unicode="&#x409;" horiz-adv-x="2245" 
d="M1084 0v1273h-552q-36 -562 -92 -876q-10 -57 -20 -100t-24.5 -88.5t-31.5 -77.5t-40.5 -61.5t-52.5 -47t-66 -27.5t-83.5 -8.5t-101.5 13.5v183q54 -5 86.5 4.5t58 45t41.5 93t33 158.5q66 368 93 991h967v-530h381q62 0 113 -8q180 -28 275.5 -154t95.5 -311
t-95 -310.5t-276 -153.5q-51 -8 -113 -8h-596zM1299 202h373q54 0 92 10q92 22 137 95.5t45 164.5t-45 165t-137 96q-39 9 -92 9h-373v-540z" />
    <glyph glyph-name="uni040A" unicode="&#x40a;" horiz-adv-x="2227" 
d="M143 0v1475h214v-532h710v532h214v-530h382q62 0 113 -8q120 -19 204.5 -84.5t125 -162t40.5 -218.5q0 -186 -94.5 -311t-275.5 -153q-51 -8 -113 -8h-596v741h-710v-741h-214zM1281 202h374q55 0 92 10q92 22 136.5 95t44.5 165q0 91 -44.5 165t-136.5 96q-39 9 -92 9
h-374v-540z" />
    <glyph glyph-name="uni040B" unicode="&#x40b;" horiz-adv-x="1364" 
d="M0 1282v193h676v-193h-317v-383q137 81 351 81q138 0 238.5 -41t159.5 -117.5t86.5 -176.5t27.5 -228v-417h-217v348q0 75 -7 132t-28.5 115t-57 95.5t-97 61t-145.5 23.5q-98 0 -179 -27.5t-132 -68.5v-679h-216v1282h-143z" />
    <glyph glyph-name="uni040C" unicode="&#x40c;" horiz-adv-x="1289" 
d="M143 0v1475h214v-689l618 689h266l-652 -720l700 -755h-274l-658 705v-705h-214zM577 1638l145 359h168l-146 -359h-167z" />
    <glyph glyph-name="uni040D" unicode="&#x40d;" horiz-adv-x="1446" 
d="M143 0v1475h217v-1096l726 1096h218v-1475h-218v1097l-726 -1097h-217zM517 1997h168l145 -359h-167z" />
    <glyph glyph-name="uni040E" unicode="&#x40e;" horiz-adv-x="1294" 
d="M355 0l187 382l-514 1093h240l385 -866l396 866h228l-690 -1475h-232zM366 1896h170q0 -52 36 -88t88 -36t88.5 36t36.5 88h170q0 -122 -86.5 -208t-208.5 -86t-208 86t-86 208z" />
    <glyph glyph-name="uni040F" unicode="&#x40f;" horiz-adv-x="1549" 
d="M668 -246v246h-525v1475h214v-1273h835v1273h214v-1475h-524v-246h-214z" />
    <glyph glyph-name="uni0410" unicode="&#x410;" horiz-adv-x="1348" 
d="M41 0l479 1475h308l480 -1475h-223l-109 333h-605l-108 -333h-222zM436 534h474l-238 727z" />
    <glyph glyph-name="uni0411" unicode="&#x411;" horiz-adv-x="1284" 
d="M143 0v1475h962v-202h-748v-355h382q52 0 114 -8q117 -14 202 -78.5t126.5 -160.5t41.5 -212q0 -179 -97 -305t-273 -147q-55 -7 -114 -7h-596zM357 202h374q52 0 93 8q92 20 136.5 89.5t44.5 159.5t-44.5 159.5t-136.5 89.5q-41 8 -93 8h-374v-514z" />
    <glyph glyph-name="uni0412" unicode="&#x412;" horiz-adv-x="1280" 
d="M143 0v1475h580q102 0 185 -33.5t135 -90t79.5 -126.5t27.5 -147q0 -100 -41.5 -178t-115.5 -121q109 -46 168 -138t59 -211q0 -197 -117 -313.5t-325 -116.5h-635zM360 204h385q112 0 183.5 62.5t71.5 167.5q0 102 -66.5 169.5t-174.5 67.5h-399v-467zM360 872h360
q92 0 151.5 55t59.5 149q0 87 -58 142t-153 55h-360v-401z" />
    <glyph glyph-name="uni0413" unicode="&#x413;" horiz-adv-x="1105" 
d="M143 0v1475h942v-202h-728v-1273h-214z" />
    <glyph glyph-name="uni0414" unicode="&#x414;" horiz-adv-x="1530" 
d="M69 202q59 0 104 26.5t72.5 67.5t47.5 107.5t29.5 128t18.5 148.5q15 152 54 796l944 -1v-1273h110v-448h-215v246h-951v-246h-214v448zM420 202h705v1071l-532 1q-3 -47 -11 -194.5t-15 -242.5t-18 -202q-18 -186 -42 -275t-87 -158z" />
    <glyph glyph-name="uni0415" unicode="&#x415;" horiz-adv-x="1187" 
d="M143 0v1475h942v-202h-728v-414h606v-202h-606v-455h728v-202h-942z" />
    <glyph glyph-name="uni0416" unicode="&#x416;" horiz-adv-x="1858" 
d="M20 0l588 755l-539 720h259l494 -675v675h214v-675l495 675h259l-540 -720l588 -755h-268l-534 691v-691h-214v691l-534 -691h-268z" />
    <glyph glyph-name="uni0417" unicode="&#x417;" horiz-adv-x="1293" 
d="M648 -31q-146 0 -266 46.5t-192 115t-115 155.5l186 121q41 -102 139 -168t257 -66q163 0 248.5 71.5t85.5 185.5q0 50 -17.5 88t-46 61.5t-71 39t-87.5 22t-100 8.5q-144 5 -166 5v203q110 0 148 2q130 6 207 63.5t77 158.5q0 103 -76 163t-201 60q-112 0 -198 -51.5
t-135 -135.5l-158 149q77 107 207 173t291 66q98 0 185.5 -25.5t158 -75t112 -131t41.5 -184.5q0 -105 -43 -193t-117 -140q104 -38 160.5 -121t56.5 -206q0 -209 -160 -334.5t-411 -125.5z" />
    <glyph glyph-name="uni0418" unicode="&#x418;" horiz-adv-x="1446" 
d="M1304 0h-218v1097l-726 -1097h-217v1475h217v-1096l726 1096h218v-1475z" />
    <glyph glyph-name="uni0419" unicode="&#x419;" horiz-adv-x="1446" 
d="M143 0v1475h217v-1096l726 1096h218v-1475h-218v1097l-726 -1097h-217zM432 1896h170q0 -52 36.5 -88t88.5 -36t88.5 36t36.5 88h170q0 -122 -86.5 -208t-208.5 -86t-208.5 86t-86.5 208z" />
    <glyph glyph-name="uni041A" unicode="&#x41a;" horiz-adv-x="1289" 
d="M143 0v1475h214v-689l618 689h266l-652 -720l700 -755h-274l-658 705v-705h-214z" />
    <glyph glyph-name="uni041B" unicode="&#x41b;" horiz-adv-x="1463" 
d="M41 183q54 -5 86.5 4.5t58 45t41 92.5t32.5 159q66 368 93 991h968v-1475h-214v1273h-553q-36 -562 -92 -876q-10 -57 -20 -100t-24.5 -88.5t-31.5 -77.5t-40.5 -61.5t-52.5 -47t-66 -27.5t-83.5 -8.5t-101.5 13.5v183z" />
    <glyph glyph-name="uni041C" unicode="&#x41c;" horiz-adv-x="1741" 
d="M143 0v1475h194l534 -1109l532 1109h195v-1474h-202v1009l-476 -1010h-98l-477 1010v-1010h-202z" />
    <glyph glyph-name="uni041D" unicode="&#x41d;" horiz-adv-x="1453" 
d="M143 0v1475h214v-636h738v636h215v-1475h-215v637h-738v-637h-214z" />
    <glyph glyph-name="uni041E" unicode="&#x41e;" horiz-adv-x="1516" 
d="M759 -31q-217 0 -376 97t-240.5 270t-81.5 401t81.5 401t240.5 270t376 97t375.5 -97t239.5 -270t81 -401t-81 -401t-239.5 -270t-375.5 -97zM289 737q-1 -171 51 -296t158.5 -196t260.5 -72q229 -2 349 150.5t120 413.5q0 260 -120 412t-349 153q-153 1 -260 -70.5
t-158 -197.5t-52 -297z" />
    <glyph glyph-name="uni041F" unicode="&#x41f;" horiz-adv-x="1459" 
d="M143 0v1475h1173v-1475h-214v1273h-745v-1273h-214z" />
    <glyph glyph-name="uni0420" unicode="&#x420;" horiz-adv-x="1284" 
d="M143 0v1475h596q55 0 114 -9q180 -28 275 -153.5t95 -310.5q0 -122 -40.5 -218.5t-125 -161.5t-204.5 -84q-59 -9 -114 -9h-382v-529h-214zM357 732h374q53 0 93 9q62 15 104.5 58t59.5 94t17 109q0 91 -45 165t-136 96q-39 10 -93 10h-374v-541z" />
    <glyph glyph-name="uni0421" unicode="&#x421;" horiz-adv-x="1496" 
d="M759 -31q-217 0 -376 97t-240.5 270t-81.5 401t81.5 401t240.5 270t376 97q250 0 419 -126.5t236 -349.5l-217 -58q-44 158 -155.5 244.5t-282.5 86.5q-229 0 -349.5 -152t-121.5 -413q-2 -260 119.5 -412t351.5 -152q171 0 282.5 86.5t155.5 244.5l217 -59
q-67 -223 -236 -349.5t-419 -126.5z" />
    <glyph glyph-name="uni0422" unicode="&#x422;" horiz-adv-x="1235" 
d="M511 0v1273h-491v202h1195v-202h-490v-1273h-214z" />
    <glyph glyph-name="uni0423" unicode="&#x423;" horiz-adv-x="1294" 
d="M355 0l187 382l-514 1093h240l385 -866l396 866h228l-690 -1475h-232z" />
    <glyph glyph-name="uni0424" unicode="&#x424;" horiz-adv-x="1494" 
d="M640 206q-114 -19 -218.5 10.5t-184.5 100.5t-128 191t-48 272t48 273.5t128 194t184.5 103t218.5 11.5v113h213v-113q114 19 218.5 -11.5t185 -103t128.5 -194t48 -273.5t-48 -272t-128.5 -191t-185 -100.5t-218.5 -10.5v-206h-213v206zM281 780q0 -87 21.5 -159.5
t64.5 -126.5t113 -78.5t160 -11.5v762q-90 13 -160.5 -13t-112.5 -82t-64 -130t-22 -161zM853 404q89 -13 159.5 11.5t113.5 78t65 125.5t22 156q0 67 -13.5 128t-42.5 114t-70.5 90t-102 53.5t-131.5 5.5v-762z" />
    <glyph glyph-name="uni0425" unicode="&#x425;" horiz-adv-x="1308" 
d="M20 0l503 746l-489 729h262l359 -547l358 547h263l-490 -729l502 -746h-262l-371 564l-371 -564h-264z" />
    <glyph glyph-name="uni0426" unicode="&#x426;" horiz-adv-x="1512" 
d="M1278 -218v218h-1135v1475h214v-1282h760v1282h214v-1282h161v-411h-214z" />
    <glyph glyph-name="uni0427" unicode="&#x427;" horiz-adv-x="1364" 
d="M1006 0v575q-135 -80 -351 -80q-138 0 -238.5 41t-159.5 117.5t-86.5 176.5t-27.5 228v417h217v-349q0 -75 7 -132t28.5 -115t57 -95.5t97 -61t145.5 -23.5q97 0 178 27.5t133 69.5v679h216v-1475h-216z" />
    <glyph glyph-name="uni0428" unicode="&#x428;" horiz-adv-x="1911" 
d="M143 0v1475h214v-1273h492v1273h214v-1273h490v1273h215v-1475h-1625z" />
    <glyph glyph-name="uni0429" unicode="&#x429;" horiz-adv-x="1949" 
d="M1715 -218v218h-1572v1475h214v-1273h492v1273h214v-1273h490v1273h215v-1282h161v-411h-214z" />
    <glyph glyph-name="uni042A" unicode="&#x42a;" horiz-adv-x="1320" 
d="M191 0v1303h-198v172h413v-530h381q62 0 113 -8q180 -28 275.5 -154t95.5 -311t-95 -310.5t-276 -153.5q-51 -8 -113 -8h-596zM406 202h373q55 0 92 10q92 22 137 95.5t45 164.5t-45 165t-137 96q-39 9 -92 9h-373v-540z" />
    <glyph glyph-name="uni042B" unicode="&#x42b;" horiz-adv-x="1725" 
d="M142 0v1475h214v-530h382q62 0 113 -8q180 -28 275.5 -154t95.5 -311t-95 -310.5t-276 -153.5q-51 -8 -113 -8h-596zM356 202h374q54 0 92 10q92 22 137 95.5t45 164.5t-45 165t-137 96q-39 9 -92 9h-374v-540zM1367 0v1475h214v-1475h-214z" />
    <glyph glyph-name="uni042C" unicode="&#x42c;" horiz-adv-x="1303" 
d="M142 0v1475h214v-530h382q62 0 113 -8q180 -28 275.5 -154t95.5 -311t-95 -310.5t-276 -153.5q-51 -8 -113 -8h-596zM356 202h374q54 0 92 10q92 22 137 95.5t45 164.5t-45 165t-137 96q-39 9 -92 9h-374v-540z" />
    <glyph glyph-name="uni042D" unicode="&#x42d;" horiz-adv-x="1462" 
d="M716 -31q-246 0 -413 119.5t-231 348.5l210 53q44 -147 156 -233t265 -84q112 2 206.5 43t153.5 121q88 115 105 300h-528v202h529q-23 213 -144 339.5t-322 123.5q-162 -2 -274 -91.5t-151 -242.5l-217 30q56 242 227.5 374.5t427.5 132.5q211 0 366.5 -96.5t236 -269.5
t82.5 -402q1 -161 -45 -301t-132 -244t-217 -163.5t-291 -59.5z" />
    <glyph glyph-name="uni042E" unicode="&#x42e;" horiz-adv-x="1917" 
d="M143 0v1475h214v-630h282q25 301 184 480t423 179q192 0 331 -98.5t209.5 -270.5t70.5 -398q0 -229 -70.5 -401.5t-209.5 -269.5t-331 -97q-264 0 -423 180t-184 481h-282v-630h-214zM862 737q-1 -164 40.5 -289t129.5 -200t214 -75q125 0 212.5 75t128.5 200t42 289
t-40 289.5t-129.5 200.5t-213.5 75q-126 0 -213.5 -75.5t-128.5 -200.5t-42 -289z" />
    <glyph glyph-name="uni042F" unicode="&#x42f;" horiz-adv-x="1332" 
d="M1189 0h-214v529h-391l-257 -529h-245l278 571q-123 54 -186.5 167t-63.5 264q0 186 94.5 311t274.5 153q58 9 114 9h596v-1475zM328 1002q0 -91 44.5 -165t135.5 -96q40 -9 93 -9h374v541h-374q-54 0 -93 -10q-91 -22 -135.5 -95.5t-44.5 -165.5z" />
    <glyph glyph-name="uni0430" unicode="&#x430;" horiz-adv-x="1166" 
d="M456 -31q-177 0 -275.5 95t-98.5 237q0 246 261 328q27 8 55.5 15t69 14.5t63.5 12t77 12.5t69.5 10.5t81.5 11.5t74 10q-5 116 -63.5 170t-186.5 54q-93 0 -163.5 -43t-97.5 -131l-200 61q41 146 158.5 228.5t304.5 82.5q153 0 261 -52.5t159 -158.5q24 -50 31 -106
t7 -139v-681h-189v161q-134 -192 -398 -192zM294 303q0 -69 51 -114t149 -45q128 0 210.5 65.5t103.5 154.5q20 59 22 173q-301 -45 -384 -70q-152 -52 -152 -164z" />
    <glyph glyph-name="uni0431" unicode="&#x431;" horiz-adv-x="1215" 
d="M598 -32q-234 1 -366 150.5t-147 421.5q-8 137 10.5 302.5t57.5 261.5q60 149 193 239q79 55 183 83t265 48t217 31l20 -191q-50 -11 -174.5 -24.5t-230 -35t-168.5 -61.5q-74 -46 -116 -134.5t-50 -198.5q60 92 156.5 136.5t208.5 44.5q218 0 347.5 -149.5t129.5 -380.5
q0 -246 -147.5 -395.5t-388.5 -147.5zM312 504q0 -158 77.5 -246t219.5 -88q144 0 221 89.5t77 244.5q0 156 -78.5 245t-219.5 89q-143 0 -220 -88.5t-77 -245.5z" />
    <glyph glyph-name="uni0432" unicode="&#x432;" horiz-adv-x="1129" 
d="M142 0v1106h487q104 0 181 -22q90 -26 146.5 -97.5t56.5 -182.5q0 -121 -77 -191q-35 -31 -72 -43q34 -6 75 -26q129 -66 129 -235q0 -112 -54.5 -187t-153.5 -103q-66 -19 -184 -19h-534zM359 169h304q50 0 98 15q43 13 64.5 50t21.5 83q0 56 -30 92.5t-79 47.5
q-29 9 -87 9h-292v-297zM359 638h240q74 0 114 16q38 15 58.5 51t20.5 80q0 48 -22.5 85t-63.5 51q-41 13 -117 13h-230v-296z" />
    <glyph glyph-name="uni0433" unicode="&#x433;" horiz-adv-x="972" 
d="M143 0v1106h779v-202h-565v-904h-214z" />
    <glyph glyph-name="uni0434" unicode="&#x434;" horiz-adv-x="1272" 
d="M61 172q89 0 129 58.5t65 209.5q34 208 55 666h793v-934h108v-418h-202v246h-744v-246h-204v418zM368 172h520v762h-387q-21 -378 -48 -534q-13 -89 -31 -140.5t-54 -87.5z" />
    <glyph glyph-name="uni0435" unicode="&#x435;" horiz-adv-x="1221" 
d="M634 -31q-248 0 -400 159t-152 416q0 270 149 431.5t393 161.5q253 0 391 -173.5t121 -470.5h-825q13 -155 93.5 -238.5t219.5 -83.5q100 0 173 45t114 131l210 -66q-64 -147 -194.5 -229.5t-292.5 -82.5zM316 659h600q-17 146 -87 217t-197 71q-273 0 -316 -288z" />
    <glyph glyph-name="uni0436" unicode="&#x436;" horiz-adv-x="1522" 
d="M20 0l426 553l-402 553h236l385 -540v540h192v-540l385 540h237l-403 -553l426 -553h-249l-396 540v-540h-192v540l-396 -540h-249z" />
    <glyph glyph-name="uni0437" unicode="&#x437;" horiz-adv-x="1055" 
d="M538 -31q-160 0 -288.5 68t-201.5 190l170 112q123 -168 314 -168q102 0 162.5 46.5t60.5 125.5q0 45 -19 74.5t-58 43.5t-81.5 18.5t-106.5 4.5h-98v172h98q231 0 231 136q0 72 -53.5 108t-135.5 36q-83 0 -164 -34.5t-144 -91.5l-125 146q187 181 445 181
q168 0 282.5 -87t114.5 -240q0 -133 -97 -230q63 -40 96.5 -108.5t33.5 -150.5q0 -162 -124.5 -257t-311.5 -95z" />
    <glyph glyph-name="uni0438" unicode="&#x438;" horiz-adv-x="1218" 
d="M1075 1106v-1106h-206v769l-553 -769h-174v1106h206v-754l554 754h173z" />
    <glyph glyph-name="uni0439" unicode="&#x439;" horiz-adv-x="1218" 
d="M1075 1106v-1106h-206v769l-553 -769h-174v1106h206v-754l554 754h173zM342 1528h170q0 -52 36.5 -88.5t88.5 -36.5t88.5 36.5t36.5 88.5h170q0 -122 -86.5 -208.5t-208.5 -86.5t-208.5 86.5t-86.5 208.5z" />
    <glyph glyph-name="uni043A" unicode="&#x43a;" horiz-adv-x="1073" 
d="M142 0l1 1106h217v-533l435 533h272l-459 -553l506 -553h-291l-463 532v-532h-218z" />
    <glyph glyph-name="uni043B" unicode="&#x43b;" horiz-adv-x="1219" 
d="M41 181q86 -16 118 20.5t51 141.5q43 235 72 763h794v-1106h-215v904h-387q-34 -465 -72 -651q-13 -69 -31 -116t-46 -83t-66.5 -50.5t-93 -18t-124.5 14.5v181z" />
    <glyph glyph-name="uni043C" unicode="&#x43c;" horiz-adv-x="1461" 
d="M142 0v1106h180l408 -811l408 811h180v-1106h-207v668l-333 -668h-97l-333 668v-668h-206z" />
    <glyph glyph-name="uni043D" unicode="&#x43d;" horiz-adv-x="1253" 
d="M142 0v1106h214v-452h540v452h214v-1106h-214v453h-540v-453h-214z" />
    <glyph glyph-name="uni043E" unicode="&#x43e;" horiz-adv-x="1248" 
d="M624 -31q-246 0 -394 162.5t-148 422.5t149 421.5t393 161.5q247 0 394.5 -162t147.5 -421q0 -261 -148 -423t-394 -162zM309 554q0 -178 81.5 -280.5t233.5 -102.5q154 0 234.5 104t80.5 279q0 177 -80.5 279t-234.5 102q-156 0 -235.5 -103t-79.5 -278z" />
    <glyph glyph-name="uni043F" unicode="&#x43f;" horiz-adv-x="1218" 
d="M142 0v1106h933v-1106h-214v904h-505v-904h-214z" />
    <glyph glyph-name="uni0440" unicode="&#x440;" horiz-adv-x="1245" 
d="M663 -31q-183 0 -306 109v-570h-215v1598h191v-99q125 130 325 130q229 0 367 -164t138 -419q0 -166 -60 -298.5t-174.5 -209.5t-265.5 -77zM333 554q0 -181 74 -286t226 -105q148 0 225.5 109t77.5 282q0 172 -78.5 280.5t-231.5 108.5q-146 0 -219.5 -105t-73.5 -284z
" />
    <glyph glyph-name="uni0441" unicode="&#x441;" horiz-adv-x="1164" 
d="M616 -31q-248 0 -390 162.5t-144 421.5q2 261 146.5 422.5t391.5 161.5q181 0 309.5 -90.5t169.5 -246.5l-213 -62q-31 92 -103.5 144.5t-166.5 52.5q-152 0 -229 -104t-78 -278q1 -176 79.5 -279t227.5 -103q196 0 266 184l217 -51q-55 -162 -179.5 -248.5t-303.5 -86.5
z" />
    <glyph glyph-name="uni0442" unicode="&#x442;" horiz-adv-x="1072" 
d="M429 0v913h-378v193h970v-193h-378v-913h-214z" />
    <glyph glyph-name="uni0443" unicode="&#x443;" horiz-adv-x="1123" 
d="M293 -492l182 497l-447 1101h223l327 -832l312 832h217l-610 -1598h-204z" />
    <glyph glyph-name="uni0444" unicode="&#x444;" horiz-adv-x="1519" 
d="M664 -19q-121 -19 -227.5 11t-185 102t-124 190t-45.5 268t45.5 268.5t124 191t185 102.5t227.5 11v335h192v-335q121 19 227.5 -11t185 -102.5t124 -191t45.5 -268.5t-45.5 -268t-124 -190t-185 -102t-227.5 -11v-442h-192v442zM301 552q0 -202 100 -303.5t263 -74.5
v757q-167 28 -265 -73.5t-98 -305.5zM856 174q163 -27 263 73t100 305q0 207 -98 307t-265 72v-757z" />
    <glyph glyph-name="uni0445" unicode="&#x445;" horiz-adv-x="1116" 
d="M20 0l414 559l-404 547h254l275 -380l272 380h254l-404 -547l415 -559h-255l-282 392l-284 -392h-255z" />
    <glyph glyph-name="uni0446" unicode="&#x446;" horiz-adv-x="1311" 
d="M1077 -218v218h-935v1106h214v-904h505v904h214v-913h216v-411h-214z" />
    <glyph glyph-name="uni0447" unicode="&#x447;" horiz-adv-x="1157" 
d="M798 385q-128 -64 -292 -64q-169 0 -272.5 75.5t-134.5 220.5q-17 85 -17 229v260h217v-260q0 -95 13 -155q20 -93 78.5 -137t164.5 -44q145 0 243 72v524h216v-1106h-216v385z" />
    <glyph glyph-name="uni0448" unicode="&#x448;" horiz-adv-x="1596" 
d="M142 0v1106h206v-913h347v913h206v-913h346v913h206v-1106h-1311z" />
    <glyph glyph-name="uni0449" unicode="&#x449;" horiz-adv-x="1591" 
d="M1357 -218v218h-1215v1106h206v-913h347v913h206v-913h346v913h206v-913h118v-411h-214z" />
    <glyph glyph-name="uni044A" unicode="&#x44a;" horiz-adv-x="1197" 
d="M199 0l-1 934h-157v172h372v-384h219q131 0 192 -12q291 -60 291 -351q0 -141 -72.5 -228t-204.5 -117q-63 -14 -200 -14h-439zM413 172h237q78 0 120 11q53 15 89.5 61t36.5 115q0 73 -37 119.5t-98 60.5q-44 11 -111 11h-237v-378z" />
    <glyph glyph-name="uni044B" unicode="&#x44b;" horiz-adv-x="1466" 
d="M142 0v1106h215v-384h146q132 0 193 -12q291 -60 291 -351q0 -141 -73 -228t-204 -117q-64 -14 -200 -14h-368zM357 172h165q78 0 120 11q53 15 89.5 61t36.5 115q0 73 -37 119.5t-98 60.5q-44 11 -111 11h-165v-378zM1109 0v1106h214v-1106h-214z" />
    <glyph glyph-name="uni044C" unicode="&#x44c;" horiz-adv-x="1141" 
d="M142 0v1106h215v-384h218q133 0 194 -12q291 -60 291 -351q0 -141 -73.5 -228t-205.5 -117q-63 -14 -198 -14h-441zM357 172h238q78 0 119 11q54 15 90.5 61t36.5 115q0 73 -37 119.5t-98 60.5q-45 11 -111 11h-238v-378z" />
    <glyph glyph-name="uni044D" unicode="&#x44d;" horiz-adv-x="1165" 
d="M550 -31q-179 0 -303.5 86t-179.5 249l217 51q70 -184 265 -184q129 0 205 78.5t95 218.5h-411v172h411q-17 134 -92 214.5t-203 80.5q-98 0 -170 -51.5t-104 -145.5l-213 62q41 156 170 246.5t312 90.5q245 0 389.5 -162t144.5 -423q0 -260 -143 -421.5t-390 -161.5z
" />
    <glyph glyph-name="uni044E" unicode="&#x44e;" horiz-adv-x="1701" 
d="M1077 -31q-205 0 -341 127.5t-164 348.5h-216v-445h-214v1106h214v-446h215q28 224 165 350.5t344 126.5q162 0 285.5 -75t189 -207t65.5 -300q0 -262 -149 -424t-394 -162zM763 555q0 -179 80.5 -281.5t230.5 -102.5q157 0 238 103.5t81 279.5q0 178 -81.5 279.5
t-236.5 101.5q-152 0 -232 -101.5t-80 -278.5z" />
    <glyph glyph-name="uni044F" unicode="&#x44f;" horiz-adv-x="1174" 
d="M816 0v384h-219l-43 1l-244 -385h-228l264 413q-107 35 -169.5 118t-62.5 211q0 141 75.5 231.5t201.5 117.5q70 15 200 15h439l1 -1106h-215zM333 744q0 -68 38.5 -114.5t96.5 -61.5q47 -12 111 -12h237v378h-237q-75 0 -119 -13q-52 -15 -89.5 -62.5t-37.5 -114.5z" />
    <glyph glyph-name="uni0450" unicode="&#x450;" horiz-adv-x="1221" 
d="M634 -31q-248 0 -400 159t-152 416q0 270 149 431.5t393 161.5q253 0 391 -173.5t121 -470.5h-825q13 -155 93.5 -238.5t219.5 -83.5q100 0 173 45t114 131l210 -66q-64 -147 -194.5 -229.5t-292.5 -82.5zM316 659h600q-17 146 -87 217t-197 71q-273 0 -316 -288z
M399 1628h168l146 -358h-168z" />
    <glyph glyph-name="uni0451" unicode="&#x451;" horiz-adv-x="1221" 
d="M634 -31q-248 0 -400 159t-152 416q0 270 149 431.5t393 161.5q253 0 391 -173.5t121 -470.5h-825q13 -155 93.5 -238.5t219.5 -83.5q100 0 173 45t114 131l210 -66q-64 -147 -194.5 -229.5t-292.5 -82.5zM314 1291v205h205v-205h-205zM316 659h600q-17 146 -87 217
t-197 71q-273 0 -316 -288zM727 1291v205h205v-205h-205z" />
    <glyph glyph-name="uni0452" unicode="&#x452;" 
d="M957 -441q-99 -21 -215 10v158q32 -4 52.5 -4.5t47 5.5t41.5 21t26 46t11 77v672q0 57 -6 107t-24.5 103.5t-48.5 91.5t-81.5 62.5t-119.5 24.5q-126 0 -203.5 -86.5t-77.5 -271.5v-575h-216v1201h-118v171h118v103h191v-103h226v-171h-226v-231q124 166 365 166
q109 0 191.5 -39t128 -95t73.5 -131.5t36.5 -136t8.5 -120.5v-799q0 -216 -180 -256z" />
    <glyph glyph-name="uni0453" unicode="&#x453;" horiz-adv-x="972" 
d="M143 0v1106h779v-202h-565v-904h-214zM389 1270l146 358h167l-145 -358h-168z" />
    <glyph glyph-name="uni0454" unicode="&#x454;" horiz-adv-x="1165" 
d="M615 -31q-247 0 -390 161.5t-143 421.5q0 261 144.5 423t389.5 162q183 0 312.5 -90.5t170.5 -246.5l-213 -62q-32 94 -104.5 145.5t-170.5 51.5q-128 0 -203 -80.5t-92 -214.5h411v-172h-411q19 -140 95 -218.5t205 -78.5q196 0 266 184l217 -51q-55 -162 -179.5 -248.5
t-304.5 -86.5z" />
    <glyph glyph-name="uni0455" unicode="&#x455;" horiz-adv-x="1097" 
d="M566 -30q-202 0 -329 89t-155 251l219 34q21 -87 95.5 -136t184.5 -49q100 0 157 40.5t57 112.5q0 44 -21.5 69t-80 47.5t-195.5 59.5q-214 56 -297 125.5t-83 191.5q0 151 117.5 241.5t312.5 90.5q191 0 316.5 -88.5t144.5 -236.5l-219 -40q-11 79 -75 125.5t-165 50.5
q-98 4 -158 -32.5t-60 -99.5q0 -56 57.5 -87.5t251.5 -80.5q209 -54 291.5 -126.5t82.5 -200.5q0 -164 -119.5 -257.5t-329.5 -93.5z" />
    <glyph glyph-name="uni0456" unicode="&#x456;" horiz-adv-x="541" 
d="M164 1287v208h214v-208h-214zM164 0v1106h214v-1106h-214z" />
    <glyph glyph-name="uni0457" unicode="&#x457;" horiz-adv-x="541" 
d="M164 0v1106h214v-1106h-214zM-38 1291v205h205v-205h-205zM375 1291v205h205v-205h-205z" />
    <glyph glyph-name="uni0458" unicode="&#x458;" horiz-adv-x="564" 
d="M-20 -492v203h56q85 0 124.5 40.5t39.5 126.5v1228h215v-1315q0 -135 -75 -209t-212 -74h-148zM200 1287v208h215v-208h-215z" />
    <glyph glyph-name="uni0459" unicode="&#x459;" horiz-adv-x="1739" 
d="M41 181q26 -5 46.5 -5t36 4.5t28 15t21 23t15.5 33t12 41t10 50.5q42 225 72 763h746v-384h147q131 0 192 -12q132 -25 211.5 -111.5t79.5 -234.5q0 -145 -75.5 -234.5t-202.5 -115.5q-71 -14 -199 -14h-367l-1 904h-339q-34 -465 -72 -651q-13 -69 -31 -116t-46 -83
t-66.5 -50.5t-93 -18t-124.5 14.5v181zM1028 172h165q77 0 120 11q53 15 89.5 61t36.5 118q0 71 -37.5 117t-97.5 60q-48 11 -111 11h-165v-378z" />
    <glyph glyph-name="uni045A" unicode="&#x45a;" horiz-adv-x="1688" 
d="M142 0v1106h214v-384h406v384h215v-384h146q132 0 193 -12q132 -25 211.5 -111.5t79.5 -234.5q0 -145 -75.5 -234.5t-202.5 -115.5q-71 -14 -200 -14h-366l-1 550h-406v-550h-214zM977 172h165q77 0 120 11q53 15 89.5 61t36.5 118q0 71 -38 117t-98 60q-48 11 -110 11
h-165v-378z" />
    <glyph glyph-name="uni045B" unicode="&#x45b;" 
d="M920 544q0 57 -6 107t-24.5 103.5t-48.5 91.5t-81.5 62.5t-119.5 24.5q-126 0 -203.5 -86.5t-77.5 -271.5v-575h-217v1201h-117v171h117v103h192v-103h226v-171h-226v-227q130 162 365 162q109 0 191.5 -39t128 -95t73.5 -131.5t36.5 -136t8.5 -120.5v-614h-217v544z" />
    <glyph glyph-name="uni045C" unicode="&#x45c;" horiz-adv-x="1073" 
d="M142 0l1 1106h217v-533l435 533h272l-459 -553l506 -553h-291l-463 532v-532h-218zM425 1270l145 358h168l-145 -358h-168z" />
    <glyph glyph-name="uni045D" unicode="&#x45d;" horiz-adv-x="1218" 
d="M1075 1106v-1106h-206v769l-553 -769h-174v1106h206v-754l554 754h173zM465 1628h168l145 -358h-168z" />
    <glyph glyph-name="uni045E" unicode="&#x45e;" horiz-adv-x="1123" 
d="M293 -492l182 497l-447 1101h223l327 -832l312 832h217l-610 -1598h-204zM296 1528h170q0 -52 36.5 -88.5t88.5 -36.5t88.5 36.5t36.5 88.5h170q0 -122 -86.5 -208.5t-208.5 -86.5t-208.5 86.5t-86.5 208.5z" />
    <glyph glyph-name="uni045F" unicode="&#x45f;" horiz-adv-x="1218" 
d="M519 -246v246h-377v1106h214v-904h505v904h214v-1106h-342v-246h-214z" />
    <glyph glyph-name="uni0490" unicode="&#x490;" horiz-adv-x="1126" 
d="M143 0v1475h749v218h214v-420h-749v-1273h-214z" />
    <glyph glyph-name="uni0491" unicode="&#x491;" horiz-adv-x="972" 
d="M143 0v1106h565v218h214v-420h-565v-904h-214z" />
    <glyph glyph-name="uni04AE" unicode="&#x4ae;" horiz-adv-x="1214" 
d="M499 0v609l-499 866h250l357 -620l358 620h249l-498 -866v-609h-217z" />
    <glyph glyph-name="uni04AF" unicode="&#x4af;" horiz-adv-x="1101" 
d="M442 -369v369l-401 1106h216l294 -838l294 838h216l-402 -1106v-369h-217z" />
    <glyph glyph-name="uni04BA" unicode="&#x4ba;" horiz-adv-x="1364" 
d="M359 1475v-576q137 81 351 81q138 0 238.5 -41t159.5 -117.5t86.5 -176.5t27.5 -228v-417h-217v348q0 75 -7 132t-28.5 115t-57 95.5t-97 61t-145.5 23.5q-98 0 -179 -27.5t-132 -68.5v-679h-216v1475h216z" />
    <glyph glyph-name="uni04BB" unicode="&#x4bb;" horiz-adv-x="1170" 
d="M373 721q128 64 292 64q169 0 272 -76t134 -221q18 -90 18 -228v-260h-218v260q0 95 -13 155q-20 93 -78.5 137t-164.5 44q-144 0 -242 -72v-524h-216v1106h216v-385z" />
    <glyph glyph-name="uni04E8" unicode="&#x4e8;" horiz-adv-x="1557" 
d="M759 -31q-217 0 -376 97t-240.5 270t-81.5 401t81.5 401t240.5 270t376 97t375.5 -97t239.5 -270t81 -401t-81 -401t-239.5 -270t-375.5 -97zM294 630q24 -214 142 -335t323 -122q204 -2 322 120t141 337h-928zM295 845h927q-23 214 -140.5 335t-322.5 122
q-204 2 -322 -120t-142 -337z" />
    <glyph glyph-name="uni04E9" unicode="&#x4e9;" horiz-adv-x="1248" 
d="M624 -31q-246 0 -394 162.5t-148 422.5t149 421.5t393 161.5q247 0 394.5 -162t147.5 -421q0 -261 -148 -423t-394 -162zM314 468q19 -140 98.5 -218.5t211.5 -78.5q133 0 212 79t98 218h-620zM314 640h620q-19 140 -98 217.5t-212 77.5q-135 0 -213 -78.5t-97 -216.5z
" />
    <glyph glyph-name="Wgrave" unicode="&#x1e80;" horiz-adv-x="1971" 
d="M456 0l-428 1475h224l310 -1116l310 1115l226 1l310 -1116l310 1116h226l-430 -1475h-212l-317 1103l-316 -1103h-213zM744 1997h168l146 -359h-168z" />
    <glyph glyph-name="wgrave" unicode="&#x1e81;" horiz-adv-x="1618" 
d="M379 0l-338 1107l212 -1l231 -759l234 759h184l234 -759l231 759h211l-338 -1106h-172l-258 801l-259 -801h-172zM568 1628h168l146 -358h-168z" />
    <glyph glyph-name="Wacute" unicode="&#x1e82;" horiz-adv-x="1971" 
d="M456 0l-428 1475h224l310 -1116l310 1115l226 1l310 -1116l310 1116h226l-430 -1475h-212l-317 1103l-316 -1103h-213zM913 1638l146 359h168l-146 -359h-168z" />
    <glyph glyph-name="wacute" unicode="&#x1e83;" horiz-adv-x="1618" 
d="M379 0l-338 1107l212 -1l231 -759l234 759h184l234 -759l231 759h211l-338 -1106h-172l-258 801l-259 -801h-172zM737 1270l146 358h168l-146 -358h-168z" />
    <glyph glyph-name="Wdieresis" unicode="&#x1e84;" horiz-adv-x="1971" 
d="M456 0l-428 1475h224l310 -1116l310 1115l226 1l310 -1116l310 1116h226l-430 -1475h-212l-317 1103l-316 -1103h-213zM678 1660v205h205v-205h-205zM1091 1660v205h204v-205h-204z" />
    <glyph glyph-name="wdieresis" unicode="&#x1e85;" horiz-adv-x="1618" 
d="M379 0l-338 1107l212 -1l231 -759l234 759h184l234 -759l231 759h211l-338 -1106h-172l-258 801l-259 -801h-172zM501 1291v205h205v-205h-205zM913 1291v205h205v-205h-205z" />
    <glyph glyph-name="uni1E9E" unicode="&#x1e9e;" horiz-adv-x="1507" 
d="M916 -31q-123 0 -208 31v210q86 -29 182 -29q127 0 206 64.5t78 188.5q-1 131 -100 198t-256 69l-34 142l241 398q-117 61 -248 61q-152 0 -254.5 -71t-137.5 -198q-25 -100 -25 -247v-786h-218v851q0 176 35 277q32 99 92 173.5t138.5 118t166.5 64.5t187 21
q93 0 174 -14.5t150.5 -44.5t110.5 -52.5t99 -59.5l-276 -481q74 -13 138.5 -46.5t116 -85t81 -127.5t29.5 -166q0 -213 -123.5 -336t-344.5 -123z" />
    <glyph glyph-name="uni1EA0" unicode="&#x1ea0;" horiz-adv-x="1348" 
d="M41 0l479 1475h308l480 -1475h-223l-109 333h-605l-108 -333h-222zM436 534h474l-238 727zM561 -396v208h226v-208h-226z" />
    <glyph glyph-name="uni1EA1" unicode="&#x1ea1;" horiz-adv-x="1166" 
d="M456 -31q-177 0 -275.5 95t-98.5 237q0 246 261 328q27 8 55.5 15t69 14.5t63.5 12t77 12.5t69.5 10.5t81.5 11.5t74 10q-5 116 -63.5 170t-186.5 54q-93 0 -163.5 -43t-97.5 -131l-200 61q41 146 158.5 228.5t304.5 82.5q153 0 261 -52.5t159 -158.5q24 -50 31 -106
t7 -139v-681h-189v161q-134 -192 -398 -192zM294 303q0 -69 51 -114t149 -45q128 0 210.5 65.5t103.5 154.5q20 59 22 173q-301 -45 -384 -70q-152 -52 -152 -164zM473 -396v208h226v-208h-226z" />
    <glyph glyph-name="uni1EA2" unicode="&#x1ea2;" horiz-adv-x="1348" 
d="M41 0l479 1475h308l480 -1475h-223l-109 333h-605l-108 -333h-222zM436 534h474l-238 727zM477 2013q53 49 122 65t135.5 -12.5t99.5 -101.5q36 -82 13.5 -148t-75.5 -109.5t-119 -57.5l-47 91q64 23 93.5 65t3.5 93q-16 33 -47 41.5t-61 -1.5t-59 -32z" />
    <glyph glyph-name="uni1EA3" unicode="&#x1ea3;" horiz-adv-x="1166" 
d="M456 -31q-177 0 -275.5 95t-98.5 237q0 246 261 328q27 8 55.5 15t69 14.5t63.5 12t77 12.5t69.5 10.5t81.5 11.5t74 10q-5 116 -63.5 170t-186.5 54q-93 0 -163.5 -43t-97.5 -131l-200 61q41 146 158.5 228.5t304.5 82.5q153 0 261 -52.5t159 -158.5q24 -50 31 -106
t7 -139v-681h-189v161q-134 -192 -398 -192zM294 303q0 -69 51 -114t149 -45q128 0 210.5 65.5t103.5 154.5q20 59 22 173q-301 -45 -384 -70q-152 -52 -152 -164zM416 1650q53 49 122 65t135 -12.5t99 -101.5q36 -82 14 -148.5t-75 -110t-119 -57.5l-47 91q63 22 93 65
t4 94q-16 33 -47 41.5t-61.5 -2t-59.5 -32.5z" />
    <glyph glyph-name="uni1EA4" unicode="&#x1ea4;" horiz-adv-x="1348" 
d="M41 0l479 1475h308l480 -1475h-223l-109 333h-605l-108 -333h-222zM314 1638l265 308h185l264 -308h-205l-152 182l-152 -182h-205zM436 534h474l-238 727zM986 1853l146 359h167l-145 -359h-168z" />
    <glyph glyph-name="uni1EA5" unicode="&#x1ea5;" horiz-adv-x="1166" 
d="M456 -31q-177 0 -275.5 95t-98.5 237q0 246 261 328q27 8 55.5 15t69 14.5t63.5 12t77 12.5t69.5 10.5t81.5 11.5t74 10q-5 116 -63.5 170t-186.5 54q-93 0 -163.5 -43t-97.5 -131l-200 61q41 146 158.5 228.5t304.5 82.5q153 0 261 -52.5t159 -158.5q24 -50 31 -106
t7 -139v-681h-189v161q-134 -192 -398 -192zM249 1270l264 307h185l265 -307h-205l-153 181l-151 -181h-205zM294 303q0 -69 51 -114t149 -45q128 0 210.5 65.5t103.5 154.5q20 59 22 173q-301 -45 -384 -70q-152 -52 -152 -164zM921 1485l145 358h168l-145 -358h-168z" />
    <glyph glyph-name="uni1EA6" unicode="&#x1ea6;" horiz-adv-x="1348" 
d="M41 0l479 1475h308l480 -1475h-223l-109 333h-605l-108 -333h-222zM314 1638l265 308h185l264 -308h-205l-152 182l-152 -182h-205zM436 534h474l-238 727zM849 2212h168l145 -359h-168z" />
    <glyph glyph-name="uni1EA7" unicode="&#x1ea7;" horiz-adv-x="1166" 
d="M456 -31q-177 0 -275.5 95t-98.5 237q0 246 261 328q27 8 55.5 15t69 14.5t63.5 12t77 12.5t69.5 10.5t81.5 11.5t74 10q-5 116 -63.5 170t-186.5 54q-93 0 -163.5 -43t-97.5 -131l-200 61q41 146 158.5 228.5t304.5 82.5q153 0 261 -52.5t159 -158.5q24 -50 31 -106
t7 -139v-681h-189v161q-134 -192 -398 -192zM247 1270l264 307h185l265 -307h-205l-153 181l-151 -181h-205zM294 303q0 -69 51 -114t149 -45q128 0 210.5 65.5t103.5 154.5q20 59 22 173q-301 -45 -384 -70q-152 -52 -152 -164zM781 1843h168l146 -358h-168z" />
    <glyph glyph-name="uni1EA8" unicode="&#x1ea8;" horiz-adv-x="1348" 
d="M41 0l479 1475h308l480 -1475h-223l-109 333h-605l-108 -333h-222zM315 1638l265 308h185l264 -308h-205l-152 182l-152 -182h-205zM436 534h474l-238 727zM944 2013q53 49 122 65t135 -12.5t99 -101.5q36 -82 14 -148t-75 -109.5t-119 -57.5l-47 91q64 23 93.5 65
t3.5 93q-16 33 -47 41.5t-61.5 -1.5t-59.5 -32z" />
    <glyph glyph-name="uni1EA9" unicode="&#x1ea9;" horiz-adv-x="1166" 
d="M456 -31q-177 0 -275.5 95t-98.5 237q0 246 261 328q27 8 55.5 15t69 14.5t63.5 12t77 12.5t69.5 10.5t81.5 11.5t74 10q-5 116 -63.5 170t-186.5 54q-93 0 -163.5 -43t-97.5 -131l-200 61q41 146 158.5 228.5t304.5 82.5q153 0 261 -52.5t159 -158.5q24 -50 31 -106
t7 -139v-681h-189v161q-134 -192 -398 -192zM232 1270l265 307h185l264 -307h-205l-152 181l-152 -181h-205zM294 303q0 -69 51 -114t149 -45q128 0 210.5 65.5t103.5 154.5q20 59 22 173q-301 -45 -384 -70q-152 -52 -152 -164zM861 1645q53 49 122 64.5t135.5 -13
t99.5 -101.5q36 -82 13.5 -148t-75.5 -109.5t-119 -57.5l-47 91q63 22 93 65t4 94q-16 33 -47 41.5t-61 -2t-59 -32.5z" />
    <glyph glyph-name="uni1EAA" unicode="&#x1eaa;" horiz-adv-x="1348" 
d="M41 0l479 1475h308l480 -1475h-223l-109 333h-605l-108 -333h-222zM313 1638l265 308h185l264 -308h-205l-152 182l-152 -182h-205zM346 2020q-28 116 17 193.5t151 77.5q53 0 114.5 -33.5t114 -67t85.5 -33.5t46 32t0 79h140q29 -116 -16.5 -193.5t-152.5 -77.5
q-42 0 -90 21t-83.5 46t-74.5 46t-66 21q-34 0 -46.5 -33.5t0.5 -77.5h-139zM436 534h474l-238 727z" />
    <glyph glyph-name="uni1EAB" unicode="&#x1eab;" horiz-adv-x="1166" 
d="M456 -31q-177 0 -275.5 95t-98.5 237q0 246 261 328q27 8 55.5 15t69 14.5t63.5 12t77 12.5t69.5 10.5t81.5 11.5t74 10q-5 116 -63.5 170t-186.5 54q-93 0 -163.5 -43t-97.5 -131l-200 61q41 146 158.5 228.5t304.5 82.5q153 0 261 -52.5t159 -158.5q24 -50 31 -106
t7 -139v-681h-189v161q-134 -192 -398 -192zM231 1270l265 307h185l264 -307h-205l-152 181l-152 -181h-205zM264 1652q-28 116 17 193t151 77q53 0 114.5 -33.5t114 -67t85.5 -33.5t46.5 32.5t0.5 79.5h139q29 -116 -16.5 -194t-152.5 -78q-53 0 -114 33.5t-113.5 67
t-85.5 33.5q-34 0 -47 -33t0 -77h-139zM294 303q0 -69 51 -114t149 -45q128 0 210.5 65.5t103.5 154.5q20 59 22 173q-301 -45 -384 -70q-152 -52 -152 -164z" />
    <glyph glyph-name="uni1EAC" unicode="&#x1eac;" horiz-adv-x="1348" 
d="M41 0l479 1475h308l480 -1475h-223l-109 333h-605l-108 -333h-222zM315 1638l265 308h185l264 -308h-205l-152 182l-152 -182h-205zM436 534h474l-238 727zM561 -396v208h226v-208h-226z" />
    <glyph glyph-name="uni1EAD" unicode="&#x1ead;" horiz-adv-x="1166" 
d="M456 -31q-177 0 -275.5 95t-98.5 237q0 246 261 328q27 8 55.5 15t69 14.5t63.5 12t77 12.5t69.5 10.5t81.5 11.5t74 10q-5 116 -63.5 170t-186.5 54q-93 0 -163.5 -43t-97.5 -131l-200 61q41 146 158.5 228.5t304.5 82.5q153 0 261 -52.5t159 -158.5q24 -50 31 -106
t7 -139v-681h-189v161q-134 -192 -398 -192zM241 1270l264 307h185l264 -307h-204l-153 181l-152 -181h-204zM294 303q0 -69 51 -114t149 -45q128 0 210.5 65.5t103.5 154.5q20 59 22 173q-301 -45 -384 -70q-152 -52 -152 -164zM473 -396v208h226v-208h-226z" />
    <glyph glyph-name="uni1EAE" unicode="&#x1eae;" horiz-adv-x="1348" 
d="M41 0l479 1475h308l480 -1475h-223l-109 333h-605l-108 -333h-222zM379 1896h170q0 -52 36.5 -88t88.5 -36t88.5 36t36.5 88h170q0 -122 -86.5 -208t-208.5 -86t-208.5 86t-86.5 208zM436 534h474l-238 727zM593 1976l145 359h168l-145 -359h-168z" />
    <glyph glyph-name="uni1EAF" unicode="&#x1eaf;" horiz-adv-x="1166" 
d="M456 -31q-177 0 -275.5 95t-98.5 237q0 246 261 328q27 8 55.5 15t69 14.5t63.5 12t77 12.5t69.5 10.5t81.5 11.5t74 10q-5 116 -63.5 170t-186.5 54q-93 0 -163.5 -43t-97.5 -131l-200 61q41 146 158.5 228.5t304.5 82.5q153 0 261 -52.5t159 -158.5q24 -50 31 -106
t7 -139v-681h-189v161q-134 -192 -398 -192zM294 303q0 -69 51 -114t149 -45q128 0 210.5 65.5t103.5 154.5q20 59 22 173q-301 -45 -384 -70q-152 -52 -152 -164zM298 1528h170q0 -52 36.5 -88.5t88.5 -36.5t88.5 36.5t36.5 88.5h170q0 -122 -86.5 -208.5t-208.5 -86.5
t-208.5 86.5t-86.5 208.5zM511 1608l145 358h168l-145 -358h-168z" />
    <glyph glyph-name="uni1EB0" unicode="&#x1eb0;" horiz-adv-x="1348" 
d="M41 0l479 1475h308l480 -1475h-223l-109 333h-605l-108 -333h-222zM379 1896h170q0 -52 36.5 -88t88.5 -36t88.5 36t36.5 88h170q0 -122 -86.5 -208t-208.5 -86t-208.5 86t-86.5 208zM436 534h474l-238 727zM442 2335h168l146 -359h-168z" />
    <glyph glyph-name="uni1EB1" unicode="&#x1eb1;" horiz-adv-x="1166" 
d="M456 -31q-177 0 -275.5 95t-98.5 237q0 246 261 328q27 8 55.5 15t69 14.5t63.5 12t77 12.5t69.5 10.5t81.5 11.5t74 10q-5 116 -63.5 170t-186.5 54q-93 0 -163.5 -43t-97.5 -131l-200 61q41 146 158.5 228.5t304.5 82.5q153 0 261 -52.5t159 -158.5q24 -50 31 -106
t7 -139v-681h-189v161q-134 -192 -398 -192zM294 303q0 -69 51 -114t149 -45q128 0 210.5 65.5t103.5 154.5q20 59 22 173q-301 -45 -384 -70q-152 -52 -152 -164zM303 1528h170q0 -52 36.5 -88.5t88.5 -36.5t88.5 36.5t36.5 88.5h170q0 -122 -86.5 -208.5t-208.5 -86.5
t-208.5 86.5t-86.5 208.5zM367 1966h168l145 -358h-168z" />
    <glyph glyph-name="uni1EB2" unicode="&#x1eb2;" horiz-adv-x="1348" 
d="M41 0l479 1475h308l480 -1475h-223l-109 333h-605l-108 -333h-222zM379 1896h170q0 -52 36.5 -88t88.5 -36t88.5 36t36.5 88h170q0 -122 -86.5 -208t-208.5 -86t-208.5 86t-86.5 208zM436 534h474l-238 727zM454 2328q53 49 122 64.5t135 -13t99 -101.5q36 -82 14 -148
t-75 -109.5t-119 -57.5l-47 91q63 22 93 65t4 94q-16 33 -47 41.5t-61.5 -2t-59.5 -32.5z" />
    <glyph glyph-name="uni1EB3" unicode="&#x1eb3;" horiz-adv-x="1166" 
d="M456 -31q-177 0 -275.5 95t-98.5 237q0 246 261 328q27 8 55.5 15t69 14.5t63.5 12t77 12.5t69.5 10.5t81.5 11.5t74 10q-5 116 -63.5 170t-186.5 54q-93 0 -163.5 -43t-97.5 -131l-200 61q41 146 158.5 228.5t304.5 82.5q153 0 261 -52.5t159 -158.5q24 -50 31 -106
t7 -139v-681h-189v161q-134 -192 -398 -192zM294 303q0 -69 51 -114t149 -45q128 0 210.5 65.5t103.5 154.5q20 59 22 173q-301 -45 -384 -70q-152 -52 -152 -164zM326 1528h170q0 -52 36.5 -88.5t88.5 -36.5t88 36.5t36 88.5h170q0 -122 -86 -208.5t-208 -86.5t-208.5 86.5
t-86.5 208.5zM400 1959q53 49 122 65t135.5 -12.5t99.5 -101.5q36 -82 14 -148.5t-75 -110t-119 -57.5l-48 92q64 23 94 65.5t4 92.5q-16 33 -47 41.5t-61.5 -2t-59.5 -32.5z" />
    <glyph glyph-name="uni1EB4" unicode="&#x1eb4;" horiz-adv-x="1348" 
d="M41 0l479 1475h308l480 -1475h-223l-109 333h-605l-108 -333h-222zM323 1987q-29 116 16 193t151 77q53 0 114.5 -33.5t114.5 -67t86 -33.5t46 32t0 79h139q29 -116 -16.5 -193.5t-152.5 -77.5q-53 0 -114 33.5t-113.5 67t-85.5 33.5q-34 0 -46.5 -33t0.5 -77h-139z
M358 1896h170q0 -52 36.5 -88t88.5 -36t88.5 36t36.5 88h170q0 -122 -86.5 -208t-208.5 -86t-208.5 86t-86.5 208zM436 534h474l-238 727z" />
    <glyph glyph-name="uni1EB5" unicode="&#x1eb5;" horiz-adv-x="1166" 
d="M456 -31q-177 0 -275.5 95t-98.5 237q0 246 261 328q27 8 55.5 15t69 14.5t63.5 12t77 12.5t69.5 10.5t81.5 11.5t74 10q-5 116 -63.5 170t-186.5 54q-93 0 -163.5 -43t-97.5 -131l-200 61q41 146 158.5 228.5t304.5 82.5q153 0 261 -52.5t159 -158.5q24 -50 31 -106
t7 -139v-681h-189v161q-134 -192 -398 -192zM253 1618q-28 116 17 193t151 77q53 0 114.5 -33.5t114 -67t85.5 -33.5t46 32.5t0 79.5h140q29 -116 -16.5 -194t-152.5 -78q-53 0 -114.5 34t-114 67.5t-85.5 33.5q-34 0 -46.5 -33.5t0.5 -77.5h-139zM289 1528h170
q0 -52 36.5 -88.5t88.5 -36.5t88.5 36.5t36.5 88.5h170q0 -122 -86.5 -208.5t-208.5 -86.5t-208.5 86.5t-86.5 208.5zM294 303q0 -69 51 -114t149 -45q128 0 210.5 65.5t103.5 154.5q20 59 22 173q-301 -45 -384 -70q-152 -52 -152 -164z" />
    <glyph glyph-name="uni1EB6" unicode="&#x1eb6;" horiz-adv-x="1348" 
d="M41 0l479 1475h308l480 -1475h-223l-109 333h-605l-108 -333h-222zM380 1896h170q0 -52 36.5 -88t88.5 -36t88.5 36t36.5 88h170q0 -122 -86.5 -208t-208.5 -86t-208.5 86t-86.5 208zM436 534h474l-238 727zM561 -396v208h226v-208h-226z" />
    <glyph glyph-name="uni1EB7" unicode="&#x1eb7;" horiz-adv-x="1166" 
d="M456 -31q-177 0 -275.5 95t-98.5 237q0 246 261 328q27 8 55.5 15t69 14.5t63.5 12t77 12.5t69.5 10.5t81.5 11.5t74 10q-5 116 -63.5 170t-186.5 54q-93 0 -163.5 -43t-97.5 -131l-200 61q41 146 158.5 228.5t304.5 82.5q153 0 261 -52.5t159 -158.5q24 -50 31 -106
t7 -139v-681h-189v161q-134 -192 -398 -192zM294 303q0 -69 51 -114t149 -45q128 0 210.5 65.5t103.5 154.5q20 59 22 173q-301 -45 -384 -70q-152 -52 -152 -164zM300 1528h170q0 -52 36.5 -88.5t88.5 -36.5t88.5 36.5t36.5 88.5h170q0 -122 -86.5 -208.5t-208.5 -86.5
t-208.5 86.5t-86.5 208.5zM473 -396v208h226v-208h-226z" />
    <glyph glyph-name="uni1EB8" unicode="&#x1eb8;" horiz-adv-x="1228" 
d="M501 -396v208h226v-208h-226zM143 0v1475h942v-202h-728v-414h606v-202h-606v-455h728v-202h-942z" />
    <glyph glyph-name="uni1EB9" unicode="&#x1eb9;" horiz-adv-x="1221" 
d="M634 -31q-248 0 -400 159t-152 416q0 270 149 431.5t393 161.5q253 0 391 -173.5t121 -470.5h-825q13 -155 93.5 -238.5t219.5 -83.5q100 0 173 45t114 131l210 -66q-64 -147 -194.5 -229.5t-292.5 -82.5zM316 659h600q-17 146 -87 217t-197 71q-273 0 -316 -288z
M525 -396v208h227v-208h-227z" />
    <glyph glyph-name="uni1EBA" unicode="&#x1eba;" horiz-adv-x="1187" 
d="M143 0v1475h942v-202h-728v-414h606v-202h-606v-455h728v-202h-942zM439 2013q53 49 122 65t135.5 -12.5t99.5 -101.5q36 -82 13.5 -148t-75.5 -109.5t-119 -57.5l-47 91q64 23 94 65.5t4 92.5q-16 33 -47 41.5t-61.5 -1.5t-59.5 -32z" />
    <glyph glyph-name="uni1EBB" unicode="&#x1ebb;" horiz-adv-x="1228" 
d="M446 1650q53 49 122 65t135.5 -12.5t99.5 -101.5q36 -82 14 -148.5t-75 -110t-119 -57.5l-48 91q64 23 94 65.5t4 93.5q-16 33 -47 41.5t-61.5 -2t-59.5 -32.5zM82 544q0 270 149 431.5t393 161.5q253 0 391 -173.5t121 -470.5h-825q13 -155 93.5 -238.5t219.5 -83.5
q100 0 173 45t114 131l210 -66q-64 -147 -194.5 -229.5t-292.5 -82.5q-248 0 -400 159t-152 416zM316 659h600q-17 146 -87 217t-197 71q-273 0 -316 -288z" />
    <glyph glyph-name="uni1EBC" unicode="&#x1ebc;" horiz-adv-x="1187" 
d="M143 0v1475h942v-202h-728v-414h606v-202h-606v-455h728v-202h-942zM267 1666q-28 116 17 193t151 77q53 0 114.5 -33.5t114.5 -67t86 -33.5t46 32.5t0 79.5h139q29 -116 -16.5 -194t-152.5 -78q-42 0 -90 21t-83 46.5t-74 46.5t-66 21q-34 0 -46.5 -33.5t0.5 -77.5h-140
z" />
    <glyph glyph-name="uni1EBD" unicode="&#x1ebd;" horiz-adv-x="1221" 
d="M634 -31q-248 0 -400 159t-152 416q0 270 149 431.5t393 161.5q253 0 391 -173.5t121 -470.5h-825q13 -155 93.5 -238.5t219.5 -83.5q100 0 173 45t114 131l210 -66q-64 -147 -194.5 -229.5t-292.5 -82.5zM304 1297q-28 116 17 193.5t151 77.5q53 0 114.5 -33.5t114 -67
t85.5 -33.5t46.5 32t0.5 79h139q29 -116 -16.5 -193.5t-152.5 -77.5q-42 0 -90 21t-83.5 46t-74.5 46t-66 21q-34 0 -46.5 -33.5t0.5 -77.5h-139zM316 659h600q-17 146 -87 217t-197 71q-273 0 -316 -288z" />
    <glyph glyph-name="uni1EBE" unicode="&#x1ebe;" horiz-adv-x="1187" 
d="M143 0v1475h942v-202h-728v-414h606v-202h-606v-455h728v-202h-942zM256 1638l264 308h186l264 -308h-205l-153 182l-151 -182h-205zM928 1853l145 359h168l-145 -359h-168z" />
    <glyph glyph-name="uni1EBF" unicode="&#x1ebf;" horiz-adv-x="1221" 
d="M634 -31q-248 0 -400 159t-152 416q0 270 149 431.5t393 161.5q253 0 391 -173.5t121 -470.5h-825q13 -155 93.5 -238.5t219.5 -83.5q100 0 173 45t114 131l210 -66q-64 -147 -194.5 -229.5t-292.5 -82.5zM276 1270l265 307h185l264 -307h-205l-152 181l-152 -181h-205z
M316 659h600q-17 146 -87 217t-197 71q-273 0 -316 -288zM948 1485l146 358h168l-146 -358h-168z" />
    <glyph glyph-name="uni1EC0" unicode="&#x1ec0;" horiz-adv-x="1187" 
d="M143 0v1475h942v-202h-728v-414h606v-202h-606v-455h728v-202h-942zM289 1638l264 308h185l264 -308h-204l-153 182l-151 -182h-205zM822 2212h168l146 -359h-168z" />
    <glyph glyph-name="uni1EC1" unicode="&#x1ec1;" horiz-adv-x="1221" 
d="M634 -31q-248 0 -400 159t-152 416q0 270 149 431.5t393 161.5q253 0 391 -173.5t121 -470.5h-825q13 -155 93.5 -238.5t219.5 -83.5q100 0 173 45t114 131l210 -66q-64 -147 -194.5 -229.5t-292.5 -82.5zM263 1270l264 307h186l264 -307h-205l-152 181l-152 -181h-205z
M316 659h600q-17 146 -87 217t-197 71q-273 0 -316 -288zM798 1843h168l145 -358h-168z" />
    <glyph glyph-name="uni1EC2" unicode="&#x1ec2;" horiz-adv-x="1228" 
d="M265 1638l264 308h186l264 -308h-205l-152 182l-152 -182h-205zM143 0v1475h942v-202h-728v-414h606v-202h-606v-455h728v-202h-942zM894 2013q53 49 122 65t135 -12.5t99 -101.5q36 -82 14 -148t-75 -109.5t-119 -57.5l-47 91q64 23 93.5 65t3.5 93q-16 33 -47 41.5
t-61.5 -1.5t-59.5 -32z" />
    <glyph glyph-name="uni1EC3" unicode="&#x1ec3;" horiz-adv-x="1221" 
d="M634 -31q-248 0 -400 159t-152 416q0 270 149 431.5t393 161.5q253 0 391 -173.5t121 -470.5h-825q13 -155 93.5 -238.5t219.5 -83.5q100 0 173 45t114 131l210 -66q-64 -147 -194.5 -229.5t-292.5 -82.5zM269 1270l265 307h185l264 -307h-205l-152 181l-152 -181h-205z
M316 659h600q-17 146 -87 217t-197 71q-273 0 -316 -288zM898 1645q53 49 122 64.5t135 -13t99 -101.5q36 -82 14 -148t-75 -109.5t-119 -57.5l-47 91q63 22 93 65t4 94q-16 33 -47 41.5t-61.5 -2t-59.5 -32.5z" />
    <glyph glyph-name="uni1EC4" unicode="&#x1ec4;" horiz-adv-x="1187" 
d="M143 0v1475h942v-202h-728v-414h606v-202h-606v-455h728v-202h-942zM253 1638l264 308h185l265 -308h-205l-153 182l-151 -182h-205zM286 2020q-28 116 17 193.5t151 77.5q53 0 114.5 -33.5t114 -67t85.5 -33.5t46 32t0 79h139q29 -116 -16.5 -193.5t-152.5 -77.5
q-53 0 -114 33.5t-113.5 67t-85.5 33.5q-34 0 -46.5 -33.5t0.5 -77.5h-139z" />
    <glyph glyph-name="uni1EC5" unicode="&#x1ec5;" horiz-adv-x="1221" 
d="M634 -31q-248 0 -400 159t-152 416q0 270 149 431.5t393 161.5q253 0 391 -173.5t121 -470.5h-825q13 -155 93.5 -238.5t219.5 -83.5q100 0 173 45t114 131l210 -66q-64 -147 -194.5 -229.5t-292.5 -82.5zM267 1270l264 307h186l264 -307h-205l-152 181l-152 -181h-205z
M300 1652q-28 116 17 193t151 77q53 0 114.5 -33.5t114 -67t85.5 -33.5t46 32.5t0 79.5h140q29 -116 -16.5 -194t-152.5 -78q-42 0 -90 21t-83.5 46t-74.5 46t-66 21q-34 0 -46.5 -33t0.5 -77h-139zM316 659h600q-17 146 -87 217t-197 71q-273 0 -316 -288z" />
    <glyph glyph-name="uni1EC6" unicode="&#x1ec6;" horiz-adv-x="1187" 
d="M143 0v1475h942v-202h-728v-414h606v-202h-606v-455h728v-202h-942zM245 1638l264 308h185l264 -308h-204l-153 182l-151 -182h-205zM501 -396v208h226v-208h-226z" />
    <glyph glyph-name="uni1EC7" unicode="&#x1ec7;" horiz-adv-x="1221" 
d="M634 -31q-248 0 -400 159t-152 416q0 270 149 431.5t393 161.5q253 0 391 -173.5t121 -470.5h-825q13 -155 93.5 -238.5t219.5 -83.5q100 0 173 45t114 131l210 -66q-64 -147 -194.5 -229.5t-292.5 -82.5zM264 1270l264 307h186l264 -307h-205l-152 181l-152 -181h-205z
M316 659h600q-17 146 -87 217t-197 71q-273 0 -316 -288zM497 -396v208h226v-208h-226z" />
    <glyph glyph-name="uni1EC8" unicode="&#x1ec8;" horiz-adv-x="541" 
d="M164 0v1475h214v-1475h-214zM61 2013q53 49 122 65t135.5 -12.5t99.5 -101.5q36 -82 14 -148t-75 -109.5t-119 -57.5l-48 91q64 23 94 65.5t4 92.5q-16 33 -47 41.5t-61.5 -1.5t-59.5 -32z" />
    <glyph glyph-name="uni1EC9" unicode="&#x1ec9;" horiz-adv-x="541" 
d="M164 0v1106h214v-1106h-214zM63 1650q53 49 122 65t135.5 -12.5t99.5 -101.5q36 -82 14 -148.5t-75 -110t-119 -57.5l-47 91q63 22 93 65t4 94q-16 33 -47 41.5t-61.5 -2t-59.5 -32.5z" />
    <glyph glyph-name="uni1ECA" unicode="&#x1eca;" horiz-adv-x="541" 
d="M164 0v1475h214v-1475h-214zM158 -396v208h226v-208h-226z" />
    <glyph glyph-name="uni1ECB" unicode="&#x1ecb;" horiz-adv-x="541" 
d="M164 1287v208h214v-208h-214zM158 -396v208h226v-208h-226zM164 0v1106h214v-1106h-214z" />
    <glyph glyph-name="uni1ECC" unicode="&#x1ecc;" horiz-adv-x="1516" 
d="M759 -31q-217 0 -376 97t-240.5 270t-81.5 401t81.5 401t240.5 270t376 97t375.5 -97t239.5 -270t81 -401t-81 -401t-239.5 -270t-375.5 -97zM289 737q-1 -171 51 -296t158.5 -196t260.5 -72q229 -2 349 150.5t120 413.5q0 260 -120 412t-349 153q-153 1 -260 -70.5
t-158 -197.5t-52 -297zM637 -396v208h226v-208h-226z" />
    <glyph glyph-name="uni1ECD" unicode="&#x1ecd;" horiz-adv-x="1248" 
d="M624 -31q-246 0 -394 162.5t-148 422.5t149 421.5t393 161.5q247 0 394.5 -162t147.5 -421q0 -261 -148 -423t-394 -162zM309 554q0 -178 81.5 -280.5t233.5 -102.5q154 0 234.5 104t80.5 279q0 177 -80.5 279t-234.5 102q-156 0 -235.5 -103t-79.5 -278zM511 -396v208
h226v-208h-226z" />
    <glyph glyph-name="uni1ECE" unicode="&#x1ece;" horiz-adv-x="1516" 
d="M759 -31q-217 0 -376 97t-240.5 270t-81.5 401t81.5 401t240.5 270t376 97t375.5 -97t239.5 -270t81 -401t-81 -401t-239.5 -270t-375.5 -97zM289 737q-1 -171 51 -296t158.5 -196t260.5 -72q229 -2 349 150.5t120 413.5q0 260 -120 412t-349 153q-153 1 -260 -70.5
t-158 -197.5t-52 -297zM605 2013q53 49 122 65t135.5 -12.5t99.5 -101.5q36 -82 13.5 -148t-75.5 -109.5t-119 -57.5l-47 91q64 23 93.5 65t3.5 93q-16 33 -47 41.5t-61 -1.5t-59 -32z" />
    <glyph glyph-name="uni1ECF" unicode="&#x1ecf;" horiz-adv-x="1248" 
d="M624 -31q-246 0 -394 162.5t-148 422.5t149 421.5t393 161.5q247 0 394.5 -162t147.5 -421q0 -261 -148 -423t-394 -162zM309 554q0 -178 81.5 -280.5t233.5 -102.5q154 0 234.5 104t80.5 279q0 177 -80.5 279t-234.5 102q-156 0 -235.5 -103t-79.5 -278zM446 1650
q53 49 122 65t135.5 -12.5t99.5 -101.5q36 -82 14 -148.5t-75 -110t-119 -57.5l-48 91q64 23 94 65.5t4 93.5q-16 33 -47 41.5t-61.5 -2t-59.5 -32.5z" />
    <glyph glyph-name="uni1ED0" unicode="&#x1ed0;" horiz-adv-x="1516" 
d="M759 -31q-217 0 -376 97t-240.5 270t-81.5 401t81.5 401t240.5 270t376 97t375.5 -97t239.5 -270t81 -401t-81 -401t-239.5 -270t-375.5 -97zM289 737q-1 -171 51 -296t158.5 -196t260.5 -72q229 -2 349 150.5t120 413.5q0 260 -120 412t-349 153q-153 1 -260 -70.5
t-158 -197.5t-52 -297zM417 1638l264 308h185l264 -308h-204l-153 182l-151 -182h-205zM1089 1853l145 359h168l-146 -359h-167z" />
    <glyph glyph-name="uni1ED1" unicode="&#x1ed1;" horiz-adv-x="1248" 
d="M624 -31q-246 0 -394 162.5t-148 422.5t149 421.5t393 161.5q247 0 394.5 -162t147.5 -421q0 -261 -148 -423t-394 -162zM279 1270l264 307h185l264 -307h-205l-152 181l-152 -181h-204zM309 554q0 -178 81.5 -280.5t233.5 -102.5q154 0 234.5 104t80.5 279
q0 177 -80.5 279t-234.5 102q-156 0 -235.5 -103t-79.5 -278zM950 1485l146 358h168l-146 -358h-168z" />
    <glyph glyph-name="uni1ED2" unicode="&#x1ed2;" horiz-adv-x="1516" 
d="M759 -31q-217 0 -376 97t-240.5 270t-81.5 401t81.5 401t240.5 270t376 97t375.5 -97t239.5 -270t81 -401t-81 -401t-239.5 -270t-375.5 -97zM289 737q-1 -171 51 -296t158.5 -196t260.5 -72q229 -2 349 150.5t120 413.5q0 260 -120 412t-349 153q-153 1 -260 -70.5
t-158 -197.5t-52 -297zM399 1638l265 308h185l264 -308h-205l-152 182l-152 -182h-205zM933 2212h168l145 -359h-168z" />
    <glyph glyph-name="uni1ED3" unicode="&#x1ed3;" horiz-adv-x="1248" 
d="M624 -31q-246 0 -394 162.5t-148 422.5t149 421.5t393 161.5q247 0 394.5 -162t147.5 -421q0 -261 -148 -423t-394 -162zM284 1270l264 307h185l264 -307h-204l-153 181l-152 -181h-204zM309 554q0 -178 81.5 -280.5t233.5 -102.5q154 0 234.5 104t80.5 279
q0 177 -80.5 279t-234.5 102q-156 0 -235.5 -103t-79.5 -278zM817 1843h168l145 -358h-167z" />
    <glyph glyph-name="uni1ED4" unicode="&#x1ed4;" horiz-adv-x="1516" 
d="M759 -31q-217 0 -376 97t-240.5 270t-81.5 401t81.5 401t240.5 270t376 97t375.5 -97t239.5 -270t81 -401t-81 -401t-239.5 -270t-375.5 -97zM289 737q-1 -171 51 -296t158.5 -196t260.5 -72q229 -2 349 150.5t120 413.5q0 260 -120 412t-349 153q-153 1 -260 -70.5
t-158 -197.5t-52 -297zM411 1638l264 308h185l264 -308h-204l-153 182l-152 -182h-204zM1039 2013q53 49 122 65t135.5 -12.5t99.5 -101.5q36 -82 13.5 -148t-75.5 -109.5t-119 -57.5l-47 91q64 23 94 65.5t4 92.5q-16 33 -47 41.5t-61.5 -1.5t-59.5 -32z" />
    <glyph glyph-name="uni1ED5" unicode="&#x1ed5;" horiz-adv-x="1248" 
d="M624 -31q-246 0 -394 162.5t-148 422.5t149 421.5t393 161.5q247 0 394.5 -162t147.5 -421q0 -261 -148 -423t-394 -162zM264 1270l264 307h186l264 -307h-205l-152 181l-152 -181h-205zM309 554q0 -178 81.5 -280.5t233.5 -102.5q154 0 234.5 104t80.5 279
q0 177 -80.5 279t-234.5 102q-156 0 -235.5 -103t-79.5 -278zM893 1645q53 49 122 64.5t135 -13t99 -101.5q36 -82 14 -148t-75 -109.5t-119 -57.5l-47 91q63 22 93 65t4 94q-16 33 -47 41.5t-61.5 -2t-59.5 -32.5z" />
    <glyph glyph-name="uni1ED6" unicode="&#x1ed6;" horiz-adv-x="1516" 
d="M759 -31q-217 0 -376 97t-240.5 270t-81.5 401t81.5 401t240.5 270t376 97t375.5 -97t239.5 -270t81 -401t-81 -401t-239.5 -270t-375.5 -97zM289 737q-1 -171 51 -296t158.5 -196t260.5 -72q229 -2 349 150.5t120 413.5q0 260 -120 412t-349 153q-153 1 -260 -70.5
t-158 -197.5t-52 -297zM392 1638l264 308h186l264 -308h-205l-152 182l-152 -182h-205zM425 2020q-28 116 17 193.5t151 77.5q53 0 114.5 -33.5t114 -67t85.5 -33.5t46 32t0 79h140q29 -116 -16.5 -193.5t-152.5 -77.5q-42 0 -90 21t-83.5 46t-74.5 46t-66 21
q-34 0 -46.5 -33.5t0.5 -77.5h-139z" />
    <glyph glyph-name="uni1ED7" unicode="&#x1ed7;" horiz-adv-x="1248" 
d="M624 -31q-246 0 -394 162.5t-148 422.5t149 421.5t393 161.5q247 0 394.5 -162t147.5 -421q0 -261 -148 -423t-394 -162zM288 1270l264 307h185l264 -307h-204l-153 181l-151 -181h-205zM309 554q0 -178 81.5 -280.5t233.5 -102.5q154 0 234.5 104t80.5 279
q0 177 -80.5 279t-234.5 102q-156 0 -235.5 -103t-79.5 -278zM321 1652q-29 116 16 193t151 77q53 0 114.5 -33.5t114.5 -67t86 -33.5t46 32.5t0 79.5h139q29 -116 -16.5 -194t-152.5 -78q-53 0 -114 33.5t-113.5 67t-85.5 33.5q-34 0 -46.5 -33t0.5 -77h-139z" />
    <glyph glyph-name="uni1ED8" unicode="&#x1ed8;" horiz-adv-x="1516" 
d="M759 -31q-217 0 -376 97t-240.5 270t-81.5 401t81.5 401t240.5 270t376 97t375.5 -97t239.5 -270t81 -401t-81 -401t-239.5 -270t-375.5 -97zM289 737q-1 -171 51 -296t158.5 -196t260.5 -72q229 -2 349 150.5t120 413.5q0 260 -120 412t-349 153q-153 1 -260 -70.5
t-158 -197.5t-52 -297zM399 1638l265 308h185l264 -308h-205l-152 182l-152 -182h-205zM645 -396v208h226v-208h-226z" />
    <glyph glyph-name="uni1ED9" unicode="&#x1ed9;" horiz-adv-x="1248" 
d="M624 -31q-246 0 -394 162.5t-148 422.5t149 421.5t393 161.5q247 0 394.5 -162t147.5 -421q0 -261 -148 -423t-394 -162zM265 1270l264 307h186l264 -307h-205l-152 181l-152 -181h-205zM309 554q0 -178 81.5 -280.5t233.5 -102.5q154 0 234.5 104t80.5 279
q0 177 -80.5 279t-234.5 102q-156 0 -235.5 -103t-79.5 -278zM526 -396v208h227v-208h-227z" />
    <glyph glyph-name="uni1EDA" unicode="&#x1eda;" horiz-adv-x="1516" 
d="M1323 1659q28 -214 -95 -281q-10 -5 -32 -13q126 -100 192.5 -262t66.5 -366q0 -228 -81 -401t-239.5 -270t-375.5 -97t-376 97t-240.5 270t-81.5 401t81.5 401t240.5 270t376 97q112 0 205 -25q80 -18 125 1q26 12 41.5 31.5t20 42t6 49.5t-0.5 54zM289 737
q-1 -171 51 -296t158.5 -196t260.5 -72q229 -2 349 150.5t120 413.5q0 260 -120 412t-349 153q-153 1 -260 -70.5t-158 -197.5t-52 -297zM688 1638l146 359h167l-145 -359h-168z" />
    <glyph glyph-name="uni1EDB" unicode="&#x1edb;" horiz-adv-x="1265" 
d="M1160 1290q28 -213 -95 -280q-31 -16 -59 -22q160 -162 160 -434q0 -261 -148 -423t-394 -162t-394 162.5t-148 422.5t149 421.5t393 161.5q88 0 171 -24q86 -21 131 -1q26 12 41.5 31.5t20 42t6 49.5t-0.5 54zM309 554q0 -178 81.5 -280.5t233.5 -102.5q154 0 234.5 104
t80.5 279q0 177 -80.5 279t-234.5 102q-156 0 -235.5 -103t-79.5 -278zM542 1270l145 358h168l-145 -358h-168z" />
    <glyph glyph-name="uni1EDC" unicode="&#x1edc;" horiz-adv-x="1516" 
d="M1323 1659q28 -214 -95 -281q-10 -5 -32 -13q126 -100 192.5 -262t66.5 -366q0 -228 -81 -401t-239.5 -270t-375.5 -97t-376 97t-240.5 270t-81.5 401t81.5 401t240.5 270t376 97q112 0 205 -25q80 -18 125 1q26 12 41.5 31.5t20 42t6 49.5t-0.5 54zM289 737
q-1 -171 51 -296t158.5 -196t260.5 -72q229 -2 349 150.5t120 413.5q0 260 -120 412t-349 153q-153 1 -260 -70.5t-158 -197.5t-52 -297zM512 1997h168l145 -359h-168z" />
    <glyph glyph-name="uni1EDD" unicode="&#x1edd;" horiz-adv-x="1265" 
d="M1160 1290q28 -213 -95 -280q-31 -16 -59 -22q160 -162 160 -434q0 -261 -148 -423t-394 -162t-394 162.5t-148 422.5t149 421.5t393 161.5q88 0 171 -24q86 -21 131 -1q26 12 41.5 31.5t20 42t6 49.5t-0.5 54zM309 554q0 -178 81.5 -280.5t233.5 -102.5q154 0 234.5 104
t80.5 279q0 177 -80.5 279t-234.5 102q-156 0 -235.5 -103t-79.5 -278zM383 1628h168l145 -358h-168z" />
    <glyph glyph-name="uni1EDE" unicode="&#x1ede;" horiz-adv-x="1516" 
d="M759 -31q-217 0 -376 97t-240.5 270t-81.5 401t81.5 401t240.5 270t376 97q112 0 205 -25q80 -18 125 1q26 12 41.5 31.5t20 42t6 49.5t-0.5 54l167 1q28 -214 -95 -281q-10 -5 -32 -13q126 -100 192.5 -262t66.5 -366q0 -228 -81 -401t-239.5 -270t-375.5 -97zM289 737
q-1 -171 51 -296t158.5 -196t260.5 -72q229 -2 349 150.5t120 413.5q0 260 -120 412t-349 153q-153 1 -260 -70.5t-158 -197.5t-52 -297zM605 2013q53 49 122 65t135.5 -12.5t99.5 -101.5q36 -82 13.5 -148t-75.5 -109.5t-119 -57.5l-47 91q64 23 93.5 65t3.5 93
q-16 33 -47 41.5t-61 -1.5t-59 -32z" />
    <glyph glyph-name="uni1EDF" unicode="&#x1edf;" horiz-adv-x="1248" 
d="M624 -31q-246 0 -394 162.5t-148 422.5t149 421.5t393 161.5q88 0 171 -24q86 -21 131 -1q26 12 41.5 31.5t20 42t6 49.5t-0.5 54l167 1q28 -213 -95 -280q-31 -16 -59 -22q160 -162 160 -434q0 -261 -148 -423t-394 -162zM309 554q0 -178 81.5 -280.5t233.5 -102.5
q154 0 234.5 104t80.5 279q0 177 -80.5 279t-234.5 102q-156 0 -235.5 -103t-79.5 -278zM446 1650q53 49 122 65t135.5 -12.5t99.5 -101.5q36 -82 14 -148.5t-75 -110t-119 -57.5l-48 91q64 23 94 65.5t4 93.5q-16 33 -47 41.5t-61.5 -2t-59.5 -32.5z" />
    <glyph glyph-name="uni1EE0" unicode="&#x1ee0;" horiz-adv-x="1516" 
d="M759 -31q-217 0 -376 97t-240.5 270t-81.5 401t81.5 401t240.5 270t376 97q112 0 205 -25q80 -18 125 1q26 12 41.5 31.5t20 42t6 49.5t-0.5 54l167 1q28 -214 -95 -281q-10 -5 -32 -13q126 -100 192.5 -262t66.5 -366q0 -228 -81 -401t-239.5 -270t-375.5 -97zM289 737
q-1 -171 51 -296t158.5 -196t260.5 -72q229 -2 349 150.5t120 413.5q0 260 -120 412t-349 153q-153 1 -260 -70.5t-158 -197.5t-52 -297zM423 1666q-28 116 17 193t151 77q53 0 114.5 -33.5t114 -67t85.5 -33.5t46 32.5t0 79.5h140q29 -116 -16.5 -194t-152.5 -78
q-53 0 -114.5 34t-114 67.5t-85.5 33.5q-34 0 -46.5 -33.5t0.5 -77.5h-139z" />
    <glyph glyph-name="uni1EE1" unicode="&#x1ee1;" horiz-adv-x="1248" 
d="M624 -31q-246 0 -394 162.5t-148 422.5t149 421.5t393 161.5q88 0 171 -24q86 -21 131 -1q26 12 41.5 31.5t20 42t6 49.5t-0.5 54l167 1q28 -213 -95 -280q-31 -16 -59 -22q160 -162 160 -434q0 -261 -148 -423t-394 -162zM304 1297q-28 116 17 193.5t151 77.5
q53 0 114.5 -33.5t114 -67t85.5 -33.5t46.5 32t0.5 79h139q29 -116 -16.5 -193.5t-152.5 -77.5q-42 0 -90 21t-83.5 46t-74.5 46t-66 21q-34 0 -46.5 -33.5t0.5 -77.5h-139zM309 554q0 -178 81.5 -280.5t233.5 -102.5q154 0 234.5 104t80.5 279q0 177 -80.5 279t-234.5 102
q-156 0 -235.5 -103t-79.5 -278z" />
    <glyph glyph-name="uni1EE2" unicode="&#x1ee2;" horiz-adv-x="1516" 
d="M759 -31q-217 0 -376 97t-240.5 270t-81.5 401t81.5 401t240.5 270t376 97q112 0 205 -25q80 -18 125 1q26 12 41.5 31.5t20 42t6 49.5t-0.5 54l167 1q28 -214 -95 -281q-10 -5 -32 -13q126 -100 192.5 -262t66.5 -366q0 -228 -81 -401t-239.5 -270t-375.5 -97zM289 737
q-1 -171 51 -296t158.5 -196t260.5 -72q229 -2 349 150.5t120 413.5q0 260 -120 412t-349 153q-153 1 -260 -70.5t-158 -197.5t-52 -297zM662 -396v208h226v-208h-226z" />
    <glyph glyph-name="uni1EE3" unicode="&#x1ee3;" horiz-adv-x="1248" 
d="M624 -31q-246 0 -394 162.5t-148 422.5t149 421.5t393 161.5q88 0 171 -24q86 -21 131 -1q26 12 41.5 31.5t20 42t6 49.5t-0.5 54l167 1q28 -213 -95 -280q-31 -16 -59 -22q160 -162 160 -434q0 -261 -148 -423t-394 -162zM309 554q0 -178 81.5 -280.5t233.5 -102.5
q154 0 234.5 104t80.5 279q0 177 -80.5 279t-234.5 102q-156 0 -235.5 -103t-79.5 -278zM525 -396v208h227v-208h-227z" />
    <glyph glyph-name="uni1EE4" unicode="&#x1ee4;" horiz-adv-x="1462" 
d="M731 -31q-262 0 -425 157.5t-163 416.5v931l217 1v-921q0 -91 32 -165.5t85 -121t118.5 -71.5t135.5 -25q95 0 178 42.5t138 132t55 208.5v921h217v-932q0 -259 -163 -416.5t-425 -157.5zM645 -396v208h226v-208h-226z" />
    <glyph glyph-name="uni1EE5" unicode="&#x1ee5;" 
d="M560 -30q-109 0 -191.5 39t-127.5 95t-73 131.5t-36.5 135.5t-8.5 121v614h217v-544q0 -57 6 -107t24.5 -103.5t48.5 -91.5t81.5 -62.5t119.5 -24.5q126 0 203 86t77 271v576h216v-1106h-190v132q-130 -162 -366 -162zM515 -396v208h226v-208h-226z" />
    <glyph glyph-name="uni1EE6" unicode="&#x1ee6;" horiz-adv-x="1462" 
d="M731 -31q-262 0 -425 157.5t-163 416.5v931l217 1v-921q0 -91 32 -165.5t85 -121t118.5 -71.5t135.5 -25q95 0 178 42.5t138 132t55 208.5v921h217v-932q0 -259 -163 -416.5t-425 -157.5zM565 2013q53 49 122 65t135.5 -12.5t99.5 -101.5q36 -82 13.5 -148t-75.5 -109.5
t-119 -57.5l-47 91q64 23 94 65.5t4 92.5q-16 33 -47 41.5t-61.5 -1.5t-59.5 -32z" />
    <glyph glyph-name="uni1EE7" unicode="&#x1ee7;" 
d="M560 -30q-109 0 -191.5 39t-127.5 95t-73 131.5t-36.5 135.5t-8.5 121v614h217v-544q0 -57 6 -107t24.5 -103.5t48.5 -91.5t81.5 -62.5t119.5 -24.5q126 0 203 86t77 271v576h216v-1106h-190v132q-130 -162 -366 -162zM446 1650q53 49 122 65t135.5 -12.5t99.5 -101.5
q36 -82 14 -148.5t-75 -110t-119 -57.5l-48 91q64 23 94 65.5t4 93.5q-16 33 -47 41.5t-61.5 -2t-59.5 -32.5z" />
    <glyph glyph-name="uni1EE8" unicode="&#x1ee8;" horiz-adv-x="1462" 
d="M731 -31q-262 0 -425 157.5t-163 416.5v931l217 1v-921q0 -91 32 -165.5t85 -121t118.5 -71.5t135.5 -25q95 0 178 42.5t138 132t55 208.5v921h92q58 0 87 5q36 6 58.5 23t32 44t12 51.5t1.5 59.5l166 1q27 -205 -94 -278q-52 -31 -138 -35v-803q0 -259 -163 -416.5
t-425 -157.5zM638 1638l145 359h168l-145 -359h-168z" />
    <glyph glyph-name="uni1EE9" unicode="&#x1ee9;" 
d="M560 -30q-109 0 -191.5 39t-127.5 95t-73 131.5t-36.5 135.5t-8.5 121v614h217v-544q0 -57 6 -107t24.5 -103.5t48.5 -91.5t81.5 -62.5t119.5 -24.5q126 0 203 86t77 271v576h50q58 0 87 5t49.5 18t31.5 29t17 39.5t7 44t0 47.5l166 1q27 -204 -95 -277q-43 -24 -97 -32
v-981h-190v132q-130 -162 -366 -162zM526 1270l146 358h168l-146 -358h-168z" />
    <glyph glyph-name="uni1EEA" unicode="&#x1eea;" horiz-adv-x="1462" 
d="M731 -31q-262 0 -425 157.5t-163 416.5v931l217 1v-921q0 -91 32 -165.5t85 -121t118.5 -71.5t135.5 -25q95 0 178 42.5t138 132t55 208.5v921h92q58 0 87 5q36 6 58.5 23t32 44t12 51.5t1.5 59.5l166 1q27 -205 -94 -278q-52 -31 -138 -35v-803q0 -259 -163 -416.5
t-425 -157.5zM521 1997h168l146 -359h-168z" />
    <glyph glyph-name="uni1EEB" unicode="&#x1eeb;" 
d="M560 -30q-109 0 -191.5 39t-127.5 95t-73 131.5t-36.5 135.5t-8.5 121v614h217v-544q0 -57 6 -107t24.5 -103.5t48.5 -91.5t81.5 -62.5t119.5 -24.5q126 0 203 86t77 271v576h101q24 2 36 4q29 5 49.5 18t31.5 29t17 39.5t7 44t0 47.5l166 1q27 -204 -95 -277
q-43 -24 -97 -32v-980h-190v132q-130 -162 -366 -162zM397 1628h168l146 -358h-168z" />
    <glyph glyph-name="uni1EEC" unicode="&#x1eec;" horiz-adv-x="1462" 
d="M731 -31q-262 0 -425 157.5t-163 416.5v931l217 1v-921q0 -91 32 -165.5t85 -121t118.5 -71.5t135.5 -25q95 0 178 42.5t138 132t55 208.5v921h92q58 0 87 5q36 6 58.5 23t32 44t12 51.5t1.5 59.5l166 1q27 -205 -94 -278q-52 -31 -138 -35v-803q0 -259 -163 -416.5
t-425 -157.5zM565 2013q53 49 122 65t135.5 -12.5t99.5 -101.5q36 -82 13.5 -148t-75.5 -109.5t-119 -57.5l-47 91q64 23 94 65.5t4 92.5q-16 33 -47 41.5t-61.5 -1.5t-59.5 -32z" />
    <glyph glyph-name="uni1EED" unicode="&#x1eed;" 
d="M560 -30q-109 0 -191.5 39t-127.5 95t-73 131.5t-36.5 135.5t-8.5 121v614h217v-544q0 -57 6 -107t24.5 -103.5t48.5 -91.5t81.5 -62.5t119.5 -24.5q126 0 203 86t77 271v576h50q58 0 87 5t49.5 18t31.5 29t17 39.5t7 44t0 47.5l166 1q27 -204 -95 -277q-43 -24 -97 -32
v-981h-190v132q-130 -162 -366 -162zM446 1650q53 49 122 65t135.5 -12.5t99.5 -101.5q36 -82 14 -148.5t-75 -110t-119 -57.5l-48 91q64 23 94 65.5t4 93.5q-16 33 -47 41.5t-61.5 -2t-59.5 -32.5z" />
    <glyph glyph-name="uni1EEE" unicode="&#x1eee;" horiz-adv-x="1462" 
d="M731 -31q-262 0 -425 157.5t-163 416.5v931l217 1v-921q0 -91 32 -165.5t85 -121t118.5 -71.5t135.5 -25q95 0 178 42.5t138 132t55 208.5v921h92q58 0 87 5q36 6 58.5 23t32 44t12 51.5t1.5 59.5l166 1q27 -205 -94 -278q-52 -31 -138 -35v-803q0 -259 -163 -416.5
t-425 -157.5zM418 1666q-28 116 17 193t151 77q53 0 114.5 -33.5t114 -67t85.5 -33.5t46 32.5t0 79.5h139q29 -116 -16.5 -194t-152.5 -78q-42 0 -90 21t-83 46.5t-74 46.5t-66 21q-34 0 -46.5 -33.5t0.5 -77.5h-139z" />
    <glyph glyph-name="uni1EEF" unicode="&#x1eef;" 
d="M560 -30q-109 0 -191.5 39t-127.5 95t-73 131.5t-36.5 135.5t-8.5 121v614h217v-544q0 -57 6 -107t24.5 -103.5t48.5 -91.5t81.5 -62.5t119.5 -24.5q126 0 203 86t77 271v576h50q58 0 87 5t49.5 18t31.5 29t17 39.5t7 44t0 47.5l166 1q27 -204 -95 -277q-43 -24 -97 -32
v-981h-190v132q-130 -162 -366 -162zM304 1297q-28 116 17 193.5t151 77.5q53 0 114.5 -33.5t114 -67t85.5 -33.5t46.5 32t0.5 79h139q29 -116 -16.5 -193.5t-152.5 -77.5q-42 0 -90 21t-83.5 46t-74.5 46t-66 21q-34 0 -46.5 -33.5t0.5 -77.5h-139z" />
    <glyph glyph-name="uni1EF0" unicode="&#x1ef0;" horiz-adv-x="1462" 
d="M731 -31q-262 0 -425 157.5t-163 416.5v931l217 1v-921q0 -91 32 -165.5t85 -121t118.5 -71.5t135.5 -25q95 0 178 42.5t138 132t55 208.5v921h92q58 0 87 5q36 6 58.5 23t32 44t12 51.5t1.5 59.5l166 1q27 -205 -94 -278q-52 -31 -138 -35v-803q0 -259 -163 -416.5
t-425 -157.5zM624 -396v208h226v-208h-226z" />
    <glyph glyph-name="uni1EF1" unicode="&#x1ef1;" 
d="M560 -30q-109 0 -191.5 39t-127.5 95t-73 131.5t-36.5 135.5t-8.5 121v614h217v-544q0 -57 6 -107t24.5 -103.5t48.5 -91.5t81.5 -62.5t119.5 -24.5q126 0 203 86t77 271v576h50q58 0 87 5t49.5 18t31.5 29t17 39.5t7 44t0 47.5l166 1q27 -204 -95 -277q-43 -24 -97 -32
v-981h-190v132q-130 -162 -366 -162zM525 -396v208h227v-208h-227z" />
    <glyph glyph-name="Ygrave" unicode="&#x1ef2;" horiz-adv-x="1214" 
d="M499 0v609l-499 866h250l357 -620l358 620h249l-498 -866v-609h-217zM382 1997h168l145 -359h-168z" />
    <glyph glyph-name="ygrave" unicode="&#x1ef3;" horiz-adv-x="1123" 
d="M293 -492l182 497l-447 1101h223l327 -832l312 832h217l-610 -1598h-204zM350 1628h168l146 -358h-168z" />
    <glyph glyph-name="uni1EF4" unicode="&#x1ef4;" horiz-adv-x="1214" 
d="M499 0v609l-499 866h250l357 -620l358 620h249l-498 -866v-609h-217zM494 -396v208h226v-208h-226z" />
    <glyph glyph-name="uni1EF5" unicode="&#x1ef5;" horiz-adv-x="1123" 
d="M293 -492l182 497l-447 1101h223l327 -832l312 832h217l-610 -1598h-204zM775 -396v208h226v-208h-226z" />
    <glyph glyph-name="uni1EF6" unicode="&#x1ef6;" horiz-adv-x="1214" 
d="M499 0v609l-499 866h250l357 -620l358 620h249l-498 -866v-609h-217zM419 2013q53 49 122 65t135 -12.5t99 -101.5q36 -82 14 -148t-75 -109.5t-119 -57.5l-47 91q64 23 93.5 65t3.5 93q-16 33 -47 41.5t-61.5 -1.5t-59.5 -32z" />
    <glyph glyph-name="uni1EF7" unicode="&#x1ef7;" horiz-adv-x="1123" 
d="M293 -492l182 497l-447 1101h223l327 -832l312 832h217l-610 -1598h-204zM385 1650q53 49 122 65t135 -12.5t99 -101.5q36 -82 14 -148.5t-75 -110t-119 -57.5l-47 91q63 22 93 65t4 94q-16 33 -47 41.5t-61.5 -2t-59.5 -32.5z" />
    <glyph glyph-name="uni1EF8" unicode="&#x1ef8;" horiz-adv-x="1214" 
d="M499 0v609l-499 866h250l357 -620l358 620h249l-498 -866v-609h-217zM283 1666q-28 116 17 193t151 77q53 0 114.5 -33.5t114 -67t85.5 -33.5t46 32.5t0 79.5h139q29 -116 -16.5 -194t-152.5 -78q-42 0 -90 21t-83 46.5t-74 46.5t-66 21q-34 0 -46.5 -33.5t0.5 -77.5
h-139z" />
    <glyph glyph-name="uni1EF9" unicode="&#x1ef9;" horiz-adv-x="1123" 
d="M293 -492l182 497l-447 1101h223l327 -832l312 832h217l-610 -1598h-204zM240 1297q-28 116 17 193.5t151 77.5q53 0 114.5 -33.5t114 -67t85.5 -33.5t46 32t0 79h139q29 -116 -16.5 -193.5t-152.5 -77.5q-53 0 -114 33.5t-113.5 67t-85.5 33.5q-34 0 -46.5 -33.5
t0.5 -77.5h-139z" />
    <glyph glyph-name="uni2011" unicode="&#x2011;" horiz-adv-x="860" 
d="M123 560v172h614v-172h-614z" />
    <glyph glyph-name="endash" unicode="&#x2013;" horiz-adv-x="1105" 
d="M123 560v172h860v-172h-860z" />
    <glyph glyph-name="emdash" unicode="&#x2014;" horiz-adv-x="1597" 
d="M123 560v172h1352v-172h-1352z" />
    <glyph glyph-name="quoteleft" unicode="&#x2018;" horiz-adv-x="539" 
d="M376 983q-108 -20 -167 40.5t-59 183.5v268h226v-247h-118q-8 -71 16.5 -113t87.5 -37z" />
    <glyph glyph-name="quoteright" unicode="&#x2019;" horiz-adv-x="539" 
d="M177 1078q63 -5 88 37t17 113h-118v247h226v-268q0 -123 -59 -183.5t-167 -40.5z" />
    <glyph glyph-name="quotesinglbase" unicode="&#x201a;" horiz-adv-x="594" 
d="M136 -150q63 -5 88 37t17 113h-118v247h226v-267q0 -123 -59 -184t-167 -41z" />
    <glyph glyph-name="quotedblleft" unicode="&#x201c;" horiz-adv-x="869" 
d="M692 1384q-63 5 -87.5 -36.5t-16.5 -112.5h118v-247h-227v267q0 123 59.5 184t167.5 41zM164 988v267q0 123 59 184t167 41l-13 -96q-63 5 -88 -36.5t-17 -112.5h118v-247h-226z" />
    <glyph glyph-name="quotedblright" unicode="&#x201d;" horiz-adv-x="869" 
d="M177 1084q63 -5 88 37t17 113h-118v247h226v-268q0 -123 -59 -183.5t-167 -40.5zM479 989l14 95q63 -5 87.5 37t16.5 113h-118v247h227v-268q0 -123 -59 -183.5t-168 -40.5z" />
    <glyph glyph-name="quotedblbase" unicode="&#x201e;" horiz-adv-x="869" 
d="M177 -150q63 -5 88 37t17 113h-118v247h226v-267q0 -123 -59 -184t-167 -41zM479 -245l14 95q63 -5 87.5 37t16.5 113h-118v247h227v-267q0 -123 -59.5 -184t-167.5 -41z" />
    <glyph glyph-name="uni201F" unicode="&#x201f;" horiz-adv-x="869" 
d="M706 989q-109 -20 -168 40.5t-59 183.5v268h227v-247h-118q-8 -71 16.5 -113t87.5 -37zM164 1213v268h226v-247h-118q-8 -71 17 -113t88 -37l13 -95q-108 -20 -167 40.5t-59 183.5z" />
    <glyph glyph-name="dagger" unicode="&#x2020;" horiz-adv-x="1105" 
d="M445 0v934h-322v172h322v369h214v-369h324v-172h-324v-934h-214z" />
    <glyph glyph-name="daggerdbl" unicode="&#x2021;" horiz-adv-x="910" 
d="M348 0v459h-224v172h224v269h-224v172h224v403h214v-403h225v-172h-225v-269h225v-172h-225v-459h-214z" />
    <glyph glyph-name="bullet" unicode="&#x2022;" horiz-adv-x="1405" 
d="M709 372q-117 0 -198 78.5t-81 194.5q0 117 81 195.5t198 78.5q110 0 188.5 -79t78.5 -195q0 -115 -78.5 -194t-188.5 -79z" />
    <glyph glyph-name="ellipsis" unicode="&#x2026;" horiz-adv-x="1400" 
d="M164 0v226h226v-226h-226zM587 0v226h226v-226h-226zM1011 0v226h226v-226h-226z" />
    <glyph glyph-name="perthousand" unicode="&#x2030;" horiz-adv-x="2691" 
d="M1353 -31q-153 0 -261 108t-108 261q0 150 110.5 259.5t258.5 109.5q153 0 260.5 -107.5t107.5 -261.5t-107.5 -261.5t-260.5 -107.5zM123 1137q0 150 110 259t259 109q153 0 260.5 -107.5t107.5 -260.5t-108 -261t-260 -108q-153 0 -261 108t-108 261zM184 143
l1333 1332l143 -145l-1332 -1330zM308 1137q0 -74 55 -129t129 -55t128.5 55t54.5 129t-54.5 128.5t-128.5 54.5t-129 -54.5t-55 -128.5zM1169 338q0 -74 55 -128.5t129 -54.5t128.5 54.5t54.5 128.5t-54.5 128.5t-128.5 54.5t-129 -54.5t-55 -128.5zM1831 338
q0 150 110.5 259.5t258.5 109.5q152 0 260 -107.5t108 -261.5t-108 -261.5t-260 -107.5q-153 0 -261 108t-108 261zM2016 338q0 -74 55 -128.5t129 -54.5t128.5 54.5t54.5 128.5t-54.5 128.5t-128.5 54.5t-129 -54.5t-55 -128.5z" />
    <glyph glyph-name="second" unicode="&#x2033;" horiz-adv-x="869" 
d="M177 1084q63 -5 88 37t17 113h-118v247h226v-268q0 -123 -59 -183.5t-167 -40.5zM479 989l14 95q63 -5 87.5 37t16.5 113h-118v247h227v-268q0 -123 -59 -183.5t-168 -40.5z" />
    <glyph glyph-name="guilsinglleft" unicode="&#x2039;" horiz-adv-x="1289" 
d="M775 157l-488 488l488 489l133 -134l-362 -355l362 -355z" />
    <glyph glyph-name="guilsinglright" unicode="&#x203a;" horiz-adv-x="1289" 
d="M514 157l-133 133l362 355l-362 355l133 134l488 -489z" />
    <glyph glyph-name="fraction" unicode="&#x2044;" horiz-adv-x="497" 
d="M-202 0l-130 98l1031 1386l130 -99z" />
    <glyph glyph-name="uni2060" unicode="&#x2060;" horiz-adv-x="0" 
 />
    <glyph glyph-name="uni2070" unicode="&#x2070;" horiz-adv-x="943" 
d="M472 529q-149 0 -239 93.5t-90 250.5v277q0 154 90.5 248.5t238.5 94.5q147 0 237.5 -93.5t90.5 -249.5v-277q0 -157 -88.5 -250.5t-239.5 -93.5zM292 872q0 -93 47.5 -149t132.5 -56q83 0 132 55.5t49 149.5v279q0 92 -48.5 149t-132.5 57q-82 0 -131 -56t-49 -150v-279
z" />
    <glyph glyph-name="uni2074" unicode="&#x2074;" horiz-adv-x="851" 
d="M515 553v157h-413v136l298 629h165l-298 -629h248v245h145v-245h90v-136h-90v-157h-145z" />
    <glyph glyph-name="uni2075" unicode="&#x2075;" horiz-adv-x="826" 
d="M401 532q-105 0 -187.5 63.5t-111.5 165.5l139 37q15 -57 62 -92t104 -35q71 0 121.5 50.5t50.5 120.5q0 71 -51 122t-121 51q-96 0 -150 -70l-124 43l28 487h499v-135h-372l-13 -241q64 45 151 45q129 0 213.5 -85.5t84.5 -216.5q0 -128 -96 -219t-227 -91z" />
    <glyph glyph-name="uni2076" unicode="&#x2076;" horiz-adv-x="901" 
d="M465 526q-138 0 -230 94t-92 239v289q0 156 93 250.5t244 94.5t248 -104l-105 -102q-59 70 -143 70q-82 0 -135 -56.5t-53 -132.5v-104q81 78 192 78q131 0 216 -86.5t85 -217.5q0 -130 -94 -221t-226 -91zM292 838q0 -71 50.5 -122t122.5 -51t122.5 50.5t50.5 122.5
q0 71 -51 121.5t-122 50.5t-122 -50.5t-51 -121.5z" />
    <glyph glyph-name="uni2077" unicode="&#x2077;" horiz-adv-x="746" 
d="M167 553l322 785h-407v137h562v-137l-320 -785h-157z" />
    <glyph glyph-name="uni2078" unicode="&#x2078;" horiz-adv-x="873" 
d="M436 526q-137 0 -225 81.5t-88 208.5q0 148 109 227q-86 75 -86 190q0 118 80.5 189t209.5 71t209.5 -71t80.5 -189t-87 -190q112 -80 112 -227q0 -127 -88.5 -208.5t-226.5 -81.5zM276 816q0 -72 43.5 -111.5t116.5 -39.5t117 39.5t44 111.5q0 75 -44 115.5t-117 40.5
t-116.5 -40.5t-43.5 -115.5zM301 1233q0 -61 36 -92t99 -31t99.5 31t36.5 92t-36.5 92t-99.5 31t-99 -31t-36 -92z" />
    <glyph glyph-name="uni2079" unicode="&#x2079;" horiz-adv-x="901" 
d="M436 1493q138 0 230 -94t92 -239v-289q0 -156 -93 -250.5t-244 -94.5q-150 0 -248 105l106 101q58 -69 142 -69q82 0 135 56t53 132v104q-80 -77 -192 -77q-131 0 -216 86.5t-85 217.5q0 130 94 220.5t226 90.5zM263 1182q0 -71 51 -121.5t122 -50.5t122 50.5t51 121.5
t-50.5 122t-122.5 51t-122.5 -50.5t-50.5 -122.5z" />
    <glyph glyph-name="uni2080" unicode="&#x2080;" horiz-adv-x="943" 
d="M472 -24q-149 0 -239 94t-90 251v276q0 154 90.5 248.5t238.5 94.5q147 0 237.5 -93.5t90.5 -249.5v-276q0 -157 -88.5 -251t-239.5 -94zM292 319q0 -93 47.5 -149t132.5 -56q83 0 132 55.5t49 149.5v279q0 92 -48.5 149t-132.5 57q-82 0 -131 -56t-49 -150v-279z" />
    <glyph glyph-name="uni2081" unicode="&#x2081;" horiz-adv-x="689" 
d="M296 0v764l-173 -106v160l173 104h147v-922h-147z" />
    <glyph glyph-name="uni2082" unicode="&#x2082;" horiz-adv-x="835" 
d="M102 0l1 127l398 357q84 73 84 153q0 73 -46 121t-117 48q-73 0 -122 -49.5t-47 -117.5h-149q0 136 89.5 219.5t231.5 83.5q133 0 220.5 -86.5t87.5 -219.5q0 -47 -9 -83.5t-31.5 -69.5t-46.5 -58t-68 -64l-252 -225h407v-136h-631z" />
    <glyph glyph-name="uni2083" unicode="&#x2083;" horiz-adv-x="818" 
d="M382 -22q-104 0 -187.5 60t-112.5 159l140 37q17 -57 60.5 -87.5t99.5 -30.5q72 1 119 48.5t47 119.5q0 73 -47 121.5t-119 48.5q-40 0 -84 -23l-68 114l274 239h-385v138h562v-139l-220 -211q108 -18 171 -97.5t63 -190.5q0 -131 -90.5 -218.5t-222.5 -87.5z" />
    <glyph glyph-name="uni2084" unicode="&#x2084;" horiz-adv-x="851" 
d="M515 0v157h-413v136l298 629h165l-298 -629h248v245h145v-245h90v-136h-90v-157h-145z" />
    <glyph glyph-name="uni2085" unicode="&#x2085;" horiz-adv-x="826" 
d="M401 -20q-105 0 -187.5 63t-111.5 165l139 37q15 -57 62 -92t104 -35q71 0 121.5 50.5t50.5 120.5q0 71 -51 122t-121 51q-96 0 -150 -70l-124 43l28 487h499v-135h-372l-13 -241q64 45 151 45q129 0 213.5 -85.5t84.5 -216.5q0 -128 -95.5 -218.5t-227.5 -90.5z" />
    <glyph glyph-name="uni2086" unicode="&#x2086;" horiz-adv-x="901" 
d="M465 -27q-138 0 -230 94t-92 239v289q0 156 93 250.5t244 94.5t248 -104l-105 -102q-59 70 -143 70q-82 0 -135 -56.5t-53 -132.5v-104q81 78 192 78q131 0 216 -86.5t85 -217.5q0 -130 -94 -221t-226 -91zM292 285q0 -71 50.5 -122t122.5 -51t122.5 50.5t50.5 122.5
q0 71 -51 121.5t-122 50.5t-122 -50.5t-51 -121.5z" />
    <glyph glyph-name="uni2087" unicode="&#x2087;" horiz-adv-x="746" 
d="M167 0l322 785h-407v137h562v-137l-320 -785h-157z" />
    <glyph glyph-name="uni2088" unicode="&#x2088;" horiz-adv-x="873" 
d="M436 -27q-137 0 -225 81.5t-88 208.5q0 148 109 227q-86 75 -86 190q0 118 80.5 189t209.5 71t209.5 -71t80.5 -189t-87 -190q112 -80 112 -227q0 -127 -88.5 -208.5t-226.5 -81.5zM276 263q0 -72 43.5 -111.5t116.5 -39.5t117 39.5t44 111.5q0 75 -44 115.5t-117 40.5
t-116.5 -40.5t-43.5 -115.5zM301 680q0 -61 36 -92t99 -31t99.5 31t36.5 92t-36.5 92t-99.5 31t-99 -31t-36 -92z" />
    <glyph glyph-name="uni2089" unicode="&#x2089;" horiz-adv-x="901" 
d="M436 940q138 0 230 -94t92 -239v-289q0 -156 -93 -250.5t-244 -94.5q-150 0 -248 105l106 101q58 -69 142 -69q82 0 135 56t53 132v104q-80 -77 -192 -77q-131 0 -216 86.5t-85 217.5q0 130 94 220.5t226 90.5zM263 629q0 -71 51 -121.5t122 -50.5t122 50.5t51 121.5
t-50.5 122t-122.5 51t-122.5 -50.5t-50.5 -122.5z" />
    <glyph glyph-name="franc" unicode="&#x20a3;" horiz-adv-x="1149" 
d="M61 233v173h175v1069h873v-214h-659v-416h536v-215h-536v-224h292v-173h-292v-233h-214v233h-175z" />
    <glyph glyph-name="uni20A9" unicode="&#x20a9;" horiz-adv-x="2038" 
d="M61 651v172h190l-190 652h225l181 -652h258l181 651l226 1l181 -652h258l181 652h225l-189 -652h189v-172h-239l-190 -651h-213l-186 651h-260l-187 -651h-213l-189 651h-239zM515 651l81 -292l81 292h-162zM939 823h160l-80 280zM1361 651l81 -292l81 292h-162z" />
    <glyph glyph-name="uni20AA" unicode="&#x20aa;" horiz-adv-x="1713" 
d="M123 0v1475h568q57 0 114 -9q180 -28 275 -153.5t95 -310.5v-599h-218v599q0 92 -44.5 165.5t-136.5 95.5q-37 10 -93 10h-346v-1273h-214zM539 472v599h217v-599q0 -91 44.5 -164.5t136.5 -95.5q37 -10 93 -10h346v1273h214v-1475h-568q-63 0 -114 8q-180 29 -274.5 154
t-94.5 310z" />
    <glyph glyph-name="dong" unicode="&#x20ab;" horiz-adv-x="1246" 
d="M583 263q-102 0 -189.5 24t-158.5 74t-112 136t-41 200q0 115 41 202t112.5 138t160 75.5t191.5 24.5q185 0 301 -77v211h-185v171h185v92h215v-92h136v-171h-136v-984h-191v74q-117 -98 -329 -98zM171 0v167h968v-167h-968zM309 697q0 -128 82.5 -187.5t213.5 -59.5
q138 0 222.5 59.5t84.5 187.5q0 66 -23.5 115t-66.5 77t-97 41t-120 13q-63 0 -115 -13.5t-93.5 -41.5t-64.5 -76.5t-23 -114.5z" />
    <glyph glyph-name="Euro" unicode="&#x20ac;" horiz-adv-x="1375" 
d="M921 -31q-255 0 -428.5 138t-237.5 374h-194v172h165q-4 37 -4 84q2 52 4 81h-165v172h195q63 242 235 378.5t430 136.5q211 0 371 -99l-113 -178q-112 73 -258 75q-166 1 -275.5 -81.5t-158.5 -231.5h530v-172h-563q-4 -54 -4 -81q0 -30 4 -84h563v-172h-529
q48 -148 158 -228.5t275 -79.5q144 -3 260 73l112 -176q-163 -101 -372 -101z" />
    <glyph glyph-name="uni20AE" unicode="&#x20ae;" horiz-adv-x="1235" 
d="M262 177v213l249 106v185l-249 -106v213l249 106v379h-491v202h1195v-202h-490v-287l249 106v-213l-249 -106v-185l249 105v-213l-249 -105v-375h-214v283z" />
    </font>
</defs>
</svg>
